osu file format v14

[General]
AudioFilename: audio.mp3
AudioLeadIn: 0
PreviewTime: 51145
Countdown: 0
SampleSet: Soft
StackLeniency: 0.3
Mode: 0
LetterboxInBreaks: 0
WidescreenStoryboard: 1

[Editor]
Bookmarks: 9691,18418,27145,35873,44600,51145,68600,79509
DistanceSpacing: 1.8
BeatDivisor: 6
GridSize: 32
TimelineZoom: 1.4

[Metadata]
Title:SHINY DAYS (TV Size)
TitleUnicode:SHINY DAYS (TV Size)
Artist:Asaka
ArtistUnicode:亜咲花
Creator:Iceluin
Version:Hard
Source:Yuru Camp △
Tags:hypercyte hypercute anime japanese ゆるキャン△ Laid-Back Camp yurukyan nadeshiko kagamihara shima rin oogaki chiaki inuyama aoi saito ena op opening Δ
BeatmapID:2662136
BeatmapSetID:1127355

[Difficulty]
HPDrainRate:5
CircleSize:4
OverallDifficulty:6
ApproachRate:8
SliderMultiplier:2
SliderTickRate:1

[Events]
//Background and Video events
0,0,"nade to rin.png",0,0
Video,460,"nadeshiko days.avi"
//Break Periods
//Storyboard Layer 0 (Background)
//Storyboard Layer 1 (Fail)
//Storyboard Layer 2 (Pass)
//Storyboard Layer 3 (Foreground)
//Storyboard Layer 4 (Overlay)
//Storyboard Sound Samples

[TimingPoints]
964,545.454545454546,4,2,1,45,1,0
964,-133.333333333333,4,2,1,45,0,0
7509,-100,4,2,2,55,0,0
9691,-100,4,2,2,65,0,0
18418,-100,4,2,3,50,0,0
26054,-100,4,2,2,50,0,0
27145,-100,4,2,2,55,0,0
29873,-100,4,2,3,55,0,0
30145,-100,4,2,2,55,0,0
35873,-133.333333333333,4,2,3,40,0,0
42418,-133.333333333333,4,2,2,40,0,0
44600,-100,4,2,2,45,0,0
51145,-100,4,2,2,75,0,1
68600,-100,4,2,2,60,0,0
68668,-100,4,2,2,5,0,0
68873,-100,4,2,2,60,0,0
70850,-100,4,2,2,5,0,0
71054,-100,4,2,2,60,0,0
73032,-100,4,2,2,5,0,0
73236,-100,4,2,2,60,0,0
79509,-100,4,2,2,65,0,0
88236,-100,4,2,2,50,0,0
90418,-100,4,2,2,5,0,0

[Colours]
Combo1 : 255,128,64
Combo2 : 251,153,234
Combo3 : 0,138,204
Combo4 : 129,254,185

[HitObjects]
96,320,964,6,0,P|77:323|59:321,1,37.5000014305115,6|0,0:0|0:0,0:0:0:0:
59,232,1236,2,0,P|77:230|95:232,1,37.5000014305115,2|0,0:0|0:0,0:0:0:0:
175,278,1509,1,10,1:2:0:0:
327,183,1782,5,0,0:0:0:0:
327,183,1918,2,0,L|327:108,1,75.0000028610231,2|0,0:3|0:0,0:0:0:0:
398,53,2327,2,0,B|435:53,1,37.5000014305115,0|0,0:0|0:0,0:0:0:0:
506,109,2600,2,0,L|506:222,1,112.500004291535,8|0,1:2|0:0,0:0:0:0:
429,268,3145,6,0,B|409:274|409:274|393:268,1,37.5000014305115,2|0,0:0|0:0,0:0:0:0:
393,177,3418,2,0,B|413:171|413:171|428:177,1,37.5000014305115,2|0,0:0|0:0,0:0:0:0:
506,221,3691,1,10,1:2:0:0:
315,221,3964,5,0,0:0:0:0:
315,221,4100,2,0,L|240:221,1,75.0000028610231,2|0,0:3|0:0,0:0:0:0:
166,273,4509,2,0,B|128:273,1,37.5000014305115,0|0,0:0|0:0,0:0:0:0:
54,221,4782,2,0,P|33:169|49:116,1,112.500004291535,8|0,1:2|0:0,0:0:0:0:
127,71,5327,6,0,L|165:71,1,37.5000014305115,6|0,0:0|0:0,0:0:0:0:
165,162,5600,2,0,L|128:162,1,37.5000014305115,2|0,0:0|0:0,0:0:0:0:
48,116,5873,1,10,1:2:0:0:
244,116,6145,5,0,0:0:0:0:
244,116,6282,2,0,L|320:116,1,75.0000028610231,2|0,0:3|0:0,0:0:0:0:
386,176,6691,2,0,B|392:195|392:195|385:211,1,37.5000014305115
319,273,6964,2,0,B|206:273,1,112.500004291535,8|0,1:2|0:0,0:0:0:0:
206,362,7509,6,0,B|272:362|272:362|286:372|286:372|352:372,1,150,6|0,1:2|0:0,0:0:0:0:
442,372,8054,2,0,P|428:324|442:276,1,100,6|0,1:2|0:0,0:0:0:0:
504,173,8509,2,0,B|474:187|440:166|440:166|409:186|377:173,1,133.333333333333,6|0,1:2|1:0,0:0:0:0:
218,87,9145,1,8,0:0:0:0:
377,3,9418,1,8,0:0:0:0:
218,87,9691,6,0,L|118:87,1,100,6|2,1:2|0:0,0:0:0:0:
58,18,10100,1,0,1:0:0:0:
0,87,10236,2,0,L|0:158,1,50,8|2,0:0|0:0,0:0:0:0:
58,205,10509,1,0,0:0:0:0:
58,205,10645,2,0,P|73:251|57:298,1,100,2|0,1:2|0:0,0:0:0:0:
168,298,11054,2,0,P|153:252|168:205,2,100,2|10|2,1:2|0:0|0:0,0:0:0:0:
343,252,11873,6,0,L|243:252,1,100,2|2,1:2|0:0,0:0:0:0:
168,204,12282,1,0,1:0:0:0:
243,155,12418,2,0,B|293:155,1,50,8|2,0:0|0:0,0:0:0:0:
383,155,12691,1,0,0:0:0:0:
383,155,12827,2,0,B|383:55,1,100,2|0,1:2|0:0,0:0:0:0:
293,55,13236,2,0,B|293:155,2,100,2|10|10,1:2|0:0|0:0,0:0:0:0:
473,55,14054,6,0,L|473:155,1,100,2|2,1:2|0:0,0:0:0:0:
473,246,14464,1,0,1:0:0:0:
395,292,14600,2,0,B|345:292,1,50,8|2,0:0|0:0,0:0:0:0:
266,246,14873,1,0,0:0:0:0:
266,246,15009,2,0,B|219:229|219:229|172:246,1,100,2|0,1:2|0:0,0:0:0:0:
172,337,15418,2,0,B|218:354|218:354|275:335,2,100,2|10|10,1:2|0:0|0:0,0:0:0:0:
15,246,16237,6,0,L|15:146,1,100,6|2,1:2|0:0,0:0:0:0:
81,85,16645,1,0,0:0:0:0:
146,146,16782,2,0,B|146:196,1,50,10|0,0:0|0:0,0:0:0:0:
235,196,17054,2,0,B|235:146,1,50,10|0,0:0|1:0,0:0:0:0:
302,85,17327,1,14,0:0:0:0:
302,85,17464,1,8,0:0:0:0:
367,146,17600,2,0,B|391:155|391:155|420:142,1,50,2|0,1:2|0:0,0:0:0:0:
488,95,17873,2,0,B|488:195,1,100,10|2,0:0|1:2,0:0:0:0:
488,375,18418,5,6,0:0:0:0:
488,375,18691,2,0,L|439:375,1,50
357,335,18964,2,0,P|341:289|356:242,1,100,0|0,1:0|0:0,0:0:0:0:
230,114,19509,5,2,0:0:0:0:
230,114,19645,1,0,0:0:0:0:
357,242,19918,1,2,0:0:0:0:
357,242,20054,2,0,L|457:242,1,100,0|2,1:0|0:0,0:0:0:0:
457,61,20600,5,2,0:3:0:0:
457,61,20736,1,2,0:0:0:0:
457,61,20873,2,0,L|407:61,1,50,2|0,0:0|0:0,0:0:0:0:
330,114,21145,2,0,L|230:114,1,100,8|2,0:0|0:0,0:0:0:0:
84,6,21691,5,2,0:0:0:0:
84,6,21827,1,0,0:0:0:0:
230,114,22100,1,2,0:0:0:0:
230,114,22236,2,0,P|245:160|230:206,1,100,0|2,1:0|0:0,0:0:0:0:
159,374,22782,5,6,0:0:0:0:
159,374,23054,2,0,L|109:374,1,50
109,283,23327,2,0,B|174:283|174:283|191:294|191:294|255:294,1,150,2|0,1:2|0:0,0:0:0:0:
327,238,23873,1,2,0:0:0:0:
327,238,24145,6,0,L|377:238,1,50
377,147,24418,2,0,B|312:147|312:147|295:158|295:158|231:158,1,150,2|0,1:2|0:0,0:0:0:0:
158,102,24964,1,6,1:2:0:0:
158,102,25236,2,0,B|148:79|148:79|157:56,1,50
230,2,25509,6,0,B|268:-17|305:16|289:31|326:53|364:38,1,150,2|0,1:2|0:0,0:0:0:0:
445,0,26054,1,2,1:2:0:0:
445,0,26191,2,0,P|461:46|444:92,1,100,10|0,0:0|0:0,0:0:0:0:
377,147,26600,2,0,L|377:197,1,50,8|2,0:0|0:0,0:0:0:0:
377,287,26873,1,8,0:0:0:0:
203,333,27145,6,0,P|187:286|202:239,1,100,2|2,1:2|0:0,0:0:0:0:
268,178,27554,1,0,0:0:0:0:
268,178,27691,2,0,L|268:78,1,100,10|2,0:0|0:0,0:0:0:0:
86,75,28236,2,0,L|86:175,1,100,2|0,1:2|0:0,0:0:0:0:
14,230,28645,2,0,P|-2:276|14:322,1,100,2|0,0:0|0:0,0:0:0:0:
86,376,29054,1,2,0:0:0:0:
241,285,29327,5,0,1:0:0:0:
241,285,29464,1,0,0:0:0:0:
241,285,29600,2,0,L|291:285,1,50,0|0,1:0|0:0,0:0:0:0:
367,333,29873,2,0,B|414:350|414:350|460:332,1,100,8|2,0:0|0:0,0:0:0:0:
461,152,30418,2,0,B|414:134|414:134|367:151,1,100,0|0,1:2|0:0,0:0:0:0:
291,201,30827,2,0,L|191:201,1,100,2|0,0:0|0:0,0:0:0:0:
133,131,31236,1,2,0:0:0:0:
0,292,31509,5,2,1:2:0:0:
0,292,31781,2,0,B|-9:316|-9:316|0:338,1,50,2|0,0:0|0:0,0:0:0:0:
92,338,32054,2,0,B|106:308|106:308|70:235|70:235|84:202,1,150,10|0,0:0|0:0,0:0:0:0:
133,131,32600,1,2,1:2:0:0:
133,131,32873,6,0,B|124:107|124:107|133:84,1,50,2|0,0:0|0:0,0:0:0:0:
225,85,33146,2,0,B|239:114|239:114|203:187|203:187|217:220,1,150,10|0,0:0|0:0,0:0:0:0:
274,290,33692,5,2,1:2:0:0:
274,290,33964,2,0,B|324:290,1,50,10|0,0:0|0:0,0:0:0:0:
399,338,34236,1,10,0:0:0:0:
399,338,34373,2,0,B|390:362|390:362|401:384,2,50,8|2|0,0:0|0:0|0:0,0:0:0:0:
475,290,34782,2,0,P|491:243|474:197,1,100,8|0,0:3|0:0,0:0:0:0:
399,147,35191,2,0,P|382:100|398:54,1,100,8|2,0:3|0:0,0:0:0:0:
474,4,35600,1,10,0:0:0:0:
292,100,35873,6,0,P|255:107|219:100,1,75.0000028610231,2|0,0:3|0:0,0:0:0:0:
76,30,36418,2,0,P|112:22|148:29,1,75.0000028610231,0|0,1:0|0:0,0:0:0:0:
292,100,36964,2,0,L|292:175,1,75.0000028610231,2|0,0:3|0:0,0:0:0:0:
239,248,37373,2,0,B|292:227|292:227|344:248,1,112.500004291535,0|0,0:0|0:0,0:0:0:0:
493,149,38054,6,0,B|457:161|457:161|422:149,1,75.0000028610231,2|0,0:3|0:0,0:0:0:0:
292,26,38600,1,0,1:0:0:0:
164,121,38873,2,0,L|164:159,1,37.5000014305115,0|0,0:0|0:0,0:0:0:0:
164,248,39145,1,2,0:3:0:0:
315,284,39418,2,0,P|324:248|313:212,2,75.0000028610231,2|2|2,0:0|1:2|0:0,0:0:0:0:
164,248,40236,6,0,L|239:248,1,75.0000028610231,4|0,0:0|0:0,0:0:0:0:
354,363,40782,2,0,L|279:363,1,75.0000028610231,0|0,1:0|0:0,0:0:0:0:
164,248,41327,2,0,P|182:299|164:351,2,112.500004291535,2|0|0,0:3|0:0|0:0,0:0:0:0:
82,129,42418,6,0,B|69:92|69:92|83:58,1,75.0000028610231,6|8,1:2|0:3,0:0:0:0:
244,58,42964,2,0,B|258:92|258:92|245:129,1,75.0000028610231,8|8,0:3|0:3,0:0:0:0:
164,248,43509,1,2,1:2:0:0:
164,248,43782,1,2,1:2:0:0:
279,315,44054,2,0,L|318:315,1,37.5000014305115,10|0,0:0|0:0,0:0:0:0:
375,246,44327,2,0,L|412:246,1,37.5000014305115,8|0,0:0|0:0,0:0:0:0:
470,315,44600,6,0,P|444:245|469:176,1,150,6|0,1:2|0:0,0:0:0:0:
512,97,45145,1,8,0:0:0:0:
344,29,45418,2,0,B|282:29|282:29|262:41|262:41|198:41,1,150,6|0,1:2|0:0,0:0:0:0:
132,104,45964,2,0,L|132:154,1,50,10|0,0:0|0:0,0:0:0:0:
197,215,46236,2,0,L|247:215,1,50,10|0,0:0|0:0,0:0:0:0:
320,169,46509,2,0,B|300:215|300:215|320:260,1,100,6|0,1:2|0:0,0:0:0:0:
468,363,47054,5,2,0:0:0:0:
509,337,47191,1,2,0:0:0:0:
467,314,47327,1,10,0:0:0:0:
320,260,47600,5,2,0:0:0:0:
279,286,47737,1,2,0:0:0:0:
321,309,47873,1,2,1:2:0:0:
424,218,48145,5,2,0:0:0:0:
465,192,48282,1,2,0:0:0:0:
423,169,48418,1,10,0:0:0:0:
320,89,48691,5,2,0:0:0:0:
250,128,48828,1,2,0:0:0:0:
320,169,48964,1,2,1:2:0:0:
209,325,49236,5,2,0:0:0:0:
279,286,49373,1,2,0:0:0:0:
211,245,49509,2,0,B|173:240|145:272|145:272|115:240|79:244,1,150,10|0,0:0|0:0,0:0:0:0:
10,286,50054,1,10,0:0:0:0:
157,81,50600,6,0,B|173:73|173:73|187:80,5,33.3333333333333,2|2|2|2|2|2,0:0|0:0|0:0|0:0|0:0|0:0,0:0:0:0:
211,103,51145,6,0,L|311:103,1,100,6|0,1:2|0:0,0:0:0:0:
379,162,51554,1,0,0:0:0:0:
467,58,51691,2,0,B|441:100|441:100|467:144,1,100,10|0,0:0|0:0,0:0:0:0:
512,222,52100,2,0,B|538:266|538:266|512:308,1,100,2|0,0:0|0:0,0:0:0:0:
431,266,52509,1,0,0:0:0:0:
284,370,52782,2,0,B|234:370,1,50,10|2,0:0|0:0,0:0:0:0:
234,280,53054,2,0,B|284:280,1,50,2|2,0:0|0:0,0:0:0:0:
155,324,53327,6,0,P|139:277|155:230,1,100,2|0,1:2|0:0,0:0:0:0:
278,97,53873,2,0,B|233:117|233:117|185:96,1,100,10|0,0:0|0:0,0:0:0:0:
118,37,54282,2,0,B|73:17|73:17|25:37,1,100,2|0,0:0|0:0,0:0:0:0:
19,149,54691,1,2,0:0:0:0:
19,149,54827,1,2,0:0:0:0:
19,149,54964,2,0,B|65:168|65:168|110:148,1,100,10|10,0:0|0:0,0:0:0:0:
186,96,55373,1,2,0:0:0:0:
246,230,55509,6,0,P|200:215|153:230,1,100,6|2,1:2|0:0,0:0:0:0:
153,320,55918,1,0,0:0:0:0:
153,320,56054,2,0,P|199:335|246:319,1,100,10|2,0:0|0:0,0:0:0:0:
326,275,56464,1,0,0:0:0:0:
326,275,56600,2,0,P|372:259|419:274,1,100,2|2,1:2|0:0,0:0:0:0:
463,352,57009,1,2,0:0:0:0:
374,352,57145,1,8,0:0:0:0:
374,171,57418,1,10,0:0:0:0:
374,171,57691,6,0,B|374:71,1,100,6|0,1:2|0:0,0:0:0:0:
192,71,58236,2,0,L|192:171,1,100,14|0,0:0|0:0,0:0:0:0:
238,246,58645,2,0,B|194:224|194:224|147:245,1,100,6|8,1:2|0:0,0:0:0:0:
191,366,59054,1,2,1:2:0:0:
191,366,59191,1,2,0:0:0:0:
191,366,59327,2,0,L|191:317,2,50,10|2|8,0:0|1:2|0:3,0:0:0:0:
25,292,59873,6,0,P|9:246|31:191,1,100,6|0,1:2|0:0,0:0:0:0:
90,137,60282,1,0,0:0:0:0:
194,224,60418,2,0,L|294:224,1,100,10|0,0:0|0:0,0:0:0:0:
366,268,60827,2,0,P|346:224|373:174,1,100,2|0,0:0|0:0,0:0:0:0:
431,117,61236,1,2,0:0:0:0:
287,8,61509,2,0,B|298:32|298:32|286:52,1,50,10|0,0:0|0:0,0:0:0:0:
196,52,61782,2,0,B|184:31|184:31|195:7,1,50,2|2,0:0|0:0,0:0:0:0:
240,130,62054,6,0,P|192:145|145:130,1,100,2|0,1:2|0:0,0:0:0:0:
51,284,62600,2,0,P|98:270|145:284,1,100,10|0,0:0|0:0,0:0:0:0:
216,340,63009,2,0,L|316:340,1,100,2|0,0:0|0:0,0:0:0:0:
316,228,63418,1,2,0:0:0:0:
316,228,63554,1,2,0:0:0:0:
316,228,63691,2,0,B|216:228,1,100,10|10,0:0|0:0,0:0:0:0:
145,284,64100,1,2,0:0:0:0:
54,171,64236,6,0,B|99:193|99:193|143:171,1,100,6|2,1:2|0:0,0:0:0:0:
216,118,64645,1,0,0:0:0:0:
216,118,64782,2,0,B|319:118,1,100,10|2,0:0|0:0,0:0:0:0:
391,167,65191,1,0,0:0:0:0:
466,118,65327,1,2,1:2:0:0:
466,118,65464,2,0,P|481:72|467:24,1,100,2|2,0:0|0:0,0:0:0:0:
391,69,65873,1,8,0:0:0:0:
474,208,66145,1,10,0:0:0:0:
474,208,66418,6,0,P|490:255|474:302,1,100,6|0,1:2|0:0,0:0:0:0:
293,301,66964,2,0,P|277:254|293:207,1,100,14|0,0:0|0:0,0:0:0:0:
337,134,67373,2,0,B|294:157|294:157|247:135,1,100,6|0,1:2|1:0,0:0:0:0:
175,80,67782,2,0,L|125:80,1,50,2|2,0:0|1:2,0:0:0:0:
54,135,68054,1,10,0:0:0:0:
125,189,68190,1,8,0:3:0:0:
125,189,68327,1,8,0:3:0:0:
78,363,68600,5,6,1:2:0:0:
78,363,69145,2,0,P|124:379|171:363,1,100,8|0,0:0|1:0,0:0:0:0:
247,314,69554,1,0,0:0:0:0:
247,314,69691,2,0,P|293:297|340:313,1,100,2|0,1:2|0:0,0:0:0:0:
411,363,70100,2,0,P|394:317|410:270,1,100,2|0,0:0|0:0,0:0:0:0:
467,200,70509,2,0,L|467:150,1,50,0|0,0:0|0:0,0:0:0:0:
467,59,70782,5,6,1:2:0:0:
467,59,71327,2,0,L|367:59,1,100,8|0,0:0|1:0,0:0:0:0:
307,126,71736,1,0,0:0:0:0:
307,126,71873,2,0,L|307:176,2,50,2|0|0,1:2|0:0|0:0,0:0:0:0:
245,59,72282,2,0,B|145:59,1,100,2|0,0:0|0:0,0:0:0:0:
84,126,72691,2,0,B|84:176,1,50,8|0,0:0|0:0,0:0:0:0:
145,242,72964,5,6,1:2:0:0:
145,242,73509,2,0,B|256:242,1,100,8|0,0:0|1:0,0:0:0:0:
315,289,73918,1,0,0:0:0:0:
315,289,74054,2,0,B|293:244|293:244|315:200,1,100,2|0,1:2|0:0,0:0:0:0:
268,121,74464,2,0,B|313:101|313:101|360:122,1,100,2|0,0:0|1:0,0:0:0:0:
441,159,74873,2,0,B|452:182|452:182|441:205,1,50,8|0,0:0|0:0,0:0:0:0:
415,289,75145,6,0,L|315:289,1,100,6|0,1:2|0:0,0:0:0:0:
237,335,75554,1,0,0:0:0:0:
159,289,75691,2,0,L|59:289,1,100,10|0,0:0|0:0,0:0:0:0:
0,228,76100,1,0,0:0:0:0:
0,228,76236,2,0,B|10:204|10:204|-2:177,1,50,2|0,1:2|0:0,0:0:0:0:
59,121,76509,2,0,L|109:121,1,50
182,164,76782,2,0,P|160:120|181:76,1,100,10|0,0:0|0:0,0:0:0:0:
356,78,77327,6,0,B|385:110|363:155|343:144|333:185|357:217,1,150,6|0,1:2|0:0,0:0:0:0:
422,279,77873,2,0,P|357:234|293:280,1,166.666666666667,8|8,0:0|0:3,0:0:0:0:
109,121,78691,2,0,B|59:121,1,50,10|0,0:0|0:0,0:0:0:0:
59,30,78964,2,0,L|109:30,1,50,10|0,0:0|0:0,0:0:0:0:
181,77,79236,1,10,0:0:0:0:
181,77,79509,6,0,L|281:77,1,100,6|2,1:2|0:0,0:0:0:0:
351,20,79918,1,0,1:0:0:0:
420,77,80054,2,0,L|420:127,1,50,8|2,0:0|0:0,0:0:0:0:
375,205,80327,1,0,0:0:0:0:
375,205,80464,2,0,B|355:251|355:251|375:296,1,100,2|0,1:2|0:0,0:0:0:0:
466,296,80873,2,0,B|486:250|486:250|465:204,2,100,2|10|2,1:2|0:0|0:0,0:0:0:0:
285,296,81691,6,0,B|266:247|266:247|285:204,1,100,2|2,1:2|0:0,0:0:0:0:
220,140,82100,1,0,1:0:0:0:
156,203,82236,2,0,L|106:203,1,50,8|2,0:0|0:0,0:0:0:0:
15,203,82509,1,0,0:0:0:0:
15,203,82645,2,0,P|-1:156|15:110,1,100,2|0,1:2|0:0,0:0:0:0:
105,109,83054,2,0,P|120:155|105:202,2,100,2|10|10,1:2|0:0|0:0,0:0:0:0:
60,284,83873,6,0,P|106:300|154:282,1,100,2|2,1:2|0:0,0:0:0:0:
231,239,84282,1,0,1:0:0:0:
309,283,84418,2,0,B|363:283,1,50,8|2,0:0|0:0,0:0:0:0:
449,283,84691,1,0,0:0:0:0:
449,283,84827,2,0,L|449:180,1,100,2|0,1:2|0:0,0:0:0:0:
359,183,85236,2,0,L|359:283,2,100,2|10|10,1:2|0:0|0:0,0:0:0:0:
403,17,86055,6,0,P|356:0|310:17,1,100,6|2,1:2|0:0,0:0:0:0:
233,63,86463,1,0,0:0:0:0:
154,17,86600,2,0,B|131:7|131:7|108:16,1,50,10|0,0:0|0:0,0:0:0:0:
107,106,86873,2,0,B|130:116|130:116|153:106,1,50,10|0,0:0|1:0,0:0:0:0:
233,63,87145,1,14,0:0:0:0:
233,63,87282,1,8,0:0:0:0:
311,106,87418,2,0,B|311:156,1,50,2|0,1:2|0:0,0:0:0:0:
233,203,87691,2,0,P|215:248|232:294,1,100,10|2,0:0|1:2,0:0:0:0:
407,251,88236,5,6,1:2:0:0:
256,192,88327,12,0,90418,0:0:0:0:
