osu file format v14

[General]
AudioFilename: audio.mp3
AudioLeadIn: 0
PreviewTime: 51145
Countdown: 0
SampleSet: Soft
StackLeniency: 0.7
Mode: 0
LetterboxInBreaks: 0
WidescreenStoryboard: 1

[Editor]
Bookmarks: 9691,18418,27145,35873,44600,51145,68600,79509
DistanceSpacing: 1.4
BeatDivisor: 2
GridSize: 32
TimelineZoom: 0.9999999

[Metadata]
Title:SHINY DAYS (TV Size)
TitleUnicode:SHINY DAYS (TV Size)
Artist:Asaka
ArtistUnicode:亜咲花
Creator:Iceluin
Version:Easy
Source:Yuru Camp △
Tags:hypercyte hypercute anime japanese ゆるキャン△ Laid-Back Camp yurukyan nadeshiko kagamihara shima rin oogaki chiaki inuyama aoi saito ena op opening Δ
BeatmapID:2355396
BeatmapSetID:1127355

[Difficulty]
HPDrainRate:2
CircleSize:3
OverallDifficulty:3
ApproachRate:4
SliderMultiplier:1
SliderTickRate:1

[Events]
//Background and Video events
0,0,"nade to rin.png",0,0
Video,460,"nadeshiko days.avi"
//Break Periods
//Storyboard Layer 0 (Background)
//Storyboard Layer 1 (Fail)
//Storyboard Layer 2 (Pass)
//Storyboard Layer 3 (Foreground)
//Storyboard Layer 4 (Overlay)
//Storyboard Sound Samples

[TimingPoints]
964,545.454545454546,4,2,1,45,1,0
7509,-100,4,2,2,55,0,0
9691,-100,4,2,2,65,0,0
18418,-100,4,2,3,50,0,0
26054,-100,4,2,2,50,0,0
27145,-100,4,2,2,55,0,0
29873,-100,4,2,3,55,0,0
30145,-100,4,2,2,55,0,0
35873,-100,4,2,3,40,0,0
42418,-100,4,2,2,40,0,0
44600,-100,4,2,2,45,0,0
51145,-100,4,2,2,75,0,1
68600,-100,4,2,2,60,0,0
68668,-100,4,2,2,5,0,0
68873,-100,4,2,2,60,0,0
70850,-100,4,2,2,5,0,0
71054,-100,4,2,2,60,0,0
73032,-100,4,2,2,5,0,0
73236,-100,4,2,2,60,0,0
79509,-100,4,2,2,65,0,0
88236,-100,4,2,2,50,0,0
90418,-100,4,2,2,5,0,0

[Colours]
Combo1 : 255,128,64
Combo2 : 251,153,234
Combo3 : 0,138,204
Combo4 : 129,254,185

[HitObjects]
142,288,964,6,0,B|149:312|149:312|143:337,2,50,6|2|10,0:0|0:0|1:2,0:0:0:0:
83,229,1918,2,0,P|142:248|201:229,1,125,2|8,0:3|1:2,0:0:0:0:
227,122,3145,6,0,B|203:115|203:115|178:121,2,50,2|2|10,0:0|0:0|1:2,0:0:0:0:
287,177,4100,2,0,B|266:117|266:117|285:58,1,125,2|8,0:3|1:2,0:0:0:0:
379,117,5327,6,0,B|403:110|403:110|428:116,2,50,6|2|10,0:0|0:0|1:2,0:0:0:0:
403,196,6282,2,0,L|403:321,1,125,2|8,0:3|1:2,0:0:0:0:
304,369,7509,5,6,1:2:0:0:
208,314,8054,1,6,1:2:0:0:
134,369,8509,2,0,B|108:380|79:362|79:362|51:380|23:369,1,116.666666666667,6|8,1:2|0:0,0:0:0:0:
30,259,9691,6,0,P|77:246|125:258,1,100,6|8,1:2|0:0,0:0:0:0:
205,236,10645,2,0,B|205:161,1,75,2|2,1:2|1:2,0:0:0:0:
205,105,11327,1,10,0:0:0:0:
305,59,11873,6,0,P|318:106|305:154,1,100,2|8,1:2|0:0,0:0:0:0:
363,212,12827,2,0,B|398:202|398:202|435:211,1,75,2|2,1:2|1:2,0:0:0:0:
485,233,13509,1,10,0:0:0:0:
448,336,14054,6,0,B|401:349|401:349|351:335,1,100,2|8,1:2|0:0,0:0:0:0:
278,295,15009,2,0,L|196:295,1,75,2|2,1:2|1:2,0:0:0:0:
147,295,15691,1,10,0:0:0:0:
48,344,16236,6,0,B|33:295|33:295|48:248,1,100,6|10,1:2|0:0,0:0:0:0:
67,197,17054,1,10,0:0:0:0:
67,197,17327,2,0,L|167:197,1,100,14|10,0:0|0:0,0:0:0:0:
253,129,18418,5,6,0:0:0:0:
339,197,18964,1,0,1:0:0:0:
425,129,19509,1,2,0:0:0:0:
377,61,19918,2,0,L|302:60,1,75,2|2,0:0|0:0,0:0:0:0:
246,60,20600,1,2,0:3:0:0:
160,129,21145,1,8,0:0:0:0:
73,60,21691,1,2,0:0:0:0:
28,129,22100,2,0,B|28:204,1,75,2|2,0:0|0:0,0:0:0:0:
28,259,22782,5,6,0:0:0:0:
0,365,23327,2,0,B|25:372|49:366,1,50,2|0,1:2|0:0,0:0:0:0:
100,344,23873,1,2,0:0:0:0:
206,372,24418,2,0,B|213:347|207:323,1,50,2|0,1:2|0:0,0:0:0:0:
185,272,24964,1,6,1:2:0:0:
212,165,25509,2,0,B|187:158|163:164,1,50,2|0,1:2|0:0,0:0:0:0:
112,185,26054,2,0,L|112:85,1,100,2|8,1:2|0:0,0:0:0:0:
191,9,27145,6,0,B|291:9,1,100,2|10,1:2|0:0,0:0:0:0:
370,85,28236,2,0,B|405:75|405:75|442:84,2,75,2|2|2,1:2|0:0|0:0,0:0:0:0:
323,115,29327,1,0,1:0:0:0:
407,185,29873,1,8,0:0:0:0:
323,256,30418,2,0,B|333:291|333:291|324:328,2,75,2|2|2,1:2|0:0|0:0,0:0:0:0:
293,209,31509,5,2,1:2:0:0:
222,293,32054,2,0,B|197:300|197:300|173:294,1,50,10|2,0:0|0:0,0:0:0:0:
123,272,32600,1,2,1:2:0:0:
16,299,33145,2,0,B|9:274|9:274|15:250,1,50,10|2,0:0|0:0,0:0:0:0:
37,200,33691,1,2,1:2:0:0:
10,93,34236,2,0,B|35:86|35:86|59:92,1,50,10|2,0:0|0:0,0:0:0:0:
109,114,34782,2,0,L|109:39,2,75,8|8|10,0:3|0:3|0:0,0:0:0:0:
160,137,35873,6,0,P|207:150|255:138,1,100,2|0,0:3|1:0,0:0:0:0:
256,247,36964,2,0,P|208:234|160:247,1,100,2|0,0:3|1:0,0:0:0:0:
205,347,38054,6,0,L|305:347,1,100,2|0,0:3|1:0,0:0:0:0:
356,247,39145,2,0,L|256:247,1,100,2|2,0:3|1:2,0:0:0:0:
209,147,40236,6,0,B|256:134|256:134|306:148,1,100,4|0,0:0|1:0,0:0:0:0:
305,37,41327,2,0,B|258:50|258:50|208:36,1,100,2|0,0:3|1:0,0:0:0:0:
113,92,42418,6,0,L|113:210,1,100,6|8,1:2|0:3,0:0:0:0:
113,247,43236,1,8,0:3:0:0:
113,247,43509,2,0,L|230:247,1,100,2|10,1:2|0:0,0:0:0:0:
299,315,44600,6,0,P|346:328|394:316,1,100,6|8,1:2|0:0,0:0:0:0:
439,283,45418,1,6,1:2:0:0:
439,283,45691,2,0,B|432:259|432:259|438:234,2,50,0|10|10,0:0|0:0|0:0,0:0:0:0:
483,315,46509,1,6,1:2:0:0:
256,192,46782,12,10,50054,0:0:0:0:
436,66,51145,6,0,P|388:53|341:66,1,100,6|10,1:2|0:0,0:0:0:0:
268,105,52100,2,0,B|193:105,1,75,2|0,0:0|0:0,0:0:0:0:
137,105,52782,1,10,0:0:0:0:
38,56,53327,6,0,P|25:104|38:151,1,100,2|10,1:2|0:0,0:0:0:0:
100,206,54282,2,0,B|135:216|135:216|172:207,1,75,2|2,0:0|0:0,0:0:0:0:
220,180,54964,2,0,L|270:180,1,50,10|10,0:0|0:0,0:0:0:0:
318,206,55509,6,0,L|318:316,1,100,6|10,1:2|0:0,0:0:0:0:
400,378,56600,1,2,1:2:0:0:
474,342,57009,2,0,B|484:307|484:307|475:270,1,75,2|10,0:0|0:0,0:0:0:0:
448,221,57691,6,0,L|448:121,1,100,6|14,1:2|0:0,0:0:0:0:
485,47,58645,2,0,B|450:37|450:37|413:46,1,75,6|2,1:2|1:2,0:0:0:0:
368,78,59327,2,0,L|318:78,1,50,10|8,0:0|0:3,0:0:0:0:
274,110,59873,6,0,P|261:158|274:205,1,100,6|10,1:2|0:0,0:0:0:0:
235,278,60828,2,0,B|160:278,1,75,2|2,0:0|0:0,0:0:0:0:
105,278,61510,1,10,0:0:0:0:
6,327,62055,6,0,P|-7:279|5:231,1,100,2|10,1:2|0:0,0:0:0:0:
68,177,63009,2,0,B|103:167|103:167|140:176,1,75,2|2,0:0|0:0,0:0:0:0:
188,149,63692,2,0,L|188:89,1,50,10|10,0:0|0:0,0:0:0:0:
228,61,64236,6,0,B|275:48|275:48|325:62,1,100,6|10,1:2|0:0,0:0:0:0:
414,124,65328,1,2,1:2:0:0:
490,87,65737,2,0,B|500:122|500:122|491:159,1,75,2|10,0:0|0:0,0:0:0:0:
458,203,66419,6,0,L|458:303,1,100,6|14,1:2|0:0,0:0:0:0:
401,363,67373,2,0,B|364:372|364:372|329:362,1,75,6|2,1:2|0:0,0:0:0:0:
285,328,68054,2,0,L|285:265,1,50,10|8,0:0|0:3,0:0:0:0:
247,237,68600,5,6,1:2:0:0:
323,157,69145,1,8,0:0:0:0:
247,76,69691,2,0,B|257:41|257:41|248:4,2,75,2|2|0,1:2|0:0|0:0,0:0:0:0:
217,123,70782,5,6,1:2:0:0:
144,39,71327,1,8,0:0:0:0:
73,123,71873,2,0,B|38:113|38:113|1:122,2,75,2|2|8,1:2|0:0|0:0,0:0:0:0:
120,153,72964,5,6,1:2:0:0:
36,226,73508,1,8,0:0:0:0:
120,297,74054,2,0,B|110:332|110:332|119:369,2,75,2|2|8,1:2|0:0|0:0,0:0:0:0:
150,250,75145,6,0,L|250:250,1,100,6|10,1:2|0:0,0:0:0:0:
320,334,76236,2,0,L|420:334,1,100,2|10,1:2|0:0,0:0:0:0:
492,250,77327,5,6,1:2:0:0:
420,166,77873,2,0,B|398:131|405:92|434:101|442:58|419:25,1,150,8|10,0:0|0:0,0:0:0:0:
368,3,78964,2,0,L|318:3,1,50,10|10,0:0|0:0,0:0:0:0:
267,25,79509,6,0,B|220:38|220:38|170:24,1,100,6|8,1:2|0:0,0:0:0:0:
99,66,80463,2,0,B|99:141,1,75,2|2,1:2|1:2,0:0:0:0:
99,196,81145,1,10,0:0:0:0:
52,296,81691,6,0,P|99:309|147:296,1,100,2|8,1:2|0:0,0:0:0:0:
221,260,82645,2,0,B|256:250|256:250|293:259,1,75,2|2,1:2|1:2,0:0:0:0:
343,281,83327,1,10,0:0:0:0:
415,198,83872,6,0,B|428:151|428:151|414:101,1,100,2|8,1:2|0:0,0:0:0:0:
451,27,84827,2,0,B|416:17|416:17|379:26,1,75,2|2,1:2|1:2,0:0:0:0:
329,48,85509,1,10,0:0:0:0:
229,1,86054,6,0,B|214:50|214:50|229:97,1,100,6|10,1:2|0:0,0:0:0:0:
253,145,86872,1,10,0:0:0:0:
253,145,87145,2,0,B|268:194|268:194|253:241,1,100,14|10,0:0|0:0,0:0:0:0:
153,193,88236,5,6,1:2:0:0:
256,192,88509,12,0,90418,0:0:0:0:
