osu file format v14

[General]
AudioFilename: audio.mp3
AudioLeadIn: 0
PreviewTime: 51145
Countdown: 0
SampleSet: Soft
StackLeniency: 0.7
Mode: 0
LetterboxInBreaks: 0
WidescreenStoryboard: 1

[Editor]
Bookmarks: 9691,18418,27145,35873,44600,51145,68600,79509
DistanceSpacing: 2.1
BeatDivisor: 8
GridSize: 32
TimelineZoom: 1.4

[Metadata]
Title:SHINY DAYS (TV Size)
TitleUnicode:SHINY DAYS (TV Size)
Artist:Asaka
ArtistUnicode:亜咲花
Creator:Iceluin
Version:Advanced
Source:Yuru Camp △
Tags:hypercyte hypercute anime japanese ゆるキャン△ Laid-Back Camp yurukyan nadeshiko kagamihara shima rin oogaki chiaki inuyama aoi saito ena op opening Δ
BeatmapID:2355395
BeatmapSetID:1127355

[Difficulty]
HPDrainRate:4
CircleSize:4
OverallDifficulty:5
ApproachRate:7
SliderMultiplier:1.5
SliderTickRate:1

[Events]
//Background and Video events
0,0,"nade to rin.png",0,0
Video,460,"nadeshiko days.avi"
//Break Periods
//Storyboard Layer 0 (Background)
//Storyboard Layer 1 (Fail)
//Storyboard Layer 2 (Pass)
//Storyboard Layer 3 (Foreground)
//Storyboard Layer 4 (Overlay)
//Storyboard Sound Samples

[TimingPoints]
964,545.454545454546,4,2,1,45,1,0
7509,-100,4,2,2,55,0,0
9691,-100,4,2,2,65,0,0
18418,-100,4,2,3,50,0,0
26054,-100,4,2,2,50,0,0
27145,-100,4,2,2,55,0,0
29873,-100,4,2,3,55,0,0
30145,-100,4,2,2,55,0,0
35873,-100,4,2,3,40,0,0
42418,-100,4,2,2,40,0,0
44600,-100,4,2,2,45,0,0
51145,-100,4,2,2,75,0,1
68600,-100,4,2,2,60,0,0
68668,-100,4,2,2,5,0,0
68873,-100,4,2,2,60,0,0
70850,-100,4,2,2,5,0,0
71054,-100,4,2,2,60,0,0
73032,-100,4,2,2,5,0,0
73236,-100,4,2,2,60,0,0
79509,-100,4,2,2,65,0,0
88236,-100,4,2,2,50,0,0
90418,-100,4,2,2,5,0,0

[Colours]
Combo1 : 255,128,64
Combo2 : 251,153,234
Combo3 : 0,138,204
Combo4 : 129,254,185

[HitObjects]
384,140,964,6,0,L|383:57,2,75,6|2|10,0:0|0:0|1:2,0:0:0:0:
418,293,1782,1,0,0:0:0:0:
418,293,1918,2,0,P|382:300|346:291,1,75,2|0,0:3|0:0,0:0:0:0:
285,238,2327,2,0,B|267:234|267:234|248:237,1,37.5,0|0,0:0|0:0,0:0:0:0:
189,289,2600,2,0,P|207:236|189:184,1,112.5,8|0,1:2|0:0,0:0:0:0:
112,200,3145,6,0,B|112:274,2,75,2|2|10,0:0|0:0|1:2,0:0:0:0:
75,46,3964,1,0,0:0:0:0:
75,46,4100,2,0,B|111:36|111:36|148:46,1,75,2|0,0:3|0:0,0:0:0:0:
207,96,4509,2,0,B|225:100|225:100|244:97,1,37.5,0|0,0:0|0:0,0:0:0:0:
303,45,4782,2,0,B|284:98|284:98|302:152,1,112.5,8|0,1:2|0:0,0:0:0:0:
378,135,5327,6,0,L|378:60,2,75,6|2|10,0:0|0:0|1:2,0:0:0:0:
418,287,6145,1,0,0:0:0:0:
418,287,6282,2,0,L|343:287,1,75,2|0,0:3|0:0,0:0:0:0:
285,232,6691,2,0,B|267:228|267:228|248:231,1,37.5
192,287,6964,2,0,L|192:174,1,112.5,8|0,1:2|0:0,0:0:0:0:
129,127,7509,6,0,B|34:127|34:127|20:138,1,112.5,6|0,1:2|0:0,0:0:0:0:
19,216,8054,2,0,L|94:216,1,75,6|0,1:2|0:0,0:0:0:0:
192,174,8509,2,0,P|209:128|192:82,1,100,6|0,1:2|1:0,0:0:0:0:
343,127,9145,1,8,0:0:0:0:
192,174,9418,1,8,0:0:0:0:
340,227,9691,6,0,B|330:263|330:263|340:300,1,75,6|2,1:2|0:0,0:0:0:0:
199,372,10236,1,8,0:0:0:0:
199,372,10373,2,0,B|179:365|179:365|163:371,1,37.5,2|0,0:0|0:0,0:0:0:0:
98,324,10645,2,0,B|62:334|62:334|25:324,1,75,2|0,1:2|0:0,0:0:0:0:
25,245,11054,2,0,L|100:245,2,75,2|10|2,1:2|0:0|0:0,0:0:0:0:
179,210,11873,6,0,P|187:245|179:282,1,75,2|2,1:2|0:0,0:0:0:0:
319,352,12418,1,8,0:0:0:0:
319,352,12555,2,0,B|314:334|314:334|318:315,1,37.5,2|0,0:0|0:0,0:0:0:0:
282,245,12827,2,0,P|317:237|354:245,1,75,2|0,1:2|0:0,0:0:0:0:
426,279,13236,2,0,P|462:287|498:279,2,75,2|10|10,1:2|0:0|0:0,0:0:0:0:
317,165,14054,6,0,L|317:69,1,75,2|2,1:2|0:0,0:0:0:0:
179,12,14600,1,8,0:0:0:0:
179,12,14737,2,0,B|161:19|161:19|142:13,1,37.5,2|0,0:0|0:0,0:0:0:0:
75,55,15009,2,0,B|39:45|39:45|2:55,1,75,2|0,1:2|0:0,0:0:0:0:
2,133,15418,2,0,P|37:141|74:133,2,75,2|10|10,1:2|0:0|0:0,0:0:0:0:
155,97,16236,6,0,B|165:133|165:133|155:170,1,75,6|2,1:2|0:0,0:0:0:0:
204,230,16645,1,0,0:0:0:0:
204,230,16782,2,0,L|278:230,1,75,10|10,0:0|0:0,0:0:0:0:
348,267,17191,1,0,1:0:0:0:
348,267,17327,2,0,B|342:286|342:286|349:304,2,37.5,14|8|2,0:0|0:0|1:2,0:0:0:0:
384,113,17873,2,0,B|347:103|347:103|311:113,1,75,10|2,0:0|1:2,0:0:0:0:
155,169,18418,5,6,0:0:0:0:
348,267,18964,1,0,1:0:0:0:
155,378,19509,1,2,0:0:0:0:
155,378,19645,1,0,0:0:0:0:
102,278,19918,2,0,P|155:262|209:277,1,112.5,2|2,0:0|0:0,0:0:0:0:
348,379,20600,5,2,0:3:0:0:
512,235,21145,1,8,0:0:0:0:
348,91,21691,1,2,0:0:0:0:
348,91,21827,1,0,0:0:0:0:
295,190,22100,2,0,B|348:209|348:209|402:191,1,112.5,2|2,0:0|0:0,0:0:0:0:
348,379,22782,5,6,0:0:0:0:
156,263,23327,2,0,L|43:263,1,112.5,2|0,1:2|0:0,0:0:0:0:
0,263,23873,1,2,0:0:0:0:
100,62,24418,2,0,L|213:62,1,112.5,2|0,1:2|0:0,0:0:0:0:
256,62,24964,5,6,1:2:0:0:
156,263,25509,2,0,P|138:210|157:158,1,112.5,2|0,1:2|0:0,0:0:0:0:
234,158,26054,1,2,1:2:0:0:
234,158,26191,2,0,B|309:158,1,75,10|0,0:0|0:0,0:0:0:0:
369,107,26600,2,0,B|387:103|387:103|406:106,1,37.5,8|2,0:0|0:0,0:0:0:0:
464,158,26873,1,8,0:0:0:0:
405,303,27145,6,0,B|342:303|342:303|319:314|319:314|257:314,1,150,2|10,1:2|0:0,0:0:0:0:
151,196,27964,1,2,0:0:0:0:
114,350,28236,2,0,L|189:350,1,75,2|0,1:2|0:0,0:0:0:0:
189,272,28645,2,0,L|114:272,1,75,2|0,0:0|0:0,0:0:0:0:
46,312,29054,1,2,0:0:0:0:
10,157,29327,6,0,P|46:148|83:156,1,75,0|0,1:0|1:0,0:0:0:0:
151,196,29736,1,0,0:0:0:0:
151,196,29873,2,0,L|226:196,1,75,8|2,0:0|0:0,0:0:0:0:
328,76,30418,2,0,B|318:40|318:40|328:3,1,75,2|0,1:2|0:0,0:0:0:0:
406,3,30827,2,0,B|416:40|416:40|406:76,1,75,2|0,0:0|0:0,0:0:0:0:
367,143,31236,1,2,0:0:0:0:
426,289,31509,5,2,1:2:0:0:
208,344,32054,2,0,P|193:292|207:236,1,112.5,10|0,0:0|0:0,0:0:0:0:
226,196,32599,1,2,1:2:0:0:
56,48,33145,2,0,P|71:100|57:156,1,112.5,10|0,0:0|0:0,0:0:0:0:
39,196,33691,5,2,1:2:0:0:
130,261,33964,1,10,0:0:0:0:
226,196,34236,2,0,B|222:178|222:178|225:159,2,37.5,10|8|2,0:0|0:0|0:0,0:0:0:0:
283,250,34645,1,0,0:0:0:0:
283,250,34782,2,0,L|396:250,2,112.5,8|8|10,0:3|0:3|0:0,0:0:0:0:
283,92,35873,6,0,L|433:92,1,150,2|0,0:3|1:0,0:0:0:0:
283,250,36964,2,0,L|133:250,1,150,2|0,0:3|1:0,0:0:0:0:
347,318,38054,6,0,P|375:250|347:182,1,150,2|0,0:3|1:0,0:0:0:0:
186,24,39145,2,0,P|157:91|185:159,1,150,2|2,0:3|1:2,0:0:0:0:
347,318,40236,6,0,B|416:288|416:288|484:317,1,150,4|0,0:0|1:0,0:0:0:0:
484,92,41327,2,0,B|415:122|415:122|346:92,1,150,2|0,0:3|1:0,0:0:0:0:
179,243,42418,6,0,P|169:278|178:314,1,75,6|8,1:2|0:3,0:0:0:0:
347,318,42964,2,0,P|356:282|346:246,1,75,8|8,0:3|0:3,0:0:0:0:
259,111,43509,1,2,1:2:0:0:
259,111,43782,1,2,1:2:0:0:
179,243,44054,1,10,0:0:0:0:
346,246,44327,1,8,0:0:0:0:
259,111,44600,6,0,L|259:36,1,75,6|0,1:2|0:0,0:0:0:0:
259,193,45145,1,8,0:0:0:0:
113,153,45418,1,6,1:2:0:0:
113,153,45691,2,0,L|188:153,1,75,0|10,0:0|0:0,0:0:0:0:
330,151,46236,1,10,0:0:0:0:
259,275,46509,1,6,1:2:0:0:
256,192,46782,12,10,50054,0:0:0:0:
389,149,51145,6,0,P|353:158|317:151,1,75,6|0,1:2|0:0,0:0:0:0:
179,72,51691,2,0,P|143:63|106:71,1,75,10|0,0:0|0:0,0:0:0:0:
106,149,52100,2,0,B|143:159|143:159|179:149,1,75,2|0,0:0|0:0,0:0:0:0:
248,112,52509,1,0,0:0:0:0:
354,228,52782,2,0,L|354:267,1,37.5,10|2,0:0|0:0,0:0:0:0:
275,259,53054,2,0,L|275:297,1,37.5,2|2,0:0|0:0,0:0:0:0:
196,290,53327,6,0,L|196:365,1,75,2|0,1:2|0:0,0:0:0:0:
37,365,53873,2,0,L|37:290,1,75,10|0,0:0|0:0,0:0:0:0:
0,219,54282,2,0,P|36:210|73:218,1,75,2|0,0:0|0:0,0:0:0:0:
133,167,54691,1,2,0:0:0:0:
133,167,54827,1,2,0:0:0:0:
133,167,54964,2,0,B|143:130|143:130|133:94,1,75,10|10,0:0|0:0,0:0:0:0:
192,42,55373,1,2,0:0:0:0:
250,94,55509,6,0,L|325:94,1,75,6|2,1:2|0:0,0:0:0:0:
461,15,56054,2,0,L|386:15,1,75,10|2,0:0|0:0,0:0:0:0:
386,173,56600,2,0,L|461:173,1,75,2|2,1:2|0:0,0:0:0:0:
511,233,57009,2,0,P|520:269|512:305,1,75,2|0,0:0|0:0,0:0:0:0:
465,369,57418,1,10,0:0:0:0:
313,323,57691,6,0,B|238:323,1,75,6|0,1:2|0:0,0:0:0:0:
155,191,58236,2,0,B|167:155|167:155|153:120,1,75,14|0,0:0|0:0,0:0:0:0:
74,121,58645,2,0,B|62:157|62:157|75:191,1,75,6|8,1:2|0:0,0:0:0:0:
116,260,59054,1,2,1:2:0:0:
116,260,59191,1,2,0:0:0:0:
116,260,59327,2,0,L|116:297,2,37.5,10|2|8,0:0|1:2|0:3,0:0:0:0:
257,191,59873,6,0,L|332:191,1,75,6|0,1:2|0:0,0:0:0:0:
332,36,60418,2,0,L|257:36,1,75,10|0,0:0|0:0,0:0:0:0:
185,0,60827,2,0,P|176:36|185:72,1,75,2|0,0:0|0:0,0:0:0:0:
251,114,61236,1,2,0:0:0:0:
178,253,61509,2,0,L|181:290,1,37.5,10|0,0:0|0:0,0:0:0:0:
259,290,61781,2,0,L|262:252,1,37.5,2|2,0:0|0:0,0:0:0:0:
215,183,62054,6,0,B|178:173|178:173|142:183,1,75,2|0,1:2|0:0,0:0:0:0:
32,68,62600,2,0,B|68:78|68:78|105:68,1,75,10|0,0:0|0:0,0:0:0:0:
161,15,63009,2,0,P|197:6|234:14,1,75,2|0,0:0|0:0,0:0:0:0:
304,68,63418,1,2,0:0:0:0:
304,68,63554,1,2,0:0:0:0:
304,68,63691,2,0,B|379:68,1,75,10|10,0:0|0:0,0:0:0:0:
437,121,64100,1,2,0:0:0:0:
379,174,64236,6,0,L|304:174,1,75,6|2,1:2|0:0,0:0:0:0:
437,259,64782,2,0,L|512:259,1,75,10|2,0:0|0:0,0:0:0:0:
379,345,65328,2,0,L|304:345,1,75,2|0,1:2|0:0,0:0:0:0:
240,299,65736,2,0,B|205:286|205:286|169:298,1,75,2|0,0:0|0:0,0:0:0:0:
105,345,66146,1,10,0:0:0:0:
0,228,66418,6,0,B|-12:193|-12:193|0:156,1,75,6|0,1:2|0:0,0:0:0:0:
148,103,66964,2,0,P|111:111|75:102,1,75,14|0,0:0|0:0,0:0:0:0:
77,24,67373,2,0,P|113:15|149:24,1,75,6|0,1:2|1:0,0:0:0:0:
225,47,67782,2,0,B|217:66|217:66|224:81,1,37.5,2|2,0:0|1:2,0:0:0:0:
283,133,68054,1,10,0:0:0:0:
340,78,68190,1,8,0:3:0:0:
340,78,68327,1,8,0:3:0:0:
497,78,68600,5,6,1:2:0:0:
497,78,69145,2,0,L|497:153,1,75,8|0,0:0|1:0,0:0:0:0:
433,200,69554,1,0,0:0:0:0:
433,200,69691,2,0,P|396:208|359:199,1,75,2|0,1:2|0:0,0:0:0:0:
296,153,70100,2,0,P|259:143|223:152,1,75,2|0,0:0|0:0,0:0:0:0:
161,200,70509,1,0,0:0:0:0:
161,356,70782,5,6,1:2:0:0:
161,356,71327,2,0,B|198:366|198:366|234:356,1,75,8|0,0:0|1:0,0:0:0:0:
297,309,71736,1,0,0:0:0:0:
297,309,71873,2,0,L|297:271,2,37.5,2|0|0,1:2|0:0|0:0,0:0:0:0:
360,356,72282,2,0,B|397:366|397:366|433:356,1,75,2|0,0:0|0:0,0:0:0:0:
492,303,72691,1,8,0:0:0:0:
396,178,72964,5,6,1:2:0:0:
396,178,73509,2,0,P|388:141|397:104,1,75,8|0,0:0|1:0,0:0:0:0:
433,35,73918,1,0,0:0:0:0:
433,35,74054,2,0,B|396:25|396:25|360:35,1,75,2|0,1:2|0:0,0:0:0:0:
298,85,74464,2,0,B|262:95|262:95|225:85,1,75,2|0,0:0|1:0,0:0:0:0:
165,34,74872,1,8,0:0:0:0:
30,85,75145,6,0,L|105:85,1,75,6|0,1:2|0:0,0:0:0:0:
240,166,75691,2,0,L|165:166,1,75,10|0,0:0|0:0,0:0:0:0:
30,249,76236,2,0,L|105:249,1,75,2|0,1:2|0:0,0:0:0:0:
156,308,76645,1,0,0:0:0:0:
156,308,76782,2,0,L|231:308,1,75,10|0,0:0|0:0,0:0:0:0:
377,248,77327,6,0,P|430:229|481:249,1,112.5,6|0,1:2|0:0,0:0:0:0:
428,308,77873,2,0,B|409:278|415:246|438:252|445:216|427:191,1,125,8|8,0:0|0:3,0:0:0:0:
370,9,78691,2,0,L|332:9,1,37.5,10|0,0:0|0:0,0:0:0:0:
271,59,78964,2,0,L|233:59,1,37.5,10|0,0:0|0:0,0:0:0:0:
172,9,79236,1,10,0:0:0:0:
40,86,79509,6,0,B|40:161,1,75,6|2,1:2|0:0,0:0:0:0:
15,316,80054,1,8,0:0:0:0:
15,316,80191,2,0,B|34:310|34:310|53:315,1,37.5,2|0,0:0|0:0,0:0:0:0:
119,353,80464,2,0,P|156:362|192:352,1,75,2|0,1:2|0:0,0:0:0:0:
190,273,80873,2,0,P|154:263|118:272,2,75,2|10|2,1:2|0:0|0:0,0:0:0:0:
50,314,81691,6,0,B|39:277|39:277|49:242,1,75,2|2,1:2|0:0,0:0:0:0:
154,124,82236,1,8,0:0:0:0:
154,124,82373,2,0,B|172:128|172:128|191:125,1,37.5,2|0,0:0|0:0,0:0:0:0:
256,81,82645,2,0,L|256:6,1,75,2|0,1:2|0:0,0:0:0:0:
335,7,83054,2,0,L|335:82,2,75,2|10|10,1:2|0:0|0:0,0:0:0:0:
299,160,83873,6,0,P|335:169|371:160,1,75,2|2,1:2|0:0,0:0:0:0:
491,261,84418,1,8,0:0:0:0:
491,261,84555,2,0,B|484:280|484:280|489:296,1,37.5,2|0,0:0|0:0,0:0:0:0:
419,332,84827,2,0,B|384:345|384:345|348:332,1,75,2|0,1:2|0:0,0:0:0:0:
279,292,85236,2,0,B|244:279|244:279|208:291,2,75,2|10|10,1:2|0:0|0:0,0:0:0:0:
371,159,86054,6,0,L|371:84,1,75,6|2,1:2|0:0,0:0:0:0:
311,31,86463,1,0,0:0:0:0:
311,31,86600,2,0,P|274:21|238:30,1,75,10|10,0:0|0:0,0:0:0:0:
182,84,87009,1,0,1:0:0:0:
182,84,87145,2,0,B|182:121,2,37.5,14|8|2,0:0|0:0|1:2,0:0:0:0:
23,84,87691,2,0,L|23:159,1,75,10|2,0:0|1:2,0:0:0:0:
103,294,88236,5,6,1:2:0:0:
256,192,88327,12,0,90418,0:0:0:0:
