osu file format v14

[General]
AudioFilename: audio.mp3
AudioLeadIn: 0
PreviewTime: 50515
Countdown: 1
SampleSet: Soft
StackLeniency: 0.3
Mode: 0
LetterboxInBreaks: 0
WidescreenStoryboard: 1

[Editor]
Bookmarks: 59242,79015
DistanceSpacing: 1
BeatDivisor: 4
GridSize: 8
TimelineZoom: 1

[Metadata]
Title:SHINY DAYS
TitleUnicode:亜咲花
Artist:Asaka
ArtistUnicode:Asaka
Creator:ChronoNig
Version:cyndere camps aoiyuuki-
Source:
Tags:cyndere
BeatmapID:1545600
BeatmapSetID:731644

[Difficulty]
HPDrainRate:6
CircleSize:4
OverallDifficulty:8
ApproachRate:9
SliderMultiplier:2.99999990463257
SliderTickRate:1

[Events]
//Background and Video events
0,0,"cynbg.jpg",0,0
//Break Periods
//Storyboard Layer 0 (Background)
//Storyboard Layer 1 (Fail)
//Storyboard Layer 2 (Pass)
//Storyboard Layer 3 (Foreground)
//Storyboard Sound Samples

[TimingPoints]
470,545.454545454546,4,2,1,70,1,0
470,-100,4,2,1,70,0,0
2651,-90.9090909090909,4,2,1,70,0,0
3606,-100,4,2,1,70,0,0
7015,-90.9090909090909,4,2,1,70,0,0
7560,-83.3333333333333,4,2,1,70,0,0
7970,-100,4,2,1,70,0,0
9197,-100,4,2,1,70,0,0
17924,-111.111111111111,4,2,1,70,0,0
26651,-100,4,2,1,70,0,0
35379,-125,4,2,1,70,0,0
44106,-100,4,2,1,70,0,0
50106,-83.3333333333333,4,2,1,70,0,0
50651,-76.9230769230769,4,2,1,70,0,1
68106,-100,4,2,1,70,0,0

[Colours]
Combo1 : 255,128,128
Combo2 : 128,128,192

[HitObjects]
151,72,470,6,0,L|147:180,1,74.9999976158143,0|0,0:0|0:0,0:0:0:0:
241,220,742,2,0,L|236:129,1,74.9999976158143,0|0,0:0|0:0,0:0:0:0:
167,286,1015,6,0,P|268:316|336:248,1,149.999995231629,8|0,0:0|0:0,0:0:0:0:
445,212,1424,2,0,B|402:237|346:204,1,74.9999976158143,0|0,0:0|0:0,0:0:0:0:
263,128,1697,1,0,0:0:0:0:
377,64,1833,1,0,0:0:0:0:
338,233,1970,1,0,0:0:0:0:
91,223,2106,2,0,B|144:208|165:142|165:142|188:206|240:224,1,224.999992847443,8|0,0:0|0:0,0:0:0:0:
345,125,2651,6,0,L|234:128,1,82.4999998950959,2|0,0:0|0:0,0:0:0:0:
133,31,2924,2,0,L|215:33,1,82.4999998950959,0|0,0:0|0:0,0:0:0:0:
452,55,3197,2,0,P|471:134|444:211,1,164.999999790192,8|0,0:0|0:0,0:0:0:0:
347,342,3606,2,0,P|325:289|336:224,1,74.9999976158143,0|0,0:0|0:0,0:0:0:0:
356,168,3879,1,0,0:0:0:0:
426,281,4015,1,0,0:0:0:0:
238,230,4151,1,0,0:0:0:0:
56,333,4288,2,0,P|126:319|34:263,1,224.999992847443,8|0,0:0|0:0,0:0:0:0:
45,136,4833,6,0,L|37:223,1,74.9999976158143,0|0,0:0|0:0,0:0:0:0:
142,132,5106,2,0,L|134:58,1,74.9999976158143,0|0,0:0|0:0,0:0:0:0:
270,174,5379,2,0,B|322:167|322:167|380:184|380:184|458:176,1,149.999995231629,8|0,0:0|0:0,0:0:0:0:
474,94,5788,2,0,L|373:103,1,74.9999976158143,0|2,0:0|0:0,0:0:0:0:
268,87,6060,1,0,0:0:0:0:
263,259,6197,1,0,0:0:0:0:
416,180,6333,1,0,0:0:0:0:
262,345,6470,2,0,B|212:350|175:319|175:319|132:348|132:348|82:326|15:353,1,224.999992847443,8|0,0:0|0:0,0:0:0:0:
114,244,7015,6,0,B|160:172|133:114|133:114|107:57|139:4,1,247.499999685288,8|0,0:0|0:0,0:0:0:0:
233,69,7560,2,0,P|319:77|378:13,1,179.99998878479,8|0,0:0|0:0,0:0:0:0:
423,122,7970,2,0,P|390:189|419:314,1,149.999995231629,8|0,0:0|0:0,0:0:0:0:
493,235,8379,5,8,0:0:0:0:
455,108,8515,1,0,0:0:0:0:
294,188,8651,2,0,L|300:76,1,74.9999976158143,8|0,0:0|0:0,0:0:0:0:
199,29,8924,2,0,L|203:104,1,74.9999976158143,8|0,0:0|0:0,0:0:0:0:
207,260,9197,6,0,P|159:266|77:258,1,74.9999976158143,4|0,0:3|0:0,0:0:0:0:
47,150,9470,2,0,P|84:150|121:155,1,74.9999976158143,2|0,0:0|0:0,0:0:0:0:
224,229,9742,1,8,0:0:0:0:
52,309,9879,2,0,P|52:271|57:234,1,74.9999976158143,2|0,0:0|0:0,0:0:0:0:
139,59,10151,2,0,P|145:134|141:220,1,149.999995231629,2|0,0:0|0:0,0:0:0:0:
30,118,10560,1,2,0:0:0:0:
186,137,10697,1,0,0:0:0:0:
344,55,10833,2,0,L|239:45,1,74.9999976158143,8|0,0:0|0:0,0:0:0:0:
365,159,11106,2,0,L|456:152,1,74.9999976158143,2|0,0:0|0:0,0:0:0:0:
263,200,11379,6,0,P|248:247|248:288,1,74.9999976158143,4|0,0:3|0:0,0:0:0:0:
397,311,11651,2,0,P|363:274|328:254,1,74.9999976158143,2|0,0:0|0:0,0:0:0:0:
279,354,11924,1,8,0:0:0:0:
97,336,12060,2,0,P|144:321|184:320,1,74.9999976158143,2|0,0:0|0:0,0:0:0:0:
161,136,12333,2,0,P|82:191|24:273,1,149.999995231629,2|0,0:0|0:0,0:0:0:0:
200,227,12742,1,2,0:0:0:0:
265,142,12879,1,0,0:0:0:0:
182,29,13015,2,0,P|137:36|83:58,1,74.9999976158143,8|0,0:0|0:0,0:0:0:0:
4,136,13288,2,0,P|38:150|75:158,1,74.9999976158143,2|0,0:0|0:0,0:0:0:0:
265,142,13560,6,0,P|270:96|271:54,1,74.9999976158143,4|0,0:3|0:0,0:0:0:0:
364,151,13833,2,0,P|363:198|370:239,1,74.9999976158143,2|0,0:0|0:0,0:0:0:0:
458,270,14106,1,8,0:0:0:0:
273,275,14242,2,0,P|237:290|197:315,1,74.9999976158143,2|0,0:0|0:0,0:0:0:0:
410,366,14515,2,0,P|417:283|403:189,1,149.999995231629,2|0,0:0|0:0,0:0:0:0:
283,143,14924,1,2,0:0:0:0:
388,78,15060,1,0,0:0:0:0:
484,220,15197,2,0,L|390:216,1,74.9999976158143,8|0,0:0|0:0,0:0:0:0:
273,275,15470,2,0,L|367:271,1,74.9999976158143,10|0,0:0|0:0,0:0:0:0:
207,202,15742,5,4,0:3:0:0:
207,202,16015,2,0,P|185:243|178:271,1,74.9999976158143,2|2,0:0|0:0,0:0:0:0:
22,228,16288,2,0,P|68:226|96:218,1,74.9999976158143,10|0,0:0|0:0,0:0:0:0:
252,117,16560,2,0,P|206:107|180:94,1,74.9999976158143,10|0,0:0|0:0,0:0:0:0:
98,10,16833,5,4,0:3:0:0:
146,160,16969,1,0,0:0:0:0:
98,10,17106,2,0,L|174:4,1,74.9999976158143,4|0,0:3|0:0,0:0:0:0:
364,47,17379,1,8,0:0:0:0:
252,117,17515,1,0,0:0:0:0:
364,47,17651,2,0,L|264:36,1,74.9999976158143,8|0,0:0|0:0,0:0:0:0:
177,37,17924,5,4,0:0:0:0:
177,37,18197,2,0,P|149:117|187:204,2,134.999991588593,2|8|2,0:0|0:0|0:0,0:0:0:0:
319,113,19015,2,0,L|228:118,1,67.4999957942964,2|0,0:0|0:0,0:0:0:0:
311,35,19288,1,2,0:0:0:0:
332,195,19424,2,0,L|423:200,1,67.4999957942964,2|8,0:0|0:0,0:0:0:0:
413,117,19697,1,2,0:0:0:0:
390,282,19833,1,2,0:0:0:0:
390,282,20106,6,0,B|319:295|319:295|221:281,1,134.999991588593,2|0,0:0|0:0,0:0:0:0:
182,246,20515,1,0,0:0:0:0:
53,291,20651,1,8,0:0:0:0:
53,291,20924,6,0,L|47:363,1,67.4999957942964,2|2,0:0|0:0,0:0:0:0:
99,174,21197,2,0,L|93:106,1,67.4999957942964,2|0,0:0|0:0,0:0:0:0:
82,27,21470,1,2,0:0:0:0:
245,156,21606,2,0,L|177:161,1,67.4999957942964,2|8,0:0|0:0,0:0:0:0:
99,174,21879,1,0,0:0:0:0:
229,10,22015,2,0,L|234:77,1,67.4999957942964,2|0,0:0|0:0,0:0:0:0:
245,156,22288,6,0,P|308:133|375:135,1,134.999991588593,4|2,0:3|0:0,0:0:0:0:
435,227,22833,2,0,P|347:218|375:134,1,202.499987382889,8|0,0:0|0:0,0:0:0:0:
435,227,23379,6,0,P|371:205|304:206,1,134.999991588593,4|2,0:3|0:0,0:0:0:0:
246,299,23924,2,0,P|333:290|305:206,1,202.499987382889,8|0,0:0|0:0,0:0:0:0:
202,209,24470,1,4,0:3:0:0:
202,209,25015,6,0,B|286:236|353:232|378:191|378:191|341:176|306:190|293:230,1,269.999983177186,4|8,0:3|0:0,0:0:0:0:
246,301,25697,1,8,0:0:0:0:
246,301,25970,5,8,0:0:0:0:
337,297,26106,1,8,0:0:0:0:
202,209,26242,5,0,0:0:0:0:
375,187,26378,1,8,0:0:0:0:
375,187,26651,6,0,L|247:165,1,74.9999976158143,4|0,0:0|0:0,0:0:0:0:
165,93,26924,1,2,0:0:0:0:
202,209,27060,1,0,0:0:0:0:
165,93,27197,2,0,L|34:111,1,74.9999976158143,8|0,0:0|0:0,0:0:0:0:
20,219,27470,2,0,L|126:234,1,74.9999976158143,2|0,0:0|0:0,0:0:0:0:
279,236,27742,6,0,P|276:172|270:149,1,74.9999976158143,2|0,0:0|0:0,0:0:0:0:
193,109,28015,1,2,0:0:0:0:
371,64,28151,2,0,P|368:128|362:151,1,74.9999976158143,2|8,0:0|0:0,0:0:0:0:
273,161,28424,1,2,0:0:0:0:
221,20,28560,2,0,P|285:23|308:29,1,74.9999976158143,2|0,0:0|0:0,0:0:0:0:
440,143,28833,6,0,L|344:137,1,74.9999976158143,2|0,0:0|0:0,0:0:0:0:
280,237,29106,2,0,L|376:231,1,74.9999976158143,0|0,0:0|0:0,0:0:0:0:
453,311,29379,2,0,L|459:215,1,74.9999976158143,8|0,0:0|0:0,0:0:0:0:
383,132,29651,1,2,0:0:0:0:
280,237,29788,1,2,0:0:0:0:
119,186,29924,6,0,P|110:143|119:96,1,74.9999976158143,2|0,0:0|0:0,0:0:0:0:
169,26,30197,1,2,0:0:0:0:
284,108,30333,2,0,P|242:121|206:153,1,74.9999976158143,2|8,0:0|0:0,0:0:0:0:
188,248,30606,1,0,0:0:0:0:
30,250,30742,2,0,P|65:259|96:279,1,74.9999976158143,2|0,0:0|0:0,0:0:0:0:
232,356,31015,6,0,P|268:359|304:350,1,74.9999976158143,2|0,0:0|0:0,0:0:0:0:
431,222,31288,2,0,P|416:257|393:286,1,74.9999976158143,2|0,0:0|0:0,0:0:0:0:
271,222,31560,2,0,P|365:188|393:285,1,224.999992847443,8|0,0:0|0:0,0:0:0:0:
271,222,32106,6,0,P|234:225|198:216,1,74.9999976158143,2|0,0:0|0:0,0:0:0:0:
72,86,32379,2,0,P|85:120|109:149,1,74.9999976158143,2|0,0:0|0:0,0:0:0:0:
230,85,32651,2,0,P|136:52|109:149,1,224.999992847443,8|0,0:0|0:0,0:0:0:0:
197,216,33197,1,4,0:3:0:0:
197,216,33470,6,0,L|108:228,1,74.9999976158143,2|0,0:0|0:0,0:0:0:0:
32,273,33742,1,4,0:3:0:0:
13,143,33879,1,0,0:0:0:0:
180,42,34015,2,0,L|168:131,1,74.9999976158143,2|0,0:0|0:0,0:0:0:0:
301,272,34288,2,0,L|290:197,2,74.9999976158143,8|8|0,0:0|0:0|0:0,0:0:0:0:
169,116,34697,2,0,B|229:78|287:101|287:101|354:130|401:91,1,224.999992847443,8|8,0:0|0:0,0:0:0:0:
485,35,35242,5,0,0:0:0:0:
485,35,35379,2,0,P|464:106|483:169,1,119.999996185303,2|0,0:0|0:0,0:0:0:0:
506,258,35924,2,0,P|435:237|372:256,1,119.999996185303,8|0,0:0|0:0,0:0:0:0:
299,327,36470,2,0,L|137:336,2,119.999996185303,2|0|8,0:0|0:0|0:0,0:0:0:0:
438,333,37288,5,0,0:0:0:0:
283,236,37560,2,0,P|283:175|311:124,1,119.999996185303,2|0,0:0|0:0,0:0:0:0:
297,26,38106,2,0,P|245:56|215:107,2,119.999996185303,8|0|2,0:0|0:0|0:0,0:0:0:0:
389,205,38924,1,0,0:0:0:0:
197,195,39197,1,8,0:0:0:0:
297,27,39470,1,0,0:0:0:0:
418,116,39742,6,0,L|274:128,1,119.999996185303,2|0,0:0|0:0,0:0:0:0:
70,81,40288,2,0,L|189:90,1,119.999996185303,8|0,0:0|0:0,0:0:0:0:
389,205,40833,2,0,P|428:269|410:358,1,119.999996185303,2|0,0:0|0:0,0:0:0:0:
236,366,41379,2,0,P|270:317|323:292,1,119.999996185303,10|0,0:0|0:0,0:0:0:0:
180,286,41924,5,2,0:0:0:0:
65,250,42197,1,2,0:0:0:0:
21,138,42470,1,2,0:0:0:0:
81,34,42742,1,2,0:0:0:0:
200,17,43015,1,4,0:3:0:0:
288,98,43288,1,8,0:3:0:0:
279,217,43560,6,0,L|272:296,1,59.9999980926514,4|0,0:3|0:0,0:0:0:0:
175,149,43833,2,0,L|182:223,1,59.9999980926514,4|0,0:3|0:0,0:0:0:0:
216,351,44106,2,0,B|297:367|297:367|399:343,2,149.999995231629,4|2|2,0:0|0:0|0:0,0:0:0:0:
72,239,44924,2,0,B|153:223|153:223|255:247,1,149.999995231629,4|2,0:0|0:0,0:0:0:0:
339,278,45470,1,4,0:0:0:0:
216,351,45742,1,4,0:0:0:0:
72,239,46015,2,0,P|193:268|294:184,1,224.999992847443,4|0,0:0|0:0,0:0:0:0:
339,278,46560,6,0,L|344:362,2,74.9999976158143,2|2|8,0:0|0:0|0:0,0:0:0:0:
248,137,47106,2,0,L|243:221,2,74.9999976158143,2|2|8,0:0|0:0|0:0,0:0:0:0:
394,51,47651,2,0,L|399:135,2,74.9999976158143,2|2|8,0:0|0:0|0:0,0:0:0:0:
214,27,48197,6,0,P|172:32|134:53,1,74.9999976158143,2|2,0:0|0:0,0:0:0:0:
5,147,48470,2,0,P|40:152|79:144,1,74.9999976158143,8|2,0:0|0:0,0:0:0:0:
199,121,48742,1,2,0:0:0:0:
42,63,48879,1,2,0:0:0:0:
199,121,49015,2,0,P|233:134|272:138,1,74.9999976158143,8|2,0:0|0:0,0:0:0:0:
374,82,49288,1,10,0:0:0:0:
238,221,49424,1,2,0:0:0:0:
491,191,49560,1,8,0:0:0:0:
491,191,50106,6,0,B|471:174|443:178|443:178|414:162|407:118|407:118|357:187|278:164,1,269.999983177186,12|0,0:3|0:0,0:0:0:0:
129,106,50651,2,0,B|163:71|210:60|210:60|267:84|322:65,1,194.999984874726,4|0,0:0|0:0,0:0:0:0:
418,27,51060,1,0,0:0:0:0:
374,165,51197,2,0,P|326:155|279:164,1,97.4999924373631,8|0,0:0|0:0,0:0:0:0:
171,208,51470,1,0,0:0:0:0:
84,350,51606,2,0,B|103:307|76:255|76:255|52:207|74:163,1,194.999984874726,0|0,0:0|0:0,0:0:0:0:
258,257,52015,2,0,P|219:294|149:308,1,97.4999924373631,0|0,0:0|0:0,0:0:0:0:
74,162,52288,5,8,0:0:0:0:
171,208,52424,1,0,0:0:0:0:
4,284,52560,1,8,0:0:0:0:
178,307,52696,1,0,0:0:0:0:
353,212,52833,6,0,P|336:293|257:235,1,194.999984874726,4|0,0:3|0:0,0:0:0:0:
269,155,53242,1,0,0:0:0:0:
117,68,53379,2,0,B|166:95|216:71|216:71|273:39|366:90,1,194.999984874726,8|0,0:0|0:0,0:0:0:0:
404,117,53788,1,0,0:0:0:0:
512,13,53924,2,0,L|382:7,1,97.4999924373631,0|0,0:0|0:0,0:0:0:0:
277,17,54197,1,0,0:0:0:0:
178,119,54333,1,0,0:0:0:0:
49,19,54470,2,0,L|179:13,1,97.4999924373631,8|0,0:0|0:0,0:0:0:0:
27,136,54742,5,8,0:0:0:0:
117,68,54879,1,0,0:0:0:0:
252,127,55015,2,0,L|246:281,1,97.4999924373631,4|0,0:3|0:0,0:0:0:0:
352,286,55288,2,0,L|346:132,1,97.4999924373631,0|0,0:0|0:0,0:0:0:0:
242,111,55560,2,0,L|235:295,1,97.4999924373631,8|0,0:0|0:0,0:0:0:0:
361,301,55833,2,0,L|354:117,1,97.4999924373631,0|0,0:0|0:0,0:0:0:0:
227,312,56106,6,0,P|167:335|111:330,1,97.4999924373631,4|0,0:3|0:0,0:0:0:0:
30,303,56379,1,0,0:0:0:0:
76,165,56515,2,0,P|115:193|142:233,1,97.4999924373631,0|8,0:0|0:0,0:0:0:0:
256,215,56788,1,0,0:0:0:0:
246,51,56924,2,0,P|207:79|180:119,1,97.4999924373631,8|0,0:0|0:0,0:0:0:0:
457,206,57197,6,0,P|425:113|343:61,1,194.999984874726,4|0,0:3|0:0,0:0:0:0:
287,137,57606,1,0,0:0:0:0:
297,303,57742,2,0,P|330:268|350:224,1,97.4999924373631,8|0,0:0|0:0,0:0:0:0:
287,137,58015,1,0,0:0:0:0:
79,238,58151,2,0,B|130:233|166:193|166:193|209:220|261:215,1,194.999984874726,4|0,0:3|0:0,0:0:0:0:
349,234,58560,5,4,0:3:0:0:
476,140,58697,1,0,0:0:0:0:
427,289,58833,1,8,0:0:0:0:
380,139,58970,1,0,0:0:0:0:
506,233,59106,2,0,P|512:293|502:337,1,97.4999924373631,8|0,0:0|0:0,0:0:0:0:
335,329,59379,6,0,B|282:302|234:323|234:323|183:346|121:321,1,194.999984874726,4|0,0:0|0:0,0:0:0:0:
80,248,59788,1,0,0:0:0:0:
236,185,59924,2,0,P|278:289|257:344,1,97.4999924373631,8|0,0:0|0:0,0:0:0:0:
182,256,60197,1,0,0:0:0:0:
291,115,60333,2,0,P|382:153|513:118,1,194.999984874726
314,19,60742,2,0,L|176:24,1,97.4999924373631
37,108,61015,5,8,0:0:0:0:
53,218,61151,1,0,0:0:0:0:
177,108,61287,1,8,0:0:0:0:
141,267,61423,1,0,0:0:0:0:
360,51,61560,6,0,B|299:24|217:22|217:22|272:65|280:125,1,194.999984874726,4|0,0:3|0:0,0:0:0:0:
177,108,61970,1,0,0:0:0:0:
324,246,62106,2,0,B|377:206|420:136|420:136|355:162|299:139,1,194.999984874726,8|0,0:0|0:0,0:0:0:0:
361,51,62515,1,0,0:0:0:0:
177,108,62651,2,0,P|225:142|336:135,1,97.4999924373631
352,171,62924,1,0,0:0:0:0:
244,231,63060,1,0,0:0:0:0:
30,203,63197,2,0,P|78:169|189:176,1,97.4999924373631,8|0,0:0|0:0,0:0:0:0:
259,148,63470,5,8,0:0:0:0:
138,249,63606,1,0,0:0:0:0:
315,340,63742,2,0,P|373:345|466:283,1,97.4999924373631,4|0,0:3|0:0,0:0:0:0:
484,230,64015,2,0,P|425:224|332:286,1,97.4999924373631,0|0,0:0|0:0,0:0:0:0:
302,348,64288,2,0,P|359:358|457:305,1,97.4999924373631,8|0,0:0|0:0,0:0:0:0:
496,221,64561,2,0,P|437:211|341:266,1,97.4999924373631,0|0,0:0|0:0,0:0:0:0:
264,240,64833,5,0,0:0:0:0:
194,134,64970,2,0,L|202:36,1,97.4999924373631,4|0,0:3|0:0,0:0:0:0:
90,204,65242,2,0,L|98:301,1,97.4999924373631,0|8,0:0|0:0,0:0:0:0:
213,332,65515,1,0,0:0:0:0:
149,129,65651,2,0,L|51:120,1,97.4999924373631,8|0,0:0|0:0,0:0:0:0:
273,71,65924,6,0,B|333:53|371:79|371:79|420:106|472:76,1,194.999984874726,4|0,0:3|0:0,0:0:0:0:
419,12,66333,1,0,0:0:0:0:
335,170,66470,2,0,B|269:154|269:154|213:186|213:186|150:182,1,194.999984874726,8|0,0:0|0:0,0:0:0:0:
56,67,66879,2,0,P|30:135|42:182,1,97.4999924373631,4|0,0:3|0:0,0:0:0:0:
217,248,67151,2,0,P|191:206|150:182,1,97.4999924373631,0|4,0:0|0:3,0:0:0:0:
74,276,67424,1,0,0:0:0:0:
163,337,67560,2,0,L|287:346,1,97.4999924373631,8|0,0:0|0:0,0:0:0:0:
414,246,67833,2,0,L|316:253,1,97.4999924373631,8|0,0:0|0:0,0:0:0:0:
196,261,68106,5,4,0:3:0:0:
196,261,68379,2,0,L|99:268,1,74.9999976158143,2|0,0:0|0:0,0:0:0:0:
44,167,68651,2,0,L|118:172,1,74.9999976158143,8|0,0:0|0:0,0:0:0:0:
234,157,68924,1,2,0:0:0:0:
325,230,69060,1,2,0:0:0:0:
444,103,69197,6,0,P|356:84|280:101,1,149.999995231629,8|2,0:0|0:0,0:0:0:0:
216,67,69606,1,2,0:0:0:0:
216,67,69742,2,0,P|170:84|104:77,1,74.9999976158143,8|0,0:0|0:0,0:0:0:0:
47,153,70015,2,0,P|93:170|159:163,1,74.9999976158143,2|0,0:0|0:0,0:0:0:0:
234,157,70288,1,4,0:3:0:0:
234,157,70560,6,0,L|236:266,1,74.9999976158143,2|0,0:0|0:0,0:0:0:0:
323,304,70833,2,0,L|325:195,1,74.9999976158143,8|0,0:0|0:0,0:0:0:0:
399,95,71106,2,0,L|397:204,1,74.9999976158143,2|2,0:0|0:0,0:0:0:0:
425,333,71379,2,0,P|358:379|253:359,1,149.999995231629,8|2,0:0|0:0,0:0:0:0:
249,299,71788,1,2,0:0:0:0:
249,299,71924,2,0,P|315:301|341:314,1,74.9999976158143,8|0,0:0|0:0,0:0:0:0:
469,240,72197,2,0,P|403:242|377:255,1,74.9999976158143,2|0,0:0|0:0,0:0:0:0:
291,198,72470,5,4,0:3:0:0:
291,198,72742,2,0,P|288:146|273:113,1,74.9999976158143,2|0,0:0|0:0,0:0:0:0:
190,37,73015,2,0,P|166:83|163:119,1,74.9999976158143,8|0,0:0|0:0,0:0:0:0:
164,273,73288,2,0,P|187:226|190:190,1,74.9999976158143,2|2,0:0|0:0,0:0:0:0:
68,60,73560,2,0,P|60:159|85:215,1,149.999995231629,8|2,0:0|0:0,0:0:0:0:
71,294,73970,1,2,0:0:0:0:
71,294,74106,2,0,P|73:339|64:375,1,74.9999976158143,8|0,0:0|0:0,0:0:0:0:
225,313,74379,2,0,P|196:288|163:272,1,74.9999976158143,2|0,0:0|0:0,0:0:0:0:
312,263,74651,6,0,P|387:262|467:202,1,149.999995231629,4|2,0:3|0:0,0:0:0:0:
360,83,75060,1,0,0:0:0:0:
360,83,75197,2,0,L|356:190,1,74.9999976158143,8|0,0:0|0:0,0:0:0:0:
449,224,75470,2,0,L|445:117,1,74.9999976158143,2|0,0:0|0:0,0:0:0:0:
264,180,75742,6,0,P|220:206|173:212,1,74.9999976158143,4|0,0:3|0:0,0:0:0:0:
98,108,76015,2,0,P|135:105|171:114,1,74.9999976158143,2|0,0:0|0:0,0:0:0:0:
113,278,76288,2,0,L|114:201,2,74.9999976158143,8|0|2,0:0|0:0|0:0,0:0:0:0:
208,315,76697,1,0,0:0:0:0:
365,283,76833,6,0,B|421:250|421:250|233:224,1,224.999992847443,4|0,0:3|0:0,0:0:0:0:
163,141,77379,2,0,L|315:133,1,149.999995231629,8|0,0:0|0:0,0:0:0:0:
434,21,77788,2,0,B|384:16|384:16|332:38|332:38|259:34,1,149.999995231629
73,112,78197,6,0,P|67:153|72:206,1,74.9999976158143,2|0,0:0|0:0,0:0:0:0:
163,141,78470,2,0,P|194:121|229:107,1,74.9999976158143,10|0,0:0|0:0,0:0:0:0:
350,76,78742,2,0,P|321:52|288:35,1,74.9999976158143,10|0,0:0|0:0,0:0:0:0:
248,216,79015,1,14,0:0:0:0:
