osu file format v14

[General]
AudioFilename: audio.mp3
AudioLeadIn: 0
PreviewTime: 54900
Countdown: 0
SampleSet: Soft
StackLeniency: 0.5
Mode: 0
LetterboxInBreaks: 0
WidescreenStoryboard: 1

[Editor]
DistanceSpacing: 4.3
BeatDivisor: 4
GridSize: 16
TimelineZoom: 1.6

[Metadata]
Title:Ready Set Go!! (TV Size)
TitleUnicode:Ready Set Go!! (TV Size)
Artist:Asaka
ArtistUnicode:亜咲花
Creator:NakaRoniX
Version:Enu's Hard
Source:賢者の弟子を名乗る賢者
Tags:ninjaking311 enuhq officialakage kenja no deshi wo nanoru kenja she professed herself pupil of the wise man anime op opening theme japanese pop jpop j-pop j pop female vocals vocalist
BeatmapID:3469259
BeatmapSetID:1696485

[Difficulty]
HPDrainRate:4
CircleSize:3.6
OverallDifficulty:6.2
ApproachRate:8
SliderMultiplier:1.52
SliderTickRate:1

[Events]
//Background and Video events
0,0,"65691480_p0.jpg",0,0
//Break Periods
//Storyboard Layer 0 (Background)
//Storyboard Layer 1 (Fail)
//Storyboard Layer 2 (Pass)
//Storyboard Layer 3 (Foreground)
//Storyboard Layer 4 (Overlay)
//Storyboard Sound Samples

[TimingPoints]
-826,348.837209302326,4,2,22,42,1,0
220,-108.695652173913,4,2,22,42,0,0
569,-108.695652173913,4,2,22,52,0,0
3360,-108.695652173913,4,2,22,62,0,0
4929,-108.695652173913,4,2,22,82,0,0
6150,-98.0392156862745,4,2,22,72,0,0
14522,-98.0392156862745,4,2,22,62,0,0
15743,-98.0392156862745,4,2,22,72,0,0
17487,-98.0392156862745,4,2,22,42,0,0
17662,-108.695652173913,4,2,22,42,0,0
18708,-121.951219512195,4,2,22,52,0,0
21412,-121.951219512195,4,2,22,5,0,0
21500,-121.951219512195,4,2,22,52,0,0
28476,-98.0392156862744,4,2,22,72,0,0
29871,-108.695652173913,4,2,22,62,0,0
35453,-108.695652173913,4,2,22,72,0,0
40947,-108.695652173913,4,2,22,5,0,0
41034,-108.695652173913,4,2,22,52,0,0
43825,-108.695652173913,4,2,22,72,0,0
46615,-108.695652173913,4,2,22,62,0,0
49406,-108.695652173913,4,2,22,52,0,0
50801,-108.695652173913,4,2,22,62,0,0
51674,-108.695652173913,4,2,22,72,0,0
51848,-108.695652173913,4,2,22,82,0,0
53418,-192.307692307693,4,2,22,82,0,0
53592,-192.307692307693,4,2,22,62,0,0
53941,-192.307692307693,4,2,22,62,0,0
54290,-121.951219512195,4,2,22,62,0,0
54987,-98.0392156862745,4,2,22,72,0,0
64929,-98.0392156862745,4,2,22,82,0,0
66150,-98.0392156862745,4,2,22,72,0,0
77313,-98.0392156862745,4,2,22,82,0,0
78534,-98.0392156862745,4,2,22,72,0,0
79580,-98.0392156862745,4,2,22,82,0,0
80104,-98.0392156862745,4,2,22,62,0,0
81499,-108.695652173913,4,2,22,52,0,0
84290,-108.695652173913,4,2,22,62,0,0
85860,-108.695652173913,4,2,22,82,0,0
87255,-161.290322580645,4,2,22,82,0,0
88127,-161.290322580645,4,2,22,42,0,0

[Colours]
Combo1 : 128,0,255
Combo2 : 128,255,255
Combo3 : 255,128,255
Combo4 : 255,202,255

[HitObjects]
485,35,220,6,0,P|433:46|383:59,1,104.88,2|0,0:2|0:2,0:2:0:0:
355,101,569,2,0,P|321:92|287:85,1,69.92,2|0,0:2|0:2,0:2:0:0:
197,67,918,2,0,P|205:100|213:135,1,69.92,2|0,0:2|0:2,0:2:0:0:
142,198,1267,2,0,P|207:178|264:214,1,139.84,2|2,0:2|0:2,0:2:0:0:
210,297,1790,1,0,0:2:0:0:
210,297,1964,6,0,P|244:304|278:313,1,69.92,2|0,0:2|0:2,0:2:0:0:
341,380,2313,2,0,P|375:372|409:363,1,69.92,2|0,0:2|0:2,0:2:0:0:
492,308,2662,2,0,P|438:271|449:205,1,139.84,2|2,0:2|0:2,0:2:0:0:
504,128,3185,1,0,0:2:0:0:
504,128,3360,6,0,P|473:111|439:112,1,69.92,2|0,1:2|1:2,0:0:0:0:
359,60,3708,2,0,P|328:76|294:75,1,69.92,2|0,1:2|1:2,0:0:0:0:
207,11,4057,1,10,1:2:0:0:
207,11,4232,1,8,1:2:0:0:
139,99,4406,1,10,0:2:0:0:
63,21,4580,1,8,0:2:0:0:
0,163,4929,5,10,0:2:0:0:
0,163,5104,2,0,P|7:197|16:231,1,69.92,10|0,0:2|1:2,0:0:0:0:
118,208,5453,1,10,0:2:0:0:
118,208,5627,2,0,P|111:242|102:276,1,69.92,10|2,0:2|0:2,0:0:0:0:
96,324,5889,1,2,0:2:0:0:
96,324,5976,2,0,L|132:332,1,34.96,2|2,0:2|0:2,0:0:0:0:
179,345,6150,6,0,P|214:279|289:271,1,155.04,4|8,1:2|0:2,0:2:0:0:
368,346,6674,1,0,1:2:0:0:
368,346,6761,1,8,0:2:0:0:
368,346,6848,2,0,P|377:308|385:270,1,77.52,2|2,1:2|0:2,0:0:0:0:
452,202,7197,1,8,0:2:0:0:
376,140,7371,6,0,B|277:111|277:111|230:140,1,155.04,2|2,1:2|1:2,0:2:0:0:
165,214,7894,1,10,0:2:0:0:
165,214,8069,1,2,1:2:0:0:
237,277,8243,2,0,P|229:314|219:352,1,77.52,2|2,0:2|1:2,0:0:0:0:
312,377,8592,2,0,P|321:339|329:301,1,77.52,8|2,0:2|1:2,0:0:0:0:
347,274,8854,1,0,1:2:0:0:
347,274,8941,6,0,P|401:290|453:267,1,116.28,0|0,1:2|0:2,0:2:0:0:
475,230,9290,2,0,P|466:192|458:154,1,77.52,8|0,0:2|1:2,0:2:0:0:
398,75,9639,1,0,1:2:0:0:
334,143,9813,2,0,P|299:124|262:125,1,77.52,2|8,0:2|0:2,0:0:0:0:
201,64,10162,6,0,P|166:82|129:81,1,77.52,6|0,1:2|0:0,0:2:0:0:
45,9,10511,1,2,1:2:0:0:
45,9,10685,1,8,0:2:0:0:
3,98,10860,2,0,P|11:135|21:173,1,77.52,6|0,1:2|0:0,0:2:0:0:
117,176,11208,2,0,P|109:213|99:251,1,77.52,2|8,1:2|0:2,0:0:0:0:
97,364,11557,1,2,1:2:0:0:
97,364,11644,1,8,0:2:0:0:
97,364,11732,6,0,P|142:329|199:333,1,116.28,4|0,1:2|0:0,0:2:0:0:
233,318,12080,2,0,P|225:280|216:242,1,77.52,8|0,0:2|1:2,0:0:0:0:
130,182,12429,1,2,1:2:0:0:
130,182,12604,1,2,0:2:0:0:
205,115,12778,1,10,0:2:0:0:
133,46,12953,6,0,P|167:27|204:28,1,77.52,6|0,1:2|0:2,0:2:0:0:
292,7,13301,2,0,P|326:25|363:24,1,77.52,2|8,1:2|0:2,0:2:0:0:
459,0,13650,2,0,P|445:59|432:113,1,116.28,2|0,1:2|0:0,0:2:0:0:
423,145,13999,1,2,1:2:0:0:
500,206,14174,1,10,0:2:0:0:
433,276,14348,1,2,1:2:0:0:
433,276,14435,1,8,0:2:0:0:
433,276,14522,6,0,P|399:257|362:258,1,77.52,2|0,1:2|1:2,0:0:0:0:
305,331,14871,2,0,P|271:350|234:349,1,77.52,2|0,1:2|1:2,0:0:0:0:
149,288,15220,1,10,1:2:0:0:
149,288,15394,1,10,0:2:0:0:
220,212,15569,1,10,0:2:0:0:
140,136,15743,6,0,L|253:109,1,116.28,6|0,1:2|0:2,0:2:0:0:
281,103,16092,1,2,1:2:0:0:
355,46,16267,1,10,0:2:0:0:
412,118,16441,2,0,L|386:231,1,116.28,6|0,1:2|0:2,0:2:0:0:
379,259,16790,1,0,1:2:0:0:
322,336,16964,6,0,P|247:318|170:301,1,155.04,12|0,0:2|1:2,0:2:0:0:
100,365,17487,1,10,0:2:0:0:
100,365,17662,2,0,L|83:294,1,69.92,2|2,0:2|0:2,0:2:0:0:
13,247,18011,2,0,L|29:176,1,69.92,2|0,1:2|0:2,0:2:0:0:
43,137,18272,1,0,0:2:0:0:
43,137,18360,1,2,0:2:0:0:
150,41,18708,6,0,P|193:81|263:70,1,124.64,0|0,1:2|1:2,0:2:0:0:
354,60,19232,1,2,0:2:0:0:
354,60,19406,2,0,P|345:94|335:135,1,62.3200000000001,2|2,1:2|0:2,0:0:0:0:
277,178,19755,2,0,P|285:212|295:253,1,62.3200000000001,2|2,1:2|0:2,0:0:0:0:
354,316,20104,6,0,B|274:310|299:346|231:338,1,124.64,2|0,1:2|1:2,0:2:0:0:
132,363,20627,2,0,P|144:334|145:303,1,62.3200000000001,2|0,0:2|1:2,0:2:0:0:
63,251,20976,1,0,0:2:0:0:
63,251,21150,2,0,P|50:222|49:191,1,62.3200000000001,0|0,1:2|0:0,0:2:0:0:
121,128,21499,6,0,P|182:141|242:156,1,124.64,0|0,1:2|1:2,0:2:0:0:
307,218,22022,2,0,P|341:210|382:200,1,62.3200000000001,2|0,0:2|1:2,0:0:0:0:
466,207,22371,1,2,0:2:0:0:
466,207,22546,2,0,P|458:173|448:132,1,62.3200000000001,2|2,1:2|0:2,0:0:0:0:
435,56,22894,5,2,1:2:0:0:
435,56,23069,2,0,P|401:64|360:74,1,62.3200000000001,2|0,0:2|1:2,0:0:0:0:
289,111,23418,2,0,P|304:171|317:232,1,124.64,2|0,0:2|0:2,0:2:0:0:
355,318,23941,1,0,1:2:0:0:
266,347,24115,1,0,1:2:0:0:
266,347,24203,1,0,1:2:0:0:
266,347,24290,6,0,P|228:319|183:314,1,93.4800000000001,0|0,1:2|0:0,0:2:0:0:
145,320,24639,2,0,P|137:289|130:259,1,62.3200000000001,0|2,1:2|0:2,0:0:0:0:
72,189,24987,2,0,P|80:158|87:128,1,62.3200000000001,2|2,1:2|0:2,0:0:0:0:
157,67,25336,2,0,P|185:78|216:80,1,62.3200000000001,2|2,1:2|0:2,0:0:0:0:
295,22,25685,6,0,B|318:66|318:66|297:138,1,124.64,0|0,1:2|1:2,0:2:0:0:
264,241,26208,1,2,0:2:0:0:
264,241,26383,2,0,P|294:233|324:226,1,62.3200000000001,2|2,1:2|0:2,0:0:0:0:
394,171,26732,2,0,P|424:178|454:185,1,62.3200000000001,2|2,1:2|0:2,0:0:0:0:
512,253,27080,6,0,P|500:301|490:344,1,93.4800000000001,0|0,1:2|0:0,0:2:0:0:
452,368,27429,2,0,P|425:355|392:353,1,62.3200000000001,0|0,1:2|0:0,0:0:0:0:
321,292,27778,2,0,P|294:304|261:306,1,62.3200000000001,0|2,1:2|0:2,0:0:0:0:
200,239,28127,1,2,1:2:0:0:
200,239,28301,1,2,0:2:0:0:
126,311,28476,6,0,P|113:253|97:198,1,116.28,6|0,1:2|0:2,0:2:0:0:
68,177,28825,1,8,0:2:0:0:
129,100,28999,2,0,P|204:116|280:134,1,155.04,6|0,1:2|1:2,0:2:0:0:
354,93,29522,1,8,0:2:0:0:
420,187,29697,1,0,1:2:0:0:
420,187,29784,1,8,0:2:0:0:
420,187,29871,6,0,P|352:188|312:243,1,139.84,4|0,1:2|1:2,0:2:0:0:
315,343,30394,1,2,0:2:0:0:
315,343,30569,2,0,P|284:326|249:326,1,69.92,2|10,1:2|0:2,0:0:0:0:
173,272,30918,2,0,P|142:289|107:289,1,69.92,2|2,1:2|0:2,0:0:0:0:
15,286,31267,6,0,P|31:210|49:134,1,139.84,2|0,1:2|1:2,0:0:0:0:
2,49,31790,2,0,P|70:63|138:79,1,139.84,2|8,0:2|0:2,0:2:0:0:
209,134,32313,2,0,P|240:126|271:119,1,69.92,0|0,1:2|1:2,0:0:0:0:
344,42,32662,6,0,B|371:109|371:109|346:172,1,139.84,0|8,1:2|0:2,0:2:0:0:
295,244,33185,1,2,0:2:0:0:
295,244,33360,2,0,P|329:251|362:260,1,69.92,2|2,1:2|0:2,0:0:0:0:
431,338,33708,2,0,P|396:346|363:354,1,69.92,2|10,1:2|0:2,0:0:0:0:
276,384,34057,6,0,P|235:329|168:329,1,139.84,2|0,1:2|1:2,0:0:0:0:
93,384,34580,2,0,P|77:308|59:232,1,139.84,2|8,0:2|0:2,0:0:0:0:
121,169,35104,1,0,1:2:0:0:
121,169,35278,1,8,0:2:0:0:
32,118,35453,6,0,P|73:63|140:63,1,139.84,4|8,1:2|0:2,0:2:0:0:
237,69,35976,1,2,0:2:0:0:
237,69,36150,2,0,P|220:100|220:135,1,69.92,2|2,1:2|1:2,0:2:0:0:
283,204,36499,2,0,P|300:235|300:270,1,69.92,10|2,0:2|1:2,0:0:0:0:
230,367,36848,6,0,L|367:339,1,139.84,0|8,1:2|0:2,0:2:0:0:
438,280,37371,1,2,0:2:0:0:
438,280,37546,2,0,P|431:246|422:213,1,69.92,2|2,1:2|1:2,0:0:0:0:
496,163,37894,2,0,P|504:129|512:94,1,69.92,10|2,0:2|0:2,0:0:0:0:
433,44,38243,6,0,B|370:19|370:19|303:46,2,139.84,0|8|2,1:2|0:2|1:2,0:2:0:0:
512,96,39115,1,0,1:2:0:0:
512,96,39290,1,8,0:2:0:0:
433,144,39464,6,0,P|448:212|463:280,1,139.84,6|0,1:2|1:2,0:2:0:0:
418,360,39987,1,8,0:2:0:0:
352,299,40162,2,0,P|321:282|286:282,1,69.92,4|0,1:2|0:2,0:2:0:0:
227,359,40511,1,2,1:2:0:0:
227,359,40685,2,0,P|196:376|161:376,1,69.92,8|2,0:2|0:2,0:2:0:0:
94,305,41034,6,0,P|109:237|124:169,1,139.84,6|8,1:2|0:2,0:2:0:0:
75,69,41557,1,2,0:2:0:0:
75,69,41732,2,0,P|140:87|197:51,1,139.84,2|8,1:2|0:2,0:2:0:0:
299,31,42255,6,0,P|289:64|282:98,1,69.92,2|0,0:2|1:2,0:2:0:0:
218,163,42604,1,2,0:2:0:0:
218,163,42778,1,10,0:2:0:0:
278,230,42953,2,0,P|309:213|344:213,1,69.92,2|0,1:2|0:2,0:2:0:0:
419,324,43301,1,8,0:2:0:0:
419,324,43476,2,0,P|388:307|353:307,1,69.92,8|10,0:2|1:3,0:0:0:0:
280,369,43825,6,0,P|244:375|211:384,1,69.92,6|2,1:2|0:2,0:0:0:0:
134,329,44174,1,10,0:2:0:0:
134,329,44348,2,0,P|98:322|65:313,1,69.92,2|0,0:2|0:0,0:2:0:0:
0,230,44697,1,2,0:2:0:0:
0,230,44871,1,10,0:2:0:0:
103,130,45046,6,0,P|93:163|87:198,1,69.92,2|0,0:2|1:2,0:2:0:0:
211,111,45394,2,0,P|201:144|195:179,1,69.92,2|8,0:2|0:2,0:2:0:0:
317,75,45743,2,0,P|307:108|301:143,1,69.92,2|0,0:2|1:2,0:0:0:0:
376,210,46092,1,10,0:2:0:0:
376,210,46179,1,8,1:3:0:0:
376,210,46267,2,0,L|419:198,3,34.9599988264161,2|8|10|8,1:2|0:2|0:2|0:2,0:2:0:0:
440,197,46615,6,0,B|483:243|483:243|449:327,1,139.84,6|8,1:2|0:2,0:2:0:0:
386,380,47139,1,2,0:2:0:0:
386,380,47313,2,0,P|339:331|272:332,1,139.84,2|8,1:2|0:2,0:2:0:0:
197,283,47836,6,0,P|207:249|212:215,1,69.92,2|0,0:2|1:2,0:2:0:0:
304,205,48185,2,0,P|293:171|288:137,1,69.92,2|10,0:2|0:2,0:0:0:0:
324,45,48534,2,0,P|256:58|188:75,1,139.84,2|8,1:2|0:2,0:2:0:0:
99,118,49057,1,8,0:2:0:0:
168,195,49232,1,10,1:3:0:0:
168,195,49319,1,4,1:3:0:0:
168,195,49406,6,0,P|151:225|150:259,1,69.92,6|2,1:2|0:2,0:0:0:0:
50,253,49755,1,2,1:2:0:0:
50,253,49929,2,0,P|66:283|67:317,1,69.92,2|0,0:2|1:2,0:2:0:0:
134,384,50278,1,10,0:2:0:0:
134,384,50453,1,2,1:2:0:0:
208,327,50627,6,0,P|242:338|276:343,1,69.92,10|0,1:2|1:2,0:0:0:0:
355,288,50976,1,10,0:2:0:0:
278,235,51150,1,2,1:2:0:0:
343,168,51325,2,0,P|332:134|327:100,1,69.92,10|0,1:2|1:2,0:0:0:0:
264,29,51674,1,10,0:2:0:0:
193,103,51848,1,2,1:2:0:0:
193,103,51935,1,8,0:2:0:0:
193,103,52022,6,0,L|184:65,2,34.96,10|8|0,0:2|0:2|1:2,0:0:0:0:
110,159,52371,1,12,0:2:0:0:
181,222,52546,2,0,P|170:255|165:289,1,69.92,12|0,0:2|1:2,0:0:0:0:
210,371,52894,1,12,0:2:0:0:
285,306,53069,2,0,P|318:316|353:321,1,69.92,14|2,0:2|1:2,0:0:0:0:
434,384,53418,6,0,P|444:325|459:268,1,118.56,14|0,0:2|0:0,0:0:0:0:
352,149,54290,2,0,L|359:118,3,31.16,2|2|8|0,0:2|0:2|1:3|0:2,0:0:0:0:
385,84,54639,2,0,L|377:53,3,31.16,8|0|8|8,0:2|0:2|0:2|0:2,0:2:0:0:
345,21,54987,6,0,P|298:30|193:55,1,155.04,6|8,1:2|0:2,0:2:0:0:
125,124,55511,1,2,0:2:0:0:
213,177,55685,2,0,P|191:208|187:246,1,77.52,0|0,1:2|1:2,0:0:0:0:
84,276,56034,2,0,P|105:307|109:345,1,77.52,10|0,0:2|0:0,0:2:0:0:
205,384,56383,6,0,P|262:368|318:357,1,116.28,2|0,1:2|0:0,0:2:0:0:
348,318,56732,2,0,P|385:327|423:335,1,77.52,10|0,0:2|1:2,0:2:0:0:
494,272,57080,1,2,1:2:0:0:
494,272,57255,1,0,1:2:0:0:
421,201,57429,1,10,0:2:0:0:
512,134,57604,6,0,P|473:130|442:108,1,77.52,6|0,1:2|0:2,0:2:0:0:
385,40,57953,2,0,P|308:41|246:84,1,155.04,2|0,1:2|1:2,0:0:0:0:
206,170,58476,1,2,1:2:0:0:
206,170,58650,1,2,1:2:0:0:
286,231,58825,1,8,0:2:0:0:
220,303,58999,6,0,P|182:293|144:285,1,77.52,6|0,1:2|0:2,0:2:0:0:
49,213,59348,2,0,P|86:203|124:195,1,77.52,2|8,1:2|0:2,0:2:0:0:
188,116,59697,2,0,P|225:126|263:134,1,77.52,6|0,1:2|0:2,0:2:0:0:
330,73,60046,1,2,1:2:0:0:
330,73,60220,2,0,P|351:104|355:142,1,77.52,10|2,0:2|1:2,0:0:0:0:
433,202,60569,6,0,P|396:247|391:305,1,116.28,4|0,1:2|0:0,0:2:0:0:
390,344,60918,2,0,P|353:334|315:326,1,77.52,8|0,0:2|0:0,0:0:0:0:
239,261,61267,1,0,1:2:0:0:
239,261,61441,1,2,0:2:0:0:
170,337,61615,1,10,0:2:0:0:
111,252,61790,6,0,P|133:219|136:181,1,77.52,2|0,0:2|1:2,0:2:0:0:
55,132,62139,2,0,P|33:100|29:62,1,77.52,2|8,0:2|0:2,0:2:0:0:
101,3,62487,2,0,P|139:13|177:21,1,77.52,2|0,0:2|1:2,0:2:0:0:
243,90,62836,1,2,0:2:0:0:
243,90,63011,2,0,P|281:80|319:72,1,77.52,8|0,0:2|1:2,0:0:0:0:
424,52,63360,6,0,P|401:112|384:171,1,116.28,14|0,0:2|0:2,0:2:0:0:
372,193,63708,1,10,1:2:0:0:
456,266,63883,2,0,P|417:269|386:291,1,77.52,2|8,0:2|1:2,0:2:0:0:
312,364,64232,1,2,0:2:0:0:
251,280,64406,1,8,0:2:0:0:
251,280,64493,1,8,0:2:0:0:
251,280,64580,2,0,L|259:241,1,38.76,10|8,0:2|0:2,0:2:0:0:
270,198,64755,6,0,P|232:189|194:180,1,77.52,0|12,1:2|0:2,0:0:0:0:
119,103,65104,2,0,P|157:94|195:85,1,77.52,12|2,0:2|1:2,0:0:0:0:
262,10,65453,1,14,0:2:0:0:
323,93,65627,1,12,0:2:0:0:
420,47,65801,2,0,P|426:67|431:85,3,38.7600002365723,0|0|8|8,1:2|1:2|0:2|0:2,0:0:0:0:
440,123,66150,6,0,P|364:115|304:160,1,155.04,6|8,1:2|0:2,0:2:0:0:
245,253,66674,1,2,0:2:0:0:
351,322,66848,2,0,P|342:284|333:246,1,77.52,0|0,1:2|1:2,0:0:0:0:
258,353,67197,2,0,P|220:344|182:335,1,77.52,10|0,0:2|0:0,0:2:0:0:
52,361,67546,6,0,P|75:301|92:242,1,116.28,2|0,1:2|0:0,0:2:0:0:
120,231,67894,2,0,P|97:171|80:112,1,116.28,10|0,0:2|1:2,0:2:0:0:
69,90,68243,1,2,1:2:0:0:
138,21,68418,1,0,1:2:0:0:
213,95,68592,1,10,0:2:0:0:
298,23,68767,6,0,P|302:62|324:93,1,77.52,6|0,1:2|0:2,0:2:0:0:
392,150,69115,2,0,P|391:227|348:289,1,155.04,2|0,1:2|1:2,0:0:0:0:
244,275,69639,1,2,1:2:0:0:
244,275,69813,1,2,1:2:0:0:
185,352,69987,1,8,0:2:0:0:
105,293,70162,6,0,P|96:255|87:217,1,77.52,6|0,1:2|0:2,0:2:0:0:
0,163,70511,1,2,1:2:0:0:
81,99,70685,1,10,0:2:0:0:
2,47,70860,2,0,P|62:2|138:7,1,155.04,6|0,1:2|1:2,0:2:0:0:
194,84,71383,1,10,0:2:0:0:
275,13,71557,1,2,1:2:0:0:
275,13,71644,1,8,0:2:0:0:
275,13,71732,6,0,P|284:51|293:89,1,77.52,4|2,1:2|0:2,0:0:0:0:
398,69,72080,2,0,P|389:107|380:145,1,77.52,10|2,0:2|0:2,0:0:0:0:
309,215,72429,1,2,1:2:0:0:
309,215,72604,1,2,0:2:0:0:
382,290,72778,1,10,0:2:0:0:
302,345,72953,6,0,P|271:323|233:319,1,77.52,2|0,0:2|1:2,0:2:0:0:
159,258,73301,1,2,0:2:0:0:
159,258,73476,2,0,P|128:279|90:283,1,77.52,10|0,0:2|0:2,0:2:0:0:
14,209,73825,2,0,P|23:171|32:133,1,77.52,2|0,1:2|0:2,0:0:0:0:
116,54,74174,2,0,P|125:92|134:130,1,77.52,10|0,0:2|1:2,0:0:0:0:
212,188,74522,6,0,P|256:152|313:146,1,116.28,4|0,1:2|0:0,0:0:0:0:
343,154,74871,1,10,0:2:0:0:
417,215,75046,1,2,0:2:0:0:
475,139,75220,2,0,P|466:101|457:63,1,77.52,2|2,1:2|0:2,0:0:0:0:
378,1,75569,1,10,0:2:0:0:
312,66,75743,6,0,P|281:44|243:40,1,77.52,2|0,0:2|1:2,0:2:0:0:
144,10,76092,1,2,0:2:0:0:
144,10,76267,2,0,P|113:32|75:36,1,77.52,10|0,0:2|0:2,0:2:0:0:
2,98,76615,1,2,1:2:0:0:
91,140,76790,2,0,P|100:178|109:216,1,77.52,2|8,0:2|0:2,0:0:0:0:
17,217,77139,1,0,1:2:0:0:
17,217,77226,1,8,0:2:0:0:
17,217,77313,6,0,P|8:255|-1:293,1,77.52,6|0,1:2|0:0,0:2:0:0:
56,370,77662,1,10,0:2:0:0:
138,311,77836,2,0,P|169:333|207:337,1,77.52,6|0,1:2|0:2,0:2:0:0:
278,280,78185,2,0,P|309:258|347:254,1,77.52,6|8,1:2|0:2,0:0:0:0:
432,310,78534,1,6,1:2:0:0:
432,310,78883,6,0,P|441:272|450:234,1,77.52,0|0,1:2|1:2,0:0:0:0:
503,157,79232,2,0,P|494:119|485:81,1,77.52,8|8,1:2|1:2,0:0:0:0:
407,1,79580,1,8,0:2:0:0:
407,1,79755,1,8,0:2:0:0:
335,87,79929,1,8,0:2:0:0:
253,14,80104,5,8,0:2:0:0:
110,302,81325,5,0,1:2:0:0:
110,302,81412,1,8,0:2:0:0:
110,302,81499,2,0,P|102:267|94:230,1,69.92,6|0,1:2|0:2,0:2:0:0:
20,184,81848,2,0,P|27:149|35:112,1,69.92,2|0,1:2|0:2,0:2:0:0:
97,49,82197,2,0,P|130:87|181:90,1,104.88,2|0,1:2|0:0,0:2:0:0:
209,58,82546,6,0,P|233:38|274:28,1,69.92,2|2,1:2|0:2,0:0:0:0:
333,152,82894,2,0,P|303:140|274:110,1,69.92,2|0,1:2|0:2,0:2:0:0:
362,0,83243,2,0,P|366:30|354:71,1,69.92,2|0,1:2|0:2,0:2:0:0:
276,113,83592,2,0,P|283:147|291:184,1,69.92,2|0,1:2|0:0,0:2:0:0:
368,242,83941,1,2,1:2:0:0:
291,311,84115,1,10,0:2:0:0:
369,373,84290,6,0,P|403:365|440:357,1,69.92,2|0,1:2|1:2,0:0:0:0:
512,277,84639,2,0,P|477:269|443:262,1,69.92,2|0,1:2|1:2,0:0:0:0:
345,186,84987,2,0,P|379:178|413:171,1,69.92,10|8,1:2|1:2,0:0:0:0:
496,105,85336,1,10,1:2:0:0:
496,105,85511,1,8,1:2:0:0:
310,44,85860,5,8,1:2:0:0:
360,117,86034,2,0,P|352:151|344:185,1,69.92,10|0,1:2|1:2,0:0:0:0:
416,253,86383,1,10,0:2:0:0:
347,327,86557,2,0,P|314:312|280:311,1,69.92,10|0,0:2|1:2,0:0:0:0:
214,367,86906,1,10,0:2:0:0:
122,284,87080,5,10,0:2:0:0:
51,384,87255,2,0,P|29:288|8:200,1,188.48,4|0,1:2|0:0,0:2:0:0:
