osu file format v14

[General]
AudioFilename: audio.mp3
AudioLeadIn: 0
PreviewTime: 63962
Countdown: 0
SampleSet: Soft
StackLeniency: 0.7
Mode: 0
LetterboxInBreaks: 0
WidescreenStoryboard: 1

[Editor]
DistanceSpacing: 1.3
BeatDivisor: 4
GridSize: 16
TimelineZoom: 1.8

[Metadata]
Title:Open your eyes
TitleUnicode:Open your eyes
Artist:Asaka
ArtistUnicode:亜咲花
Creator:Karen
Version:Hard
Source:Occultic;Nine
Tags:オカルティック・ナイン tv size ending 志倉千代丸 Shikura Chiyomaru Meg iMage-- Kinomi Tsukuyomi Doormat
BeatmapID:1234297
BeatmapSetID:580663

[Difficulty]
HPDrainRate:5
CircleSize:3.5
OverallDifficulty:6
ApproachRate:7
SliderMultiplier:1.5
SliderTickRate:1

[Events]
//Background and Video events
0,0,"BG.jpg",0,0
//Break Periods
//Storyboard Layer 0 (Background)
//Storyboard Layer 1 (Fail)
//Storyboard Layer 2 (Pass)
//Storyboard Layer 3 (Foreground)
//Storyboard Sound Samples

[TimingPoints]
144,461.538461538462,4,2,1,35,1,0
2913,-100,4,2,1,5,0,0
3836,-117.647058823529,4,2,1,45,0,0
11221,-117.647058823529,4,2,1,55,0,0
16297,-117.647058823529,4,2,1,55,0,0
16759,-117.647058823529,4,2,1,65,0,0
18374,-117.647058823529,4,2,1,55,0,0
18605,-100,4,2,1,55,0,0
18606,-100,4,2,1,75,0,0
33374,-117.647058823529,4,2,1,45,0,0
39374,-117.647058823529,4,2,1,25,0,0
39836,-117.647058823529,4,2,1,45,0,0
46759,-117.647058823529,4,2,1,25,0,0
47220,-117.647058823529,4,2,1,45,0,0
55529,-117.647058823529,4,2,2,55,0,0
57374,-117.647058823529,4,2,2,65,0,0
61528,-117.647058823529,4,2,1,55,0,0
61990,-117.647058823529,4,2,1,65,0,0
62451,-117.647058823529,4,2,1,75,0,0
62913,-117.647058823529,4,2,1,65,0,0
64297,-117.647058823529,4,2,1,5,0,0
64759,-95.238095238095,4,2,1,5,0,1
64760,-95.238095238095,4,2,1,75,0,1
79067,-95.2380952380954,4,2,1,75,0,0
79528,-95.2380952380954,4,2,2,65,0,0
83220,-95.2380952380954,4,2,1,65,0,0
85990,-95.2380952380954,4,2,1,45,0,0
86451,-95.2380952380954,4,2,1,55,0,0
86682,-95.2380952380954,4,2,1,75,0,0
86913,-95.2380952380954,4,2,1,75,0,1
94297,-95.2380952380954,4,2,1,65,0,0
97528,-95.2380952380954,4,2,1,65,0,0
97990,-95.2380952380954,4,2,1,35,0,0

[Colours]
Combo1 : 203,151,255
Combo2 : 255,255,89
Combo3 : 255,179,102

[HitObjects]
192,176,144,5,2,0:0:0:0:
256,192,259,12,0,2913,0:0:0:0:
121,111,3836,6,0,P|171:126|203:191,1,127.50000243187,4|0,0:0|0:0,0:0:0:0:
176,281,4528,1,2,0:0:0:0:
176,281,4990,1,0,0:0:0:0:
244,346,5220,2,0,P|278:338|321:339,1,63.7500012159348,8|0,0:3|0:0,0:0:0:0:
373,267,5682,6,0,P|352:208|381:131,1,127.50000243187,2|0,0:0|0:0,0:0:0:0:
440,84,6374,1,2,0:0:0:0:
440,84,6836,1,0,0:0:0:0:
359,32,7067,2,0,P|323:38|288:38,1,63.7500012159348,8|0,0:3|0:0,0:0:0:0:
203,12,7528,6,0,L|213:148,1,127.50000243187,2|0,0:0|0:0,0:0:0:0:
133,193,8220,1,2,0:0:0:0:
133,193,8682,1,0,0:0:0:0:
177,277,8913,2,0,L|259:255,1,63.7500012159348,8|0,0:3|0:0,0:0:0:0:
327,295,9374,6,0,L|318:362,1,63.7500012159348,2|0,0:0|0:0,0:0:0:0:
431,319,9836,2,0,L|417:242,1,63.7500012159348,0|2,0:0|0:0,0:0:0:0:
387,165,10297,1,0,0:0:0:0:
437,83,10528,2,0,P|470:69|501:71,2,63.7500012159348,2|2|2,0:0|0:0|0:0,0:0:0:0:
292,147,11220,6,0,P|235:177|149:161,2,127.50000243187,4|0|0,3:2|3:0|3:0,0:0:0:0:
219,84,12374,1,0,0:0:0:0:
219,84,12490,1,0,0:0:0:0:
219,84,12605,2,0,L|221:10,1,63.7500012159348,0|0,3:0|0:0,0:0:0:0:
79,104,13067,6,0,L|88:246,2,127.50000243187,0|0|0,3:0|3:0|3:0,0:0:0:0:
192,201,14220,1,0,0:0:0:0:
192,201,14336,1,0,0:0:0:0:
192,201,14451,2,0,L|181:277,1,63.7500012159348,0|0,3:0|0:0,0:0:0:0:
106,322,14913,6,0,P|49:311|-16:368,2,127.50000243187,0|0|0,3:0|3:0|3:0,0:0:0:0:
196,379,16067,1,0,1:0:0:0:
196,379,16182,1,0,1:0:0:0:
196,379,16297,2,0,L|271:362,1,63.7500012159348,0|0,1:0|1:0,0:0:0:0:
389,368,16759,6,0,P|459:289|356:266,1,255.000004863739,4|4,3:2|1:2,0:0:0:0:
261,252,17913,1,0,1:0:0:0:
261,252,18144,2,0,L|272:206,3,31.8750006079674,0|0|0|0,3:0|3:0|3:0|3:0,0:0:0:0:
229,191,18605,6,0,P|218:110|253:43,1,150,6|14,1:0|1:0,0:0:0:0:
336,12,19297,1,0,0:0:0:0:
417,65,19528,2,0,L|503:49,1,75,2|2,1:1|0:1,0:0:0:0:
477,148,19990,1,10,1:1:0:0:
487,244,20220,6,0,L|401:228,1,75,2|0,0:1|1:0,0:0:0:0:
491,342,20682,2,0,L|405:326,1,75,2|8,0:1|1:0,0:0:0:0:
321,266,21144,1,2,0:1:0:0:
321,266,21259,1,0,0:0:0:0:
321,266,21374,2,0,P|325:310|320:347,1,75,2|2,1:1|0:1,0:0:0:0:
227,368,21836,1,10,1:1:0:0:
227,368,22067,1,2,0:0:0:0:
125,298,22297,6,0,L|134:139,1,150,6|14,1:0|1:0,0:0:0:0:
97,56,22990,1,0,0:0:0:0:
44,189,23220,2,0,L|40:273,1,75,2|2,1:0|0:1,0:0:0:0:
129,225,23682,1,10,1:0:0:0:
217,266,23913,6,0,L|220:191,1,75,2|0,0:1|1:0,0:0:0:0:
282,115,24374,1,2,1:0:0:0:
282,115,24490,1,0,0:0:0:0:
282,115,24605,2,0,P|319:123|379:106,1,75,10|2,1:0|0:1,0:0:0:0:
444,158,25067,1,2,1:0:0:0:
430,254,25297,1,2,0:0:0:0:
444,158,25528,2,0,L|450:60,1,75,2|2,1:0|1:2,0:0:0:0:
322,25,25990,6,0,L|157:36,1,150,6|14,1:0|1:0,0:0:0:0:
139,126,26682,1,0,0:0:0:0:
48,89,26913,2,0,L|53:176,1,75,2|2,1:0|0:1,0:0:0:0:
127,225,27374,1,10,1:1:0:0:
218,191,27605,6,0,P|260:186|298:195,1,75,2|0,0:1|1:0,0:0:0:0:
320,98,28067,2,0,P|357:116|384:161,1,75,2|8,0:1|1:1,0:0:0:0:
355,281,28528,1,2,0:1:0:0:
355,281,28644,1,0,0:0:0:0:
355,281,28759,2,0,L|361:370,1,75,2|2,1:1|0:1,0:0:0:0:
447,313,29220,1,10,1:1:0:0:
447,313,29451,1,2,0:0:0:0:
421,203,29682,6,0,P|355:227|280:200,1,150,6|6,1:0|1:0,0:0:0:0:
202,258,30374,1,0,1:0:0:0:
121,203,30605,2,0,L|34:199,1,75,2|2,1:1|1:0,0:0:0:0:
11,291,31067,1,2,1:0:0:0:
113,382,31297,6,0,L|109:292,1,75,2|0,1:0|1:0,0:0:0:0:
210,267,31759,1,2,1:0:0:0:
210,267,31874,1,0,0:0:0:0:
210,267,31990,2,0,P|261:272|290:260,1,75,2|2,1:0|1:0,0:0:0:0:
365,213,32451,1,2,1:0:0:0:
456,247,32682,1,0,1:0:0:0:
365,213,32913,2,0,L|359:169,3,37.5,0|0|0|0,1:0|1:0|1:0|1:0,0:0:0:0:
367,130,33374,6,0,P|420:97|498:119,1,127.50000243187,4|0,3:2|3:3,0:0:0:0:
336,24,34297,2,0,P|283:57|203:39,1,127.50000243187,0|0,3:0|3:0,0:0:0:0:
56,71,35220,6,0,L|64:205,1,127.50000243187,0|0,3:0|3:0,0:0:0:0:
202,290,36144,2,0,L|194:162,1,127.50000243187,0|0,3:0|3:0,0:0:0:0:
265,105,36836,1,0,3:0:0:0:
265,105,37067,6,0,B|344:91|344:91|394:129,1,127.50000243187,0|0,3:0|3:0,0:0:0:0:
430,278,37990,2,0,B|351:292|351:292|301:254,1,127.50000243187,0|0,3:0|3:0,0:0:0:0:
158,202,38913,6,2,B|131:265|160:325|160:325|101:305|33:340,1,255.000004863739,2|4,1:0|3:2,1:0:0:0:
5,245,40067,1,0,3:0:0:0:
5,245,40297,1,4,3:2:0:0:
81,150,40528,1,0,3:0:0:0:
81,150,40644,1,0,3:0:0:0:
81,150,40759,6,0,P|136:167|206:146,1,127.50000243187,4|8,3:2|0:0,0:0:0:0:
318,30,41682,2,0,P|378:11|438:28,1,127.50000243187,0|8,3:0|0:0,0:0:0:0:
382,184,42605,6,0,L|398:331,1,127.50000243187,0|8,3:0|0:0,0:0:0:0:
234,348,43528,2,0,L|220:221,1,127.50000243187,0|8,3:0|0:0,0:0:0:0:
274,140,44220,1,0,0:0:0:0:
274,140,44451,6,0,P|208:126|144:162,1,127.50000243187,0|8,3:0|0:0,0:0:0:0:
26,254,45374,2,0,L|21:118,1,127.50000243187,0|8,3:0|0:0,0:0:0:0:
71,45,46067,1,0,1:0:0:0:
71,45,46182,1,0,1:0:0:0:
71,45,46297,6,2,B|159:58|159:58|234:29|234:29|327:46,1,255.000004863739,2|0,1:0|3:0,1:0:0:0:
361,135,47451,1,0,3:0:0:0:
361,135,47682,1,0,3:0:0:0:
292,208,47913,1,0,3:0:0:0:
292,208,48028,1,0,3:0:0:0:
292,208,48144,6,0,P|279:264|313:348,1,127.50000243187,4|2,0:0|1:2,0:0:0:0:
133,233,49067,2,0,L|123:125,2,95.6250018239022,2|0|2,3:2|0:0|0:0,0:0:0:0:
77,310,49990,5,0,3:0:0:0:
77,310,50451,2,0,P|101:319|160:322,1,63.7500012159348,2|0,1:2|0:0,0:0:0:0:
217,268,50913,2,0,P|267:249|327:273,2,95.6250018239022,2|2|2,1:2|0:0|3:2,0:0:0:0:
133,233,51836,6,0,P|151:189|136:124,1,95.6250018239022,0|0,3:0|0:0,0:0:0:0:
122,100,52297,2,0,L|240:89,1,95.6250018239022,2|0,1:2|0:0,0:0:0:0:
255,62,52759,2,0,P|299:44|357:57,2,95.6250018239022,2|2|2,1:2|0:0|0:0,0:0:0:0:
310,140,53682,6,0,B|297:225|297:225|313:284,1,127.50000243187,0|2,3:0|1:2,0:0:0:0:
469,363,54605,2,0,P|418:349|359:361,2,95.6250018239022,8|8|0,0:0|0:0|1:0,0:0:0:0:
424,250,55528,6,0,L|422:102,1,127.50000243187,12|8,1:2|1:2,0:0:0:0:
252,33,56451,2,0,L|253:160,1,127.50000243187,8|8,1:2|1:2,0:0:0:0:
209,245,57144,1,0,0:0:0:0:
209,245,57374,6,0,P|141:262|81:242,1,127.50000243187,8|8,1:0|1:0,0:0:0:0:
37,61,58297,2,0,P|105:44|165:64,1,127.50000243187,8|0,1:0|1:0,0:0:0:0:
212,139,58990,1,0,1:0:0:0:
212,139,59220,6,0,B|332:129,1,95.6250018239022,8|0,1:2|1:0,0:0:0:0:
324,86,59682,2,0,B|444:76,1,95.6250018239022,8|0,1:2|1:0,0:0:0:0:
456,107,60144,2,0,P|470:151|457:214,1,95.6250018239022,8|0,1:2|1:0,0:0:0:0:
426,229,60605,2,0,L|372:236,3,31.8750006079674,8|0|0|0,1:2|0:0|1:0|0:0,0:0:0:0:
352,210,61067,6,0,L|361:356,3,127.50000243187,2|2|2|2,0:0|0:0|0:0|0:0,0:0:0:0:
169,359,62913,2,0,L|88:329,1,63.7500012159348,2|2,0:1|0:1,0:0:0:0:
256,192,63259,12,0,64297,0:0:0:0:
132,94,64759,6,0,P|207:56|290:80,1,157.499995193482,4|8,1:2|0:0,0:0:0:0:
304,180,65451,1,4,0:3:0:0:
304,180,65567,1,0,0:0:0:0:
304,180,65682,2,0,L|309:267,1,78.7499975967408,0|4,1:0|0:3,0:0:0:0:
385,326,66144,1,0,1:0:0:0:
481,291,66374,1,4,0:3:0:0:
427,203,66605,6,0,P|412:143|465:62,1,157.499995193482,4|8,1:0|0:0,0:0:0:0:
372,30,67297,1,4,0:3:0:0:
372,30,67413,1,0,0:0:0:0:
372,30,67528,2,0,L|270:38,1,78.7499975967408,0|4,1:0|0:3,0:0:0:0:
192,17,67990,1,8,0:0:0:0:
192,17,68220,1,4,0:3:0:0:
106,111,68451,6,0,P|173:110|235:175,1,157.499995193482,4|8,1:0|0:0,0:0:0:0:
146,216,69144,1,4,0:3:0:0:
146,216,69259,1,0,0:0:0:0:
146,216,69374,2,0,L|151:303,1,78.7499975967408,0|4,1:0|0:3,0:0:0:0:
43,350,69836,2,0,L|54:259,1,78.7499975967408,8|4,0:0|0:3,0:0:0:0:
106,111,70297,6,0,P|186:120|253:61,2,157.499995193482,4|8|0,1:0|0:0|1:0,0:0:0:0:
158,22,71451,1,4,0:3:0:0:
190,166,71682,2,0,L|199:257,1,78.7499975967408,8|0,0:0|1:0,0:0:0:0:
303,314,72144,6,0,P|289:238|327:141,1,157.499995193482,4|8,1:2|0:0,0:0:0:0:
401,113,72836,1,4,0:3:0:0:
401,113,72951,1,0,0:0:0:0:
401,113,73067,2,0,P|439:127|483:130,1,78.7499975967408,0|4,1:0|0:3,0:0:0:0:
468,233,73528,2,0,P|422:233|376:254,1,78.7499975967408,8|4,0:0|0:3,0:0:0:0:
311,162,73990,6,0,B|307:60|307:60|342:14,1,157.499995193482,4|8,1:0|0:0,0:0:0:0:
220,33,74682,1,4,0:3:0:0:
220,33,74797,1,0,0:0:0:0:
220,33,74913,2,0,L|224:120,1,78.7499975967408,0|4,1:0|0:3,0:0:0:0:
179,204,75374,1,8,0:0:0:0:
179,204,75605,1,4,0:3:0:0:
244,282,75836,6,0,P|303:253|393:293,1,157.499995193482,4|8,1:0|0:0,0:0:0:0:
483,256,76528,1,4,0:3:0:0:
483,256,76644,1,0,0:0:0:0:
483,256,76759,2,0,L|472:354,1,78.7499975967408,0|4,1:0|0:3,0:0:0:0:
408,191,77220,2,0,L|399:96,1,78.7499975967408,8|4,0:0|0:3,0:0:0:0:
444,19,77682,6,0,P|393:11|337:28,1,78.7499975967408,4|4,1:0|0:3,0:0:0:0:
291,85,78144,2,0,P|252:90|213:83,1,78.7499975967408,12|4,1:0|0:3,0:0:0:0:
137,14,78605,1,4,1:0:0:0:
37,38,78836,1,0,1:0:0:0:
25,139,79067,2,0,L|28:191,3,39.3749987983704,0|0|0|0,1:0|1:0|3:0|3:0,0:0:0:0:
64,213,79528,6,0,P|74:252|65:298,1,78.7499975967408,12|0,1:2|0:3,0:0:0:0:
3,369,79990,1,8,1:2:0:0:
207,370,80451,2,0,P|197:331|206:285,1,78.7499975967408,8|0,1:2|0:0,0:0:0:0:
268,214,80913,1,8,1:2:0:0:
213,16,81374,6,0,L|131:26,1,78.7499975967408,8|0,1:2|0:0,0:0:0:0:
66,102,81836,1,8,1:2:0:0:
270,109,82297,2,0,L|352:99,1,78.7499975967408,8|0,1:2|0:0,0:0:0:0:
417,26,82759,1,8,1:2:0:0:
496,103,82990,1,0,1:0:0:0:
496,103,83105,1,0,1:0:0:0:
496,103,83220,6,0,B|484:202|484:202|504:260,1,157.499995193482,4|8,1:2|0:0,0:0:0:0:
469,354,83913,1,0,0:0:0:0:
469,354,84144,2,0,L|364:347,1,78.7499975967408,0|0,1:0|0:0,0:0:0:0:
370,248,84605,2,0,L|279:267,1,78.7499975967408,8|0,0:0|0:0,0:0:0:0:
216,333,85067,6,0,P|240:257|203:172,1,157.499995193482,0|8,1:0|1:2,0:0:0:0:
239,92,85759,1,0,1:0:0:0:
239,92,85874,1,0,1:0:0:0:
239,92,85990,2,0,P|285:112|322:114,1,78.7499975967408,0|0,1:1|1:0,0:0:0:0:
351,209,86451,2,0,L|344:255,3,39.3749987983704,0|0|0|0,1:0|1:0|1:2|1:2,0:0:0:0:
301,275,86913,6,0,P|253:251|152:287,1,157.499995193482,4|8,1:2|0:0,0:0:0:0:
68,329,87605,1,4,0:3:0:0:
68,329,87720,1,0,0:0:0:0:
68,329,87836,2,0,L|60:245,1,78.7499975967408,0|4,1:0|0:3,0:0:0:0:
146,110,88297,2,0,L|135:203,1,78.7499975967408,8|4,0:0|0:3,0:0:0:0:
63,60,88759,6,0,P|115:16|212:37,1,157.499995193482,4|8,1:0|0:0,0:0:0:0:
266,112,89451,1,4,0:3:0:0:
266,112,89567,1,0,0:0:0:0:
266,112,89682,2,0,L|356:105,1,78.7499975967408,0|4,1:0|0:3,0:0:0:0:
436,60,90144,1,8,0:0:0:0:
503,136,90374,1,4,0:3:0:0:
424,201,90605,6,0,P|405:275|445:355,1,157.499995193482,4|8,1:0|0:0,0:0:0:0:
340,356,91297,1,4,0:3:0:0:
340,356,91413,1,0,0:0:0:0:
340,356,91528,2,0,L|252:352,1,78.7499975967408,0|4,1:0|0:3,0:0:0:0:
182,286,91990,1,8,0:0:0:0:
167,184,92220,1,4,0:3:0:0:
233,105,92451,6,0,L|340:107,1,78.7499975967408,4|4,1:0|0:3,0:0:0:0:
364,17,92913,2,0,L|285:15,1,78.7499975967408,12|4,1:0|0:3,0:0:0:0:
136,101,93374,2,0,L|142:191,1,78.7499975967408,4|4,1:0|0:3,0:0:0:0:
43,147,93836,2,0,L|37:68,1,78.7499975967408,8|4,0:0|0:3,0:0:0:0:
187,14,94297,5,4,1:2:0:0:
187,14,94528,1,0,0:0:0:0:
241,100,94759,2,0,P|281:108|334:97,1,78.7499975967408,0|2,1:0|0:0,0:0:0:0:
414,68,95220,1,0,1:0:0:0:
414,68,95451,1,2,0:0:0:0:
392,168,95682,1,0,1:0:0:0:
392,168,95913,1,2,0:0:0:0:
426,264,96144,6,0,P|385:256|333:271,1,78.7499975967408,0|0,1:0|1:0,0:0:0:0:
273,331,96605,1,0,1:0:0:0:
273,331,96836,1,0,1:0:0:0:
184,278,97067,1,0,1:0:0:0:
184,278,97297,1,0,1:0:0:0:
91,321,97528,2,0,L|81:268,3,39.3749987983704,0|0|0|0,1:0|1:0|1:0|1:0,0:0:0:0:
98,233,97990,5,0,0:0:0:0:
