osu file format v14

[General]
AudioFilename: audio.mp3
AudioLeadIn: 0
PreviewTime: 63962
Countdown: 0
SampleSet: Soft
StackLeniency: 0.7
Mode: 0
LetterboxInBreaks: 0
WidescreenStoryboard: 1

[Editor]
DistanceSpacing: 1
BeatDivisor: 4
GridSize: 16
TimelineZoom: 1.8

[Metadata]
Title:Open your eyes
TitleUnicode:Open your eyes
Artist:Asaka
ArtistUnicode:亜咲花
Creator:Karen
Version:Easy
Source:Occultic;Nine
Tags:オカルティック・ナイン tv size ending 志倉千代丸 Shikura Chiyomaru Meg iMage-- Kinomi Tsukuyomi Doormat
BeatmapID:1234296
BeatmapSetID:580663

[Difficulty]
HPDrainRate:2
CircleSize:3
OverallDifficulty:2
ApproachRate:3
SliderMultiplier:0.9
SliderTickRate:1

[Events]
//Background and Video events
0,0,"BG.jpg",0,0
//Break Periods
//Storyboard Layer 0 (Background)
//Storyboard Layer 1 (Fail)
//Storyboard Layer 2 (Pass)
//Storyboard Layer 3 (Foreground)
//Storyboard Sound Samples

[TimingPoints]
144,461.538461538462,4,2,1,35,1,0
1990,-100,4,2,1,5,0,0
3837,-100,4,2,1,45,0,0
11221,-100,4,2,1,55,0,0
16759,-100,4,2,1,65,0,0
18606,-100,4,2,1,75,0,0
32913,-100,4,2,1,75,0,0
33375,-100,4,2,1,45,0,0
39374,-100,4,2,1,25,0,0
39836,-100,4,2,1,45,0,0
46759,-100,4,2,1,25,0,0
47220,-100,4,2,1,45,0,0
55529,-100,4,2,2,55,0,0
57374,-100,4,2,2,65,0,0
58759,-100,4,2,2,65,0,0
61067,-100,4,2,1,45,0,0
61528,-100,4,2,1,55,0,0
61990,-100,4,2,1,65,0,0
62451,-100,4,2,1,75,0,0
62913,-100,4,2,1,65,0,0
64759,-100,4,2,1,75,0,1
79528,-100,4,2,2,65,0,0
83220,-100,4,2,1,65,0,0
86451,-100,4,2,1,55,0,0
86913,-100,4,2,1,75,0,1
94297,-100,4,2,1,65,0,0
97990,-100,4,2,1,35,0,0

[Colours]
Combo1 : 203,151,255
Combo2 : 255,255,89
Combo3 : 255,179,102

[HitObjects]
256,192,144,12,0,1990,0:0:0:0:
323,206,3836,6,0,P|372:207|435:275,2,135,4|2|8,0:0|0:0|0:3,0:0:0:0:
235,235,5682,2,0,L|94:251,2,135,2|2|8,0:0|0:0|0:3,0:0:0:0:
323,206,7528,2,0,P|340:140|316:69,2,135,2|2|8,0:0|0:0|0:3,0:0:0:0:
235,235,9374,2,0,L|245:376,2,135,2|2|2,0:0|0:0|0:0,0:0:0:0:
188,155,11220,6,0,P|182:109|198:58,1,90,4|0,3:2|3:0,3:2:0:0:
265,13,12144,1,0,3:0:0:0:
338,64,12605,1,0,3:0:0:0:
417,22,13067,2,0,P|456:16|517:33,2,90,0|0|0,3:0|3:0|3:0,3:0:0:0:
338,64,14451,1,0,3:0:0:0:
382,142,14913,6,0,L|390:240,1,90,0|0,3:0|3:0,0:0:0:0:
478,243,15836,2,0,L|466:353,1,90,0|0,3:0|1:0,0:0:0:0:
381,357,16759,2,0,P|305:311|212:348,1,180,4|4,3:2|1:2,0:0:0:0:
160,271,18144,1,0,3:0:0:0:
75,300,18605,6,0,L|73:198,1,90,6|14,1:0|1:0,1:0:0:0:
117,131,19528,2,0,P|123:73|63:12,2,135,2|2|8,1:1|0:1|1:0,1:1:0:0:
189,184,21374,2,0,L|299:176,1,90,2|10,1:1|1:1,1:1:0:0:
337,109,22297,6,0,P|334:63|358:15,1,90,6|14,1:0|1:0,1:0:0:0:
421,79,23220,2,0,L|419:218,2,135,2|2|10,1:0|0:1|1:0,1:0:0:0:
509,63,25067,2,0,L|506:157,1,90,2|2,1:0|1:0,0:0:0:0:
508,243,25990,6,0,P|499:297|512:342,1,90,6|14,1:0|1:0,1:0:0:0:
425,370,26913,2,0,L|283:364,2,135,2|2|8,1:0|0:1|1:1,1:0:0:0:
413,280,28759,2,0,L|310:276,1,90,2|10,1:1|1:1,1:1:0:0:
234,292,29682,6,0,P|195:311|135:306,1,90,6|6,1:0|1:0,1:0:0:0:
92,240,30605,2,0,P|62:295|75:366,2,135,2|2|2,1:1|1:0|1:0,1:1:0:0:
172,200,32451,1,2,1:0:0:0:
165,110,32913,1,0,1:0:0:0:
116,33,33374,6,0,P|160:19|215:30,1,90,4|0,3:2|3:3,0:0:0:0:
266,88,34297,2,0,P|310:93|352:79,1,90,0|0,3:0|3:0,0:0:0:0:
435,43,35220,2,0,L|431:147,1,90,0|0,3:0|3:0,3:0:0:0:
358,186,36144,1,0,3:0:0:0:
359,275,36605,1,0,3:0:0:0:
420,341,37067,6,0,P|382:360|323:356,1,90,0|0,3:0|3:0,0:0:0:0:
268,299,37990,2,0,L|263:196,1,90,0|0,3:0|3:0,0:0:0:0:
219,130,38913,2,2,B|131:95|128:177|35:130,1,180,6|4,1:2|3:2,1:0:0:0:
19,221,40297,1,4,3:2:0:0:
78,288,40759,6,0,P|89:328|81:379,2,90,4|8|0,3:2|0:0|3:0,0:0:0:0:
19,221,42144,1,8,0:0:0:0:
45,134,42605,2,0,L|52:34,1,90,0|8,3:0|0:0,3:0:0:0:
139,27,43528,2,0,L|132:116,1,90,0|8,3:0|0:0,0:0:0:0:
146,205,44451,6,0,P|188:222|246:215,1,90,0|8,3:0|0:0,0:0:0:0:
288,150,45374,2,0,P|332:147|373:164,1,90,0|8,3:0|0:0,0:0:0:0:
363,254,46297,2,2,P|361:331|455:346,1,180,2|0,1:2|3:0,1:0:0:0:
491,271,47682,1,0,3:0:0:0:
462,185,48144,6,0,L|467:88,1,90,4|2,0:0|1:2,0:0:0:0:
401,32,49067,2,0,P|341:14|259:47,1,135,2|2,3:2|0:0,3:2:0:0:
285,169,50451,1,2,1:2:0:0:
239,246,50913,2,0,P|175:266|111:248,1,135,2|2,1:2|3:2,1:2:0:0:
46,130,52297,5,2,1:2:0:0:
98,56,52759,2,0,L|234:48,1,135,2|2,1:2|0:0,1:2:0:0:
363,13,54144,1,2,1:2:0:0:
402,93,54605,2,0,P|371:167|418:264,1,180,8|12,0:0|1:2,0:0:0:0:
495,271,55990,5,8,1:2:0:0:
460,354,56451,2,0,L|365:348,1,90,8|8,1:2|1:2,1:2:0:0:
305,285,57374,2,0,P|317:228|306:178,2,90,8|8|8,1:0|1:0|1:0,1:0:0:0:
221,319,58759,1,0,1:0:0:0:
153,259,59220,2,0,L|63:260,1,90,8|8,1:2|1:2,1:2:0:0:
44,348,60144,2,0,L|134:347,1,90,8|8,1:2|1:2,1:2:0:0:
221,319,61067,2,0,B|286:246|169:138|248:48,1,270,2|2,0:0|0:0,0:0:0:0:
307,118,62913,2,0,L|369:123,1,45,2|2,0:1|0:1,0:0:0:0:
351,121,64759,6,0,B|399:168|399:168|388:293,1,180,4|0,1:2|1:0,1:2:0:0:
425,362,66144,1,8,0:0:0:0:
478,290,66605,2,0,L|488:195,1,90,4|8,1:0|0:0,1:0:0:0:
456,115,67528,1,0,1:0:0:0:
480,28,67990,1,8,0:0:0:0:
392,49,68451,6,0,P|310:72|215:35,1,180,4|0,1:0|1:0,1:0:0:0:
142,82,69836,1,8,0:0:0:0:
208,142,70297,2,0,L|220:247,1,90,4|8,1:0|0:0,1:0:0:0:
128,227,71220,2,0,L|110:318,1,90,0|8,1:0|0:0,1:0:0:0:
189,358,72144,6,0,B|257:366|257:366|300:346|300:346|373:358,1,180,4|0,1:2|1:0,1:2:0:0:
449,380,73528,1,8,0:0:0:0:
503,308,73990,2,0,P|513:264|499:204,1,90,4|8,1:0|0:0,1:0:0:0:
444,154,74913,1,0,1:0:0:0:
355,171,75374,1,8,0:0:0:0:
296,102,75836,6,0,P|265:177|325:260,1,180,4|0,1:0|1:0,1:0:0:0:
257,324,77220,1,8,0:0:0:0:
186,268,77682,2,0,L|90:263,1,90,4|12,1:0|1:0,0:0:0:0:
10,290,78605,2,0,L|6:186,1,90,4|0,1:0|1:0,1:0:0:0:
92,173,79528,6,0,P|100:125|84:77,1,90,12|8,1:2|1:2,1:2:0:0:
148,18,80451,2,0,L|246:24,1,90,8|8,1:2|1:2,1:2:0:0:
257,111,81374,2,0,L|355:117,1,90,8|8,1:2|1:2,1:2:0:0:
415,58,82297,1,8,1:2:0:0:
490,106,82759,1,8,1:2:0:0:
466,192,83220,6,0,L|460:296,1,90,4|8,1:2|0:0,1:2:0:0:
496,364,84144,2,0,P|448:370|398:344,1,90,0|8,1:0|0:0,1:0:0:0:
353,284,85067,2,0,L|252:297,2,90,0|8|0,1:0|1:2|1:1,1:0:0:0:
380,198,86451,1,0,1:0:0:0:
334,120,86913,6,0,P|252:107|190:189,1,180,4|0,1:2|1:0,1:2:0:0:
179,262,88297,1,8,0:0:0:0:
109,204,88759,2,0,L|105:102,1,90,4|8,1:0|0:0,1:0:0:0:
137,29,89682,1,0,1:0:0:0:
226,33,90144,1,8,0:0:0:0:
259,116,90605,6,0,P|332:148|436:106,1,180,4|0,1:0|1:0,1:0:0:0:
440,206,91990,1,8,0:0:0:0:
382,274,92451,2,0,L|394:371,1,90,4|12,1:0|1:0,0:0:0:0:
303,366,93374,2,0,L|291:276,1,90,4|8,1:0|0:0,0:0:0:0:
235,206,94297,6,0,P|184:195|110:237,1,135,4|2,1:2|0:0,1:2:0:0:
46,293,95451,2,0,P|28:220|62:152,2,135,2|0|0,0:0|1:0|1:0,0:0:0:0:
119,345,97297,2,0,L|255:327,1,135,0|0,1:0|0:0,0:0:0:0:
