osu file format v14

[General]
AudioFilename: audio.ogg
AudioLeadIn: 0
PreviewTime: 50594
Countdown: 0
SampleSet: Soft
StackLeniency: 0.7
Mode: 3
LetterboxInBreaks: 0
SpecialStyle: 0
WidescreenStoryboard: 0

[Editor]
DistanceSpacing: 1.5
BeatDivisor: 5
GridSize: 16
TimelineZoom: 1.7

[Metadata]
Title:Natsuyume Noisy (TV Size)
TitleUnicode:夏夢ノイジー (TV Size)
Artist:Asaka
ArtistUnicode:亜咲花
Creator:Kibitz
Version:Re : Easy
Source:サマータイムレンダ
Tags:yuiazu- yuiazu ml-ysg anime pop jpop j-pop japanese pop female vocals op 2 second opening 2nd Theme 志倉千代丸 悠木真一 USSW-0368 summertime render summer time rendering
BeatmapID:3881490
BeatmapSetID:1885178

[Difficulty]
HPDrainRate:7
CircleSize:4
OverallDifficulty:7
ApproachRate:5
SliderMultiplier:1.4
SliderTickRate:1

[Events]
//Background and Video events
Video,-300,"video.mp4"
0,0,"Summertime_BG.jpg",0,0
//Break Periods
//Storyboard Layer 0 (Background)
//Storyboard Layer 1 (Fail)
//Storyboard Layer 2 (Pass)
//Storyboard Layer 3 (Foreground)
//Storyboard Layer 4 (Overlay)
//Storyboard Sound Samples
Sample,36438,0,"soft-hitwhistle.wav",30
Sample,42532,0,"soft-hitfinish.wav",30
Sample,42813,0,"soft-hitfinish.wav",30
Sample,43001,0,"soft-hitwhistle.wav",30
Sample,49751,0,"Tom3.wav",40
Sample,72626,0,"Hat Open.wav",25
Sample,73188,0,"Hat Open.wav",25
Sample,74876,0,"Hat Open.wav",25
Sample,79938,0,"Snare.wav",20
Sample,80313,0,"Snare.wav",20
Sample,80688,0,"Snare.wav",20
Sample,81626,0,"Snare.wav",20
Sample,82001,0,"Snare.wav",20
Sample,82376,0,"Snare.wav",20
Sample,82751,0,"Snare.wav",20
Sample,83126,0,"Snare.wav",20
Sample,83501,0,"Snare.wav",20
Sample,83876,0,"Snare.wav",20

[TimingPoints]
251,375,4,2,1,60,1,0
13844,-100,4,2,1,30,0,0
25751,-100,4,2,1,60,0,0
51251,-100,4,2,1,60,0,1
75251,-100,4,2,1,60,0,0

[HitObjects]
64,192,251,5,6,0:0:0:0:
448,192,251,1,0,0:0:0:30:soft-hitclap.wav
320,192,626,1,0,0:0:0:0:
192,192,1001,1,0,0:0:0:0:
448,192,1376,1,0,0:0:0:0:
320,192,1563,1,0,0:0:0:0:
64,192,1751,1,6,0:0:0:0:
192,192,1751,1,0,0:0:0:30:soft-hitclap.wav
448,192,2126,1,0,0:0:0:0:
64,192,2501,1,0,0:0:0:0:
192,192,2876,1,0,0:0:0:0:
320,192,3063,1,0,0:0:0:30:soft-hitclap.wav
64,192,3251,1,6,0:0:0:0:
448,192,3251,1,0,0:0:0:30:soft-hitclap.wav
320,192,3626,1,2,0:0:0:0:
448,192,3626,1,8,0:0:0:0:
64,192,4001,1,2,0:0:0:0:
192,192,4188,1,0,0:0:0:25:Hat Open.wav
320,192,4376,1,2,0:0:0:0:
448,192,4376,1,8,0:0:0:0:
64,192,4751,1,2,0:0:0:0:
192,192,4751,1,0,0:0:0:0:
64,192,5126,1,2,0:0:0:0:
448,192,5126,1,8,0:0:0:0:
320,192,5501,1,2,0:0:0:0:
192,192,5688,1,0,0:0:0:25:Hat Open.wav
64,192,5876,1,2,0:0:0:0:
448,192,5876,1,8,0:0:0:0:
192,192,6251,1,2,0:0:0:0:
448,192,6251,1,0,0:0:0:0:
64,192,6626,1,2,0:0:0:0:
320,192,6626,1,8,0:0:0:0:
192,192,7001,1,2,0:0:0:0:
448,192,7188,1,0,0:0:0:25:Hat Open.wav
64,192,7376,1,2,0:0:0:0:
192,192,7376,1,8,0:0:0:0:
320,192,7751,1,2,0:0:0:0:
448,192,7751,1,0,0:0:0:0:
64,192,8126,1,8,0:0:0:0:
448,192,8126,1,2,0:0:0:0:
192,192,8501,1,2,0:0:0:0:
448,192,8688,1,0,0:0:0:25:Hat Open.wav
64,192,8876,1,8,0:0:0:0:
192,192,8876,1,2,0:0:0:0:
320,192,9251,1,2,0:0:0:0:
448,192,9251,1,4,0:0:0:0:
64,192,9626,1,2,0:0:0:0:
448,192,9626,1,8,0:0:0:0:
192,192,10001,1,2,0:0:0:0:
320,192,10188,1,0,0:0:0:25:Hat Open.wav
64,192,10376,1,2,0:0:0:0:
448,192,10376,1,8,0:0:0:0:
64,192,10751,1,2,0:0:0:0:
192,192,10751,1,0,0:0:0:0:
320,192,11126,1,2,0:0:0:0:
448,192,11126,1,8,0:0:0:0:
64,192,11501,1,2,0:0:0:0:
448,192,11688,1,0,0:0:0:25:Hat Open.wav
192,192,11876,1,10,0:0:0:0:
320,192,12063,1,0,0:0:0:25:Hat Open.wav
64,192,12251,1,2,0:0:0:0:
448,192,12251,128,4,13751:0:0:0:0:
64,192,13751,1,4,0:0:0:0:
192,192,13751,1,0,0:0:0:0:
320,192,14126,1,0,0:0:0:0:
192,192,14313,1,0,0:0:0:0:
448,192,14688,1,0,0:0:0:0:
192,192,14876,128,0,15251:0:0:0:0:
64,192,15251,1,0,0:0:0:0:
320,192,15626,1,0,0:0:0:0:
192,192,15813,1,0,0:0:0:0:
64,192,16188,1,0,0:0:0:0:
448,192,16376,128,0,16751:0:0:0:0:
320,192,16751,1,0,0:0:0:0:
192,192,17126,1,0,0:0:0:0:
320,192,17313,1,0,0:0:0:0:
192,192,17688,128,0,18251:0:0:0:0:
64,192,18251,1,0,0:0:0:0:
320,192,18626,1,0,0:0:0:0:
448,192,18813,1,0,0:0:0:0:
192,192,19188,1,0,0:0:0:0:
320,192,19376,128,0,19751:0:0:0:0:
448,192,19751,1,0,0:0:0:0:
64,192,20126,1,0,0:0:0:0:
192,192,20313,1,0,0:0:0:0:
320,192,20688,1,0,0:0:0:0:
448,192,20876,128,0,21251:0:0:0:0:
64,192,21251,1,0,0:0:0:0:
192,192,21626,1,0,0:0:0:0:
320,192,21813,128,0,22376:0:0:0:0:
64,192,22563,1,0,0:0:0:0:
448,192,22751,1,0,0:0:0:0:
192,192,23126,1,0,0:0:0:0:
320,192,23313,1,0,0:0:0:0:
64,192,23688,1,0,0:0:0:0:
448,192,23876,128,0,24251:0:0:0:0:
192,192,24251,1,0,0:0:0:0:
320,192,24626,1,0,0:0:0:0:
64,192,25001,1,0,0:0:0:0:
192,192,25376,128,0,25751:0:0:0:0:
320,192,25751,1,4,0:0:0:0:
448,192,25751,1,0,0:0:0:30:soft-hitwhistle.wav
64,192,26126,1,0,0:0:0:30:soft-hitwhistle.wav
192,192,26126,1,0,0:0:0:30:soft-hitclap.wav
448,192,26501,1,0,0:0:0:30:soft-hitwhistle.wav
320,192,26688,1,0,0:0:0:0:
64,192,26876,1,0,0:0:0:30:soft-hitwhistle.wav
192,192,26876,1,0,0:0:0:30:soft-hitclap.wav
320,192,27251,1,0,0:0:0:30:soft-hitwhistle.wav
448,192,27251,1,0,0:0:0:0:
64,192,27626,1,0,0:0:0:30:soft-hitwhistle.wav
448,192,27626,1,0,0:0:0:30:soft-hitclap.wav
192,192,28001,1,0,0:0:0:30:soft-hitwhistle.wav
320,192,28188,1,0,0:0:0:0:
64,192,28376,1,0,0:0:0:30:soft-hitwhistle.wav
448,192,28376,1,0,0:0:0:30:soft-hitclap.wav
192,192,28751,1,0,0:0:0:30:soft-hitwhistle.wav
320,192,28751,1,0,0:0:0:0:
64,192,29126,1,0,0:0:0:30:soft-hitwhistle.wav
320,192,29126,1,0,0:0:0:30:soft-hitclap.wav
192,192,29501,1,0,0:0:0:30:soft-hitwhistle.wav
448,192,29688,1,0,0:0:0:0:
64,192,29876,1,0,0:0:0:30:soft-hitwhistle.wav
192,192,29876,1,0,0:0:0:30:soft-hitclap.wav
320,192,30251,1,0,0:0:0:30:soft-hitwhistle.wav
448,192,30251,1,0,0:0:0:0:
192,192,30626,1,0,0:0:0:30:soft-hitwhistle.wav
448,192,30626,1,8,0:0:0:30:soft-hitclap.wav
64,192,31001,1,0,0:0:0:30:soft-hitwhistle.wav
192,192,31188,1,0,0:0:0:0:
320,192,31376,1,0,0:0:0:30:soft-hitwhistle.wav
448,192,31376,1,8,0:0:0:30:soft-hitclap.wav
64,192,31751,1,4,0:0:0:0:
448,192,31751,1,0,0:0:0:30:soft-hitwhistle.wav
320,192,32126,1,8,0:0:0:30:soft-hitclap.wav
64,192,32313,1,4,0:0:0:0:
192,192,32313,1,0,0:0:0:30:soft-hitwhistle.wav
448,192,32688,1,0,0:0:0:30:soft-hitwhistle.wav
192,192,32876,1,8,0:0:0:30:soft-hitclap.wav
320,192,33063,1,4,0:0:0:0:
448,192,33063,1,0,0:0:0:30:soft-hitwhistle.wav
64,192,33438,1,0,0:0:0:30:soft-hitwhistle.wav
448,192,33626,1,8,0:0:0:30:soft-hitclap.wav
192,192,33813,1,4,0:0:0:0:
320,192,33813,1,0,0:0:0:30:soft-hitwhistle.wav
448,192,34376,1,8,0:0:0:30:soft-hitclap.wav
64,192,34563,1,0,0:0:0:0:
320,192,34751,1,4,0:0:0:0:
448,192,34751,1,0,0:0:0:30:soft-hitwhistle.wav
320,192,35126,1,8,0:0:0:30:soft-hitclap.wav
64,192,35313,1,4,0:0:0:0:
448,192,35313,1,0,0:0:0:30:soft-hitwhistle.wav
192,192,35688,1,4,0:0:0:0:
448,192,35688,1,2,0:0:0:30:soft-hitwhistle.wav
64,192,36063,1,4,0:0:0:0:
320,192,36063,1,2,0:0:0:30:soft-hitwhistle.wav
192,192,36438,1,4,0:0:0:0:
320,192,36626,1,8,0:0:0:30:soft-hitclap.wav
64,192,36813,1,2,0:0:0:30:soft-hitwhistle.wav
448,192,36813,1,0,0:0:0:0:
320,192,37188,1,2,0:0:0:30:soft-hitwhistle.wav
64,192,37376,1,8,0:0:0:30:soft-hitclap.wav
192,192,37376,1,0,0:0:0:0:
320,192,37751,1,4,0:0:0:0:
448,192,37751,1,2,0:0:0:30:soft-hitwhistle.wav
448,192,38126,1,0,0:0:0:30:Ride.wav
64,192,38313,128,2,38688:0:0:0:30:soft-hitwhistle.wav
192,192,38688,128,0,39063:0:0:0:0:
320,192,39063,128,2,39438:0:0:0:30:soft-hitwhistle.wav
448,192,39438,128,2,40001:0:0:0:30:soft-hitwhistle.wav
64,192,40001,1,8,0:0:0:30:soft-hitclap.wav
192,192,40001,1,0,0:0:0:30:Ride.wav
448,192,40563,1,0,0:0:0:0:
192,192,40751,1,2,0:0:0:30:soft-hitwhistle.wav
320,192,40751,1,0,0:0:0:30:Ride.wav
64,192,41126,1,0,0:0:0:30:Ride.wav
320,192,41313,1,2,0:0:0:30:soft-hitwhistle.wav
448,192,41313,1,0,0:0:0:0:
192,192,41688,1,0,0:0:0:0:
320,192,42026,1,0,0:0:0:0:
64,192,42251,1,4,0:0:0:0:
448,192,42251,1,2,0:0:0:30:soft-hitwhistle.wav
64,192,42532,1,2,0:0:0:30:soft-hitwhistle.wav
320,192,42813,1,2,0:0:0:30:soft-hitwhistle.wav
192,192,43001,128,4,43376:0:0:0:0:
64,192,43376,1,8,0:0:0:30:soft-hitclap.wav
448,192,43376,1,0,0:0:0:0:
192,192,43751,1,6,0:0:0:0:
320,192,43938,1,2,0:0:0:0:
64,192,44126,1,8,0:0:0:0:
448,192,44126,1,0,0:0:0:0:
192,192,44501,1,2,0:0:0:0:
448,192,44688,1,2,0:0:0:0:
64,192,44876,1,8,0:0:0:0:
192,192,44876,1,0,0:0:0:0:
320,192,45251,1,6,0:0:0:0:
192,192,45438,1,2,0:0:0:0:
64,192,45626,1,8,0:0:0:0:
448,192,45626,1,0,0:0:0:0:
320,192,46001,1,2,0:0:0:0:
192,192,46188,1,2,0:0:0:0:
320,192,46376,1,8,0:0:0:0:
448,192,46376,1,0,0:0:0:0:
192,192,46751,1,6,0:0:0:0:
448,192,46938,1,2,0:0:0:0:
64,192,47126,128,8,47501:0:0:0:0:
192,192,47501,128,2,47876:0:0:0:0:
320,192,47876,128,8,48251:0:0:0:0:
64,192,48251,1,8,0:0:0:0:
448,192,48251,1,4,0:0:0:0:
192,192,48438,128,2,48813:0:0:0:0:
64,192,48813,1,12,0:0:0:0:
448,192,48813,128,2,49751:0:0:0:0:
64,192,49751,1,2,0:0:0:0:
192,192,49751,1,0,0:0:0:20:Snare.wav
320,192,49938,1,2,0:0:0:0:
448,192,49938,1,0,0:0:0:40:Tom3.wav
64,192,50688,1,0,0:0:0:0:
448,192,50876,1,0,0:0:0:0:
192,192,51063,1,0,0:0:0:0:
64,192,51251,1,4,0:0:0:0:
320,192,51251,1,2,0:0:0:0:
192,192,51626,1,8,0:0:0:0:
448,192,51626,1,2,0:0:0:0:
320,192,52001,1,2,0:0:0:0:
64,192,52188,1,0,0:0:0:25:Hat Open.wav
320,192,52376,1,8,0:0:0:0:
448,192,52376,1,2,0:0:0:0:
64,192,52751,1,2,0:0:0:0:
192,192,52751,1,0,0:0:0:0:
192,192,53126,1,2,0:0:0:0:
448,192,53126,1,8,0:0:0:0:
64,192,53501,1,2,0:0:0:0:
448,192,53688,1,0,0:0:0:25:Hat Open.wav
192,192,53876,1,10,0:0:0:0:
320,192,54063,1,0,0:0:0:25:Hat Open.wav
448,192,54251,128,2,54626:0:0:0:0:
64,192,54626,1,10,0:0:0:0:
192,192,54813,128,0,55188:0:0:0:25:Hat Open.wav
320,192,55188,1,0,0:0:0:25:Hat Open.wav
64,192,55376,1,10,0:0:0:0:
448,192,55563,128,0,56876:0:0:0:25:Hat Open.wav
192,192,55751,1,2,0:0:0:0:
320,192,56126,1,10,0:0:0:0:
64,192,56501,1,2,0:0:0:0:
192,192,56876,1,10,0:0:0:0:
64,192,57251,1,2,0:0:0:0:
448,192,57251,1,4,0:0:0:0:
320,192,57626,1,8,0:0:0:0:
448,192,57626,1,2,0:0:0:0:
64,192,58001,1,2,0:0:0:0:
320,192,58188,1,0,0:0:0:25:Hat Open.wav
64,192,58376,1,8,0:0:0:0:
192,192,58376,1,2,0:0:0:0:
320,192,58751,1,2,0:0:0:0:
448,192,58751,1,0,0:0:0:0:
64,192,59126,1,2,0:0:0:0:
320,192,59126,1,8,0:0:0:0:
192,192,59501,1,2,0:0:0:0:
448,192,59688,1,0,0:0:0:25:Hat Open.wav
64,192,59876,1,2,0:0:0:0:
192,192,59876,1,8,0:0:0:0:
320,192,60251,1,2,0:0:0:0:
448,192,60251,1,0,0:0:0:0:
64,192,60626,128,8,61001:0:0:0:0:
192,192,61001,128,0,61376:0:0:0:25:Hat Open.wav
320,192,61376,128,8,61751:0:0:0:0:
64,192,61751,128,2,62313:0:0:0:0:
448,192,61751,1,8,0:0:0:0:
448,192,62313,128,8,62688:0:0:0:0:
320,192,62688,1,2,0:0:0:0:
64,192,62876,1,8,0:0:0:0:
192,192,63063,1,0,0:0:0:0:
320,192,63251,1,4,0:0:0:0:
448,192,63251,1,2,0:0:0:0:
64,192,63626,1,2,0:0:0:0:
320,192,63626,1,8,0:0:0:0:
192,192,64001,1,2,0:0:0:0:
448,192,64188,1,0,0:0:0:25:Hat Open.wav
64,192,64376,1,2,0:0:0:0:
192,192,64376,1,8,0:0:0:0:
320,192,64751,1,2,0:0:0:0:
448,192,64751,1,0,0:0:0:0:
64,192,65126,1,8,0:0:0:0:
320,192,65126,1,2,0:0:0:0:
448,192,65501,1,2,0:0:0:0:
64,192,65688,1,0,0:0:0:25:Hat Open.wav
320,192,65876,1,8,0:0:0:0:
448,192,65876,1,2,0:0:0:0:
192,192,66063,1,0,0:0:0:25:Hat Open.wav
64,192,66251,128,2,66626:0:0:0:0:
448,192,66626,1,10,0:0:0:0:
320,192,66813,128,0,67188:0:0:0:25:Hat Open.wav
192,192,67188,1,0,0:0:0:25:Hat Open.wav
448,192,67376,1,10,0:0:0:0:
64,192,67563,128,0,68876:0:0:0:25:Hat Open.wav
320,192,67751,1,2,0:0:0:0:
192,192,68126,1,10,0:0:0:0:
448,192,68501,1,2,0:0:0:0:
320,192,68876,1,10,0:0:0:0:
64,192,69251,1,4,0:0:0:0:
448,192,69251,1,2,0:0:0:0:
64,192,69626,1,2,0:0:0:0:
192,192,69626,1,8,0:0:0:0:
448,192,70001,1,2,0:0:0:0:
192,192,70188,1,0,0:0:0:25:Hat Open.wav
320,192,70376,1,2,0:0:0:0:
448,192,70376,1,8,0:0:0:0:
64,192,70751,1,2,0:0:0:0:
192,192,70751,1,0,0:0:0:0:
192,192,71126,1,8,0:0:0:0:
448,192,71126,1,2,0:0:0:0:
320,192,71501,1,2,0:0:0:0:
64,192,71688,1,0,0:0:0:25:Hat Open.wav
192,192,71876,1,8,0:0:0:0:
320,192,71876,1,2,0:0:0:0:
64,192,72251,1,2,0:0:0:0:
448,192,72251,1,4,0:0:0:0:
192,192,72626,128,8,73001:0:0:0:0:
448,192,73001,1,0,0:0:0:25:Hat Open.wav
64,192,73188,1,2,0:0:0:0:
320,192,73563,1,2,0:0:0:0:
448,192,73563,128,4,73938:0:0:0:0:
64,192,73938,128,2,74313:0:0:0:0:
192,192,74313,128,6,75251:0:0:0:0:
448,192,74501,1,0,0:0:0:40:Tom2.wav
320,192,74876,1,8,0:0:0:0:
64,192,75251,1,2,0:0:0:0:
448,192,75251,1,4,0:0:0:0:
320,192,75813,1,2,0:0:0:0:
64,192,76001,1,8,0:0:0:0:
192,192,76001,1,0,0:0:0:25:Hat Open.wav
448,192,76188,1,2,0:0:0:0:
192,192,76563,1,2,0:0:0:0:
320,192,76563,1,0,0:0:0:0:
448,192,76938,1,2,0:0:0:0:
64,192,77313,1,2,0:0:0:0:
320,192,77501,1,8,0:0:0:0:
448,192,77501,1,0,0:0:0:25:Hat Open.wav
192,192,77876,1,0,0:0:0:25:Hat Open.wav
64,192,78251,1,2,0:0:0:0:
448,192,78251,1,4,0:0:0:0:
320,192,78438,1,0,0:0:0:0:
320,192,78813,1,2,0:0:0:0:
64,192,79001,1,8,0:0:0:0:
192,192,79001,1,0,0:0:0:25:Hat Open.wav
448,192,79188,128,0,79563:0:0:0:0:
64,192,79563,128,6,79938:0:0:0:0:
192,192,79938,128,8,80313:0:0:0:0:
320,192,80313,128,8,80688:0:0:0:0:
448,192,80688,128,8,81251:0:0:0:0:
64,192,81251,128,6,81626:0:0:0:0:
320,192,81626,128,2,82001:0:0:0:0:
192,192,82001,128,2,82376:0:0:0:0:
448,192,82376,128,2,82751:0:0:0:0:
64,192,82751,128,2,83126:0:0:0:0:
192,192,83126,128,2,83501:0:0:0:0:
320,192,83501,128,2,83876:0:0:0:0:
448,192,83876,128,2,84251:0:0:0:0:
64,192,84251,1,0,0:0:0:0:
192,192,84626,1,0,0:0:0:0:
448,192,84813,1,0,0:0:0:0:
64,192,85001,1,0,0:0:0:0:
320,192,85376,1,8,0:0:0:0:
448,192,85376,1,0,0:0:0:0:
64,192,85751,1,2,0:0:0:30:soft-hitwhistle.wav
448,192,85751,1,0,0:0:0:0:
192,192,86126,1,2,0:0:0:30:soft-hitwhistle.wav
448,192,86501,1,2,0:0:0:30:soft-hitwhistle.wav
64,192,86876,1,2,0:0:0:30:soft-hitwhistle.wav
320,192,87251,1,2,0:0:0:30:soft-hitwhistle.wav
192,192,87626,1,2,0:0:0:30:soft-hitwhistle.wav
64,192,88001,128,2,88376:0:0:0:30:soft-hitwhistle.wav
448,192,88376,1,2,0:0:0:30:soft-hitwhistle.wav
320,192,88563,1,0,0:0:0:0:
64,192,88751,1,2,0:0:0:30:soft-hitwhistle.wav
192,192,88751,1,8,0:0:0:30:soft-hitclap.wav
