osu file format v14

[General]
AudioFilename: audio.mp3
AudioLeadIn: 0
PreviewTime: 31419
Countdown: 0
SampleSet: Soft
StackLeniency: 1
Mode: 0
LetterboxInBreaks: 0
WidescreenStoryboard: 1

[Editor]
Bookmarks: 39122,46079,47818,84340
DistanceSpacing: 1
BeatDivisor: 8
GridSize: 4
TimelineZoom: 2.5

[Metadata]
Title:I believe what you said (TV Size)
TitleUnicode:I believe what you said (TV Size)
Artist:Asaka
ArtistUnicode:亜咲花
Creator:Okoratu
Version:Theatergoing
Source:ひぐらしのなく頃に 業
Tags:Higurashi no Naku Koro ni Gou 2020 When the Cicadas Cry anime opening op 07th Expansion Passione Maebara Keiichi Sonozaki Mion Shion Ryuugu Rena Houjou Satoko Satoshi Furude Rika Hanyuu Okorin toybot vikala Yudragen ChaoticRed Spkz Electronic Japanese
BeatmapID:2652885
BeatmapSetID:1276862

[Difficulty]
HPDrainRate:5
CircleSize:4
OverallDifficulty:8.5
ApproachRate:9
SliderMultiplier:2.8
SliderTickRate:2

[Events]
//Background and Video events
Video,203,"Video.mp4"
0,0,"bg (1).jpg",0,0
//Break Periods
//Storyboard Layer 0 (Background)
//Storyboard Layer 1 (Fail)
//Storyboard Layer 2 (Pass)
//Storyboard Layer 3 (Foreground)
//Storyboard Layer 4 (Overlay)
//Storyboard Sound Samples

[TimingPoints]
170,434.782608695652,4,2,1,50,1,0
930,-100,4,2,15,50,0,0
1148,-100,4,2,1,50,0,0
2669,-100,4,2,15,50,0,0
2887,-100,4,2,1,50,0,0
3050,-100,4,2,1,10,0,0
3104,-100,4,2,1,50,0,0
3376,-100,4,2,1,10,0,0
3430,-100,4,2,1,50,0,0
3648,-100,4,2,1,60,0,0
10496,-100,4,2,1,70,0,0
17506,-100,4,2,1,5,0,0
17561,-133.333333333333,4,2,1,50,0,0
23648,-83.3333333333333,4,2,1,50,0,0
24517,-100,4,2,1,60,0,0
29843,-100,4,2,1,40,0,0
30115,-100,4,2,1,60,0,0
30224,-100,4,2,1,40,0,0
30550,-100,4,2,1,60,0,0
30659,-100,4,2,1,40,0,0
30985,-100,4,2,1,60,0,0
31093,-100,4,2,1,30,0,0
31474,-133.333333333333,4,2,1,80,0,0
31528,-133.333333333333,4,2,1,50,0,0
32289,-133.333333333333,4,2,15,50,0,0
32398,-133.333333333333,4,2,1,50,0,0
33430,-100,4,2,1,50,0,0
34028,-100,4,2,15,50,0,0
34137,-100,4,2,1,50,0,0
34952,-133.333333333333,4,2,1,50,0,0
35767,-133.333333333333,4,2,15,50,0,0
35876,-133.333333333333,4,2,1,50,0,0
36909,-100,4,2,1,50,0,0
37561,-83.3333333333333,4,2,1,60,0,0
38430,-100,4,2,1,50,0,0
43430,-100,4,2,1,60,0,0
44409,-83.3333333333333,4,2,1,50,0,0
45333,-83.3333333333333,4,2,1,70,0,0
47126,-83.3333333333333,4,2,1,70,0,1
60387,-71.4285714285714,4,2,1,70,0,1
60604,-71.4285714285714,4,2,1,70,0,0
61039,-83.3333333333333,4,2,1,70,0,1
75822,-71.4285714285714,4,2,1,70,0,1
76746,-71.4285714285714,4,2,1,50,0,1
77072,-71.4285714285714,4,2,1,70,0,1
77180,-71.4285714285714,4,2,1,50,0,1
77506,-71.4285714285714,4,2,1,70,0,1
78539,-133.333333333333,4,2,1,50,0,0
80169,-66.6666666666667,4,2,1,70,0,0
81854,-66.6666666666667,4,2,1,40,0,0
82778,-66.6666666666667,4,2,1,80,0,0
83648,-133.333333333333,4,2,1,50,0,0
87017,-133.333333333333,4,2,1,30,0,0
87126,-133.333333333333,4,2,1,20,0,0

[Colours]
Combo1 : 255,21,28
Combo2 : 255,153,51
Combo3 : 53,72,244
Combo4 : 199,36,177
Combo5 : 107,231,237

[HitObjects]
153,129,170,22,0,P|165:231|170:332,2,140,0|0|2,1:0|0:0|0:0,0:0:0:0:
65,91,822,1,0,0:0:0:0:
51,347,1039,1,8,0:0:0:0:
51,347,1256,22,0,P|125:344|230:350,1,140,8|0,0:3|0:0,0:0:0:0:
250,270,1582,2,0,P|320:272|390:270,1,140,8|0,0:3|0:0,0:0:0:0:
469,334,1909,38,0,L|482:232,1,70,8|0,0:3|0:0,0:0:0:0:
419,178,2126,2,0,L|432:59,1,70
445,14,2343,1,2,0:0:0:0:
164,99,2561,1,2,0:0:0:0:
251,272,2778,2,0,P|209:284|133:276,1,105,8|0,0:0|0:0,0:0:0:0:
139,274,2996,38,0,L|150:227,1,35,8|0,0:3|0:0,0:0:0:0:
362,8,3322,2,0,L|369:42,1,35,8|0,0:3|0:0,0:0:0:0:
452,181,3648,22,0,P|361:183|297:168,1,140,4|0,0:0|3:0,0:0:0:0:
219,75,3974,1,0,0:0:0:0:
219,75,4083,2,0,L|227:155,1,70,2|0,0:2|0:0,0:0:0:0:
202,315,4300,2,0,L|216:242,1,70,0|0,3:2|0:0,0:0:0:0:
126,164,4517,1,2,0:0:0:0:
76,163,4626,1,0,0:0:0:0:
36,190,4735,1,0,3:2:0:0:
36,190,4952,2,0,L|111:202,1,70
435,49,5169,2,0,L|354:53,1,70,2|0,3:2|0:0,0:0:0:0:
362,346,5387,2,0,L|443:350,1,70,6|0,0:2|0:0,0:0:0:0:
467,204,5604,1,0,3:0:0:0:
467,204,5822,22,0,P|406:206|369:202,1,70,2|0,0:2|0:0,0:0:0:0:
292,251,6039,1,2,3:2:0:0:
292,251,6112,1,2,0:0:0:0:
292,251,6184,1,0,0:0:0:0:
292,251,6256,2,0,P|316:168|189:111,1,210
29,47,6691,1,0,0:0:0:0:
62,123,6800,1,2,0:0:0:0:
51,204,6909,1,0,3:0:0:0:
15,290,7017,1,2,0:0:0:0:
96,274,7126,22,0,P|132:258|243:274,1,140,4|0,0:0|3:0,0:0:0:0:
381,306,7452,1,0,0:0:0:0:
381,306,7561,2,0,L|282:293,1,70,2|0,0:0|0:0,0:0:0:0:
324,201,7778,2,0,L|423:214,1,70,0|0,3:0|0:0,0:0:0:0:
486,271,7996,1,2,0:0:0:0:
486,271,8104,1,0,0:0:0:0:
486,271,8213,2,0,L|474:123,1,140,0|2,3:0|0:0,0:0:0:0:
307,291,8539,1,0,0:0:0:0:
307,291,8648,2,0,L|388:279,1,70,2|0,3:2|0:0,0:0:0:0:
204,108,8865,22,0,L|218:204,1,70,12|0,0:3|0:0,0:0:0:0:
153,354,9083,2,0,L|57:341,1,70,0|0,3:0|0:0,0:0:0:0:
96,259,9300,2,0,L|192:272,1,70,2|0,0:0|0:0,0:0:0:0:
489,150,9517,2,0,L|419:156,1,70,2|0,3:2|0:0,0:0:0:0:
289,260,9735,1,2,0:0:0:0:
289,260,9807,1,2,0:0:0:0:
289,260,9880,1,0,0:0:0:0:
289,260,9952,38,0,P|302:185|300:149,1,70,0|0,3:0|0:0,0:0:0:0:
128,34,10169,2,0,P|141:120|142:199,1,140,2|0,0:0|3:0,0:0:0:0:
448,338,10604,6,0,L|455:231,1,70,12|0,3:2|0:2,3:2:0:0:
380,113,10822,2,0,L|387:220,1,70,8|0,3:2|0:2,3:2:0:0:
298,358,11039,22,0,P|302:300|302:262,1,70,10|0,3:2|0:2,3:2:0:0:
236,67,11256,2,0,P|240:125|240:163,1,70,8|0,3:2|0:2,3:2:0:0:
167,366,11474,38,0,P|160:296|129:252,1,70,10|0,3:2|0:2,3:2:0:0:
58,47,11691,2,0,P|93:107|94:161,1,70,10|0,3:2|0:2,3:2:0:0:
14,296,11909,22,0,P|57:261|116:258,1,70,10|0,3:2|0:2,3:2:0:0:
375,181,12126,2,0,P|416:217|430:274,1,70,8|0,3:2|0:2,3:2:0:0:
280,384,12343,38,0,P|245:341|242:282,1,70,14|0,3:2|0:2,3:2:0:0:
357,77,12560,2,0,P|393:35|450:21,1,70,8|0,3:2|0:2,3:2:0:0:
478,323,12778,22,0,P|406:311|356:290,1,70,10|0,3:2|0:2,3:2:0:0:
33,322,12996,2,0,P|105:310|155:289,1,70,10|0,3:2|0:2,3:2:0:0:
231,234,13213,1,10,3:2:0:0:
231,234,13285,1,2,3:2:0:0:
231,234,13358,1,0,3:2:0:0:
231,234,13430,2,0,P|220:160|217:123,1,70,8|0,3:2|0:2,3:2:0:0:
217,41,13648,2,0,L|124:56,1,70,8|0,3:2|0:2,3:2:0:0:
362,296,13865,2,0,L|455:281,1,70,8|0,3:2|0:2,3:2:0:0:
485,142,14083,5,4,3:2:0:0:
438,158,14191,1,8,3:2:0:0:
394,135,14300,1,8,3:3:0:0:
346,129,14409,1,8,3:2:0:0:
281,198,14517,5,8,3:2:0:0:
238,161,14626,1,8,3:2:0:0:
227,105,14735,1,8,3:3:0:0:
235,49,14843,1,8,3:2:0:0:
136,25,14952,53,8,3:3:0:0:
61,43,15061,1,8,3:2:0:0:
14,112,15169,1,8,3:3:0:0:
16,193,15278,1,8,3:2:0:0:
60,260,15387,6,0,P|65:290|64:314,6,35,12|8|8|8|8|8|8,3:2|3:3|3:3|3:3|3:3|3:3|3:3,3:2:0:0:
111,197,15822,5,4,3:1:0:0:
256,192,15876,12,0,17506,0:0:0:0:
229,210,17561,21,4,0:0:0:0:
229,210,17669,2,0,P|172:204|118:207,1,105.000004005432,2|0,0:0|0:0,0:0:0:0:
44,246,17996,1,8,0:3:0:0:
406,321,18322,1,8,0:3:0:0:
406,321,18430,2,0,L|396:257,1,52.5000020027161,8|0,0:3|0:0,0:0:0:0:
323,194,18648,2,0,L|396:187,1,52.5000020027161,2|0,0:0|0:0,0:0:0:0:
460,108,18865,2,0,L|533:101,1,52.5000020027161,8|0,0:3|0:0,0:0:0:0:
351,20,19083,1,0,0:0:0:0:
383,32,19191,1,0,3:0:0:0:
376,71,19300,37,12,0:3:0:0:
246,51,19517,1,2,0:0:0:0:
391,313,19735,1,8,0:3:0:0:
391,313,20061,1,8,0:3:0:0:
391,313,20169,2,0,L|327:304,1,52.5000020027161,8|0,0:3|0:0,0:0:0:0:
163,337,20387,2,0,L|99:328,1,52.5000020027161,2|0,0:0|0:0,0:0:0:0:
0,228,20604,2,0,L|64:219,1,52.5000020027161,8|0,0:3|0:0,0:0:0:0:
228,252,20822,2,0,L|292:243,1,52.5000020027161,2|0,0:0|0:0,0:0:0:0:
129,137,21039,21,12,0:3:0:0:
129,137,21148,2,0,L|137:203,1,52.5000020027161
406,331,21474,1,8,0:3:0:0:
406,331,21800,1,8,0:3:0:0:
406,331,21909,2,0,L|412:263,1,52.5000020027161,8|0,0:3|0:0,0:0:0:0:
342,201,22126,2,0,L|274:210,1,52.5000020027161,2|0,0:0|0:0,0:0:0:0:
201,293,22343,1,8,0:3:0:0:
154,288,22452,1,0,3:3:0:0:
106,283,22561,1,2,0:0:0:0:
386,124,22778,38,0,P|363:217|355:301,1,157.500006008148,12|0,0:3|0:0,0:0:0:0:
380,312,23213,2,0,P|389:345|390:378,1,52.5000020027161,10|0,0:3|0:0,0:0:0:0:
386,124,23430,2,0,L|326:130,1,52.5000020027161,2|0,0:0|0:0,0:0:0:0:
98,334,23648,38,0,P|146:286|165:249,1,83.9999974365235,8|0,0:3|0:0,0:3:0:0:
457,257,23865,2,0,P|392:240|350:242,1,83.9999974365235,2|0,2:0|0:0,0:3:0:0:
212,0,24083,2,0,P|229:49|252:84,1,83.9999974365235,8|0,0:3|0:0,0:3:0:0:
98,334,24300,2,0,P|146:286|165:249,1,83.9999974365235,2|0,0:0|0:0,0:3:0:0:
260,192,24517,21,6,0:0:0:0:
260,192,24626,2,0,P|220:190|167:184,1,70,0|0,0:0|3:2,0:0:0:0:
56,57,24952,2,0,P|72:127|77:217,1,140,8|0,0:3|3:2,0:0:0:0:
71,334,25278,1,8,3:0:0:0:
71,334,25387,2,0,L|48:264,1,70,8|0,2:3|0:0,0:0:0:0:
226,277,25604,2,0,L|197:358,1,70,2|0,3:2|0:0,0:0:0:0:
169,160,25822,2,0,L|267:176,1,70,8|0,0:3|0:0,0:0:0:0:
385,212,26039,1,2,3:2:0:0:
360,259,26148,1,0,3:0:0:0:
382,313,26256,21,12,0:3:0:0:
382,313,26474,2,0,L|461:308,1,70,0|0,3:0|0:0,0:0:0:0:
385,212,26691,2,0,L|238:222,1,140,8|0,0:3|3:2,0:0:0:0:
92,238,27017,1,8,2:3:0:0:
92,238,27126,1,8,0:3:0:0:
385,212,27343,1,2,3:2:0:0:
73,85,27561,2,0,P|117:137|120:161,1,70,8|0,0:3|0:0,0:0:0:0:
292,359,27778,2,0,P|240:352|201:332,1,70,2|0,3:2|0:0,0:0:0:0:
31,271,27996,22,0,P|79:288|111:322,1,70,12|0,3:2|0:0,0:0:0:0:
251,125,28213,2,0,P|256:184|254:218,1,70,8|0,3:2|0:0,0:0:0:0:
481,271,28430,22,0,P|433:288|401:322,1,70,8|0,3:2|0:0,0:0:0:0:
261,125,28648,2,0,P|256:184|258:218,1,70,8|0,3:2|0:0,0:0:0:0:
256,354,28865,38,0,L|194:284,1,70,8|0,3:2|0:0,0:0:0:0:
87,79,29083,2,0,L|143:154,1,70,8|0,3:2|0:0,0:0:0:0:
256,354,29300,22,0,L|318:284,1,70,8|0,3:2|0:0,0:0:0:0:
425,79,29518,2,0,L|369:154,1,70,8|0,3:2|0:0,0:0:0:0:
155,369,29735,21,8,3:3:0:0:
120,323,29843,1,8,3:2:0:0:
112,264,29952,1,8,3:2:0:0:
130,210,30061,1,8,3:2:0:0:
60,111,30169,5,8,3:3:0:0:
133,102,30278,1,8,3:2:0:0:
196,146,30387,1,8,3:2:0:0:
276,148,30496,1,8,3:2:0:0:
353,67,30604,53,8,3:3:0:0:
434,105,30713,1,8,3:2:0:0:
451,190,30822,1,8,3:3:0:0:
421,272,30930,1,8,3:2:0:0:
338,306,31039,6,8,L|329:258,6,35,8|8|8|8|8|8|8,3:3|3:2|3:2|3:2|3:2|3:2|3:2,3:2:0:0:
268,371,31474,6,0,B|256:298|133:253|151:352|27:313|14:207,1,315.000012016297,6|0,0:0|0:0,0:0:0:0:
62,127,32343,1,8,0:0:0:0:
62,127,32561,2,0,P|119:139|174:141,1,105.000004005432,8|0,0:3|0:0,0:0:0:0:
197,251,32887,2,0,P|237:207|293:191,1,105.000004005432,8|0,0:3|0:0,0:0:0:0:
435,208,33213,1,8,0:3:0:0:
316,43,33430,38,2,B|344:75|344:75|325:122|325:122|371:169|342:253,1,210,0|0,0:0|0:0,0:2:0:0:
311,346,33865,2,0,P|280:327|226:323,1,70
165,352,34083,1,8,0:0:0:0:
414,316,34300,1,8,0:3:0:0:
250,178,34517,1,2,0:0:0:0:
1,214,34734,1,0,3:0:0:0:
1,214,34843,1,0,3:0:0:0:
1,214,34952,22,0,P|47:194|164:297,1,210.000008010865,2|0,0:0|0:0,0:0:0:0:
305,46,35604,1,0,0:0:0:0:
305,46,35713,1,0,0:0:0:0:
305,46,35822,2,0,P|251:45|239:50,1,52.5000020027161,8|0,0:0|0:0,0:0:0:0:
152,122,36039,2,0,P|105:122|37:116,1,105.000004005432,8|0,0:3|0:0,0:0:0:0:
220,193,36365,2,0,P|274:194|339:199,1,105.000004005432,8|0,0:3|0:0,0:0:0:0:
424,284,36691,1,8,0:3:0:0:
426,50,36909,22,2,B|418:64|418:64|409:68|409:68|407:76|407:76|398:78|398:78|396:86|396:86|387:85|387:85|384:93|384:93|373:93|373:93|364:102|364:102|336:96|334:152|227:118|183:58|245:0|311:-18|324:67,1,350,2|0,0:0|0:0,0:2:0:0:
259,363,37561,6,0,L|255:262,1,83.9999974365235,8|0,0:0|0:0,0:0:0:0:
36,77,37778,1,8,0:3:0:0:
121,156,37887,2,0,P|152:171|235:186,1,83.9999974365235,8|0,0:0|0:0,0:0:0:0:
476,77,38104,1,8,0:3:0:0:
391,156,38213,2,0,P|360:171|277:186,1,83.9999974365235,8|0,0:0|0:0,0:0:0:0:
122,314,38430,6,0,L|39:323,1,70,4|0,3:2|3:0,3:0:0:0:
73,210,38648,1,0,3:0:0:0:
129,202,38756,1,0,3:0:0:0:
183,225,38865,1,2,3:2:0:0:
218,273,38974,1,0,3:0:0:0:
226,327,39083,2,0,L|310:319,1,70,8|0,3:0|3:0,3:0:0:0:
419,353,39300,2,0,L|367:345,3,46.6666666666667,8|0|0|0,3:2|3:0|3:0|3:0,3:0:0:0:
494,305,39626,1,0,3:0:0:0:
494,305,39735,2,0,L|507:218,1,70,0|0,3:0|3:0,3:0:0:0:
412,161,39952,22,0,L|326:181,1,70,12|0,3:3|3:0,3:0:0:0:
199,227,40169,1,0,3:0:0:0:
199,227,40278,1,0,3:0:0:0:
199,227,40387,2,0,P|230:176|231:146,1,70,10|0,3:2|3:0,3:0:0:0:
31,42,40604,1,0,3:0:0:0:
31,42,40713,1,0,3:0:0:0:
31,42,40822,2,0,L|44:132,1,70,8|0,3:0|3:0,3:0:0:0:
54,318,41039,2,0,L|60:369,2,46.6666666666667,8|0|0,3:2|3:2|3:0,3:0:0:0:
13,225,41256,2,0,L|90:214,1,70,2|0,3:2|3:0,3:0:0:0:
206,306,41474,2,0,L|254:300,2,46.6666666666667,8|0|0,3:2|3:2|3:0,3:0:0:0:
192,110,41691,1,2,3:2:0:0:
157,150,41800,1,0,3:0:0:0:
177,202,41909,38,0,L|266:195,1,70,6|0,3:2|3:0,3:0:0:0:
267,204,42126,2,0,L|258:130,1,70,0|0,3:0|3:0,3:0:0:0:
344,24,42343,1,0,3:0:0:0:
393,16,42452,1,0,3:0:0:0:
444,29,42561,1,8,3:3:0:0:
480,71,42669,1,0,3:0:0:0:
484,123,42778,2,0,L|477:175,2,46.6666666666667,8|0|0,3:2|3:0|3:0,3:0:0:0:
502,245,42996,2,0,L|414:233,1,70,2|0,3:2|3:0,3:0:0:0:
108,198,43213,2,0,L|134:285,1,70,0|0,3:0|3:0,3:0:0:0:
49,359,43430,6,0,P|39:282|25:125,1,210,14|0,3:3|3:0,3:0:0:0:
463,25,43865,2,0,P|473:102|487:259,1,210,14|0,3:0|3:0,3:0:0:0:
388,351,44300,1,8,3:3:0:0:
388,351,44409,2,0,P|399:288|397:251,1,83.9999974365235,8|0,3:0|3:0,3:0:0:0:
284,86,44626,1,8,3:2:0:0:
198,113,44735,1,8,3:2:0:0:
116,142,44843,2,0,L|6:173,1,83.9999974365235,8|0,3:2|3:0,3:0:0:0:
45,337,45061,1,8,3:2:0:0:
107,293,45170,1,8,3:3:0:0:
181,309,45278,1,8,3:2:0:0:
198,210,45387,37,14,0:0:0:0:
436,47,45822,1,8,0:3:0:0:
411,144,45930,1,8,0:3:0:0:
386,239,46039,1,4,0:2:0:0:
21,41,46474,1,4,0:0:0:0:
21,41,46909,6,0,P|75:29|137:38,1,83.9999974365235,2|0,0:0|0:0,0:0:0:0:
290,158,47126,2,0,B|232:177|181:160|204:134|151:136|95:142,1,167.999994873047,4|0,0:0|0:0,0:0:0:0:
81,208,47452,1,0,3:2:0:0:
247,83,47561,1,8,3:2:0:0:
247,83,47778,2,0,L|343:76,1,83.9999974365235
368,295,47996,2,0,P|332:246|335:187,1,83.9999974365235,8|0,0:3|0:0,0:0:0:0:
420,107,48213,2,0,P|418:179|410:225,1,83.9999974365235,0|0,0:0|3:0,0:0:0:0:
301,356,48430,1,8,3:2:0:0:
33,262,48648,22,0,P|76:237|128:237,1,83.9999974365235
301,356,48865,2,0,P|245:336|195:229,1,167.999994873047,2|0,0:0|3:0,0:0:0:0:
209,149,49191,1,0,3:0:0:0:
147,360,49300,2,0,L|52:361,1,83.9999974365235,8|0,0:0|0:0,0:0:0:0:
298,253,49517,2,0,P|356:257|474:263,1,167.999994873047,2|8,0:0|2:3,0:0:0:0:
425,156,49843,1,0,3:0:0:0:
298,253,49952,2,0,P|240:257|122:263,1,167.999994873047,2|8,0:0|0:0,0:0:0:0:
35,6,50387,38,0,P|39:61|13:119,1,83.9999974365235,0|0,0:0|3:0,0:0:0:0:
27,299,50604,2,0,P|31:221|113:161,1,167.999994873047,2|0,0:0|0:0,0:0:0:0:
211,143,50930,1,0,3:2:0:0:
129,356,51039,1,8,3:2:0:0:
129,356,51256,2,0,L|229:345,1,83.9999974365235,2|0,0:0|0:0,0:0:0:0:
211,143,51474,2,0,L|234:247,1,83.9999974365235,8|0,0:3|0:0,0:0:0:0:
366,327,51691,2,0,P|367:247|429:177,1,167.999994873047,2|8,0:0|0:0,0:0:0:0:
512,103,52017,1,0,3:0:0:0:
512,103,52126,2,0,L|414:95,1,83.9999974365235,2|0,3:2|0:0,0:0:0:0:
308,41,52343,22,0,B|327:110|276:150|276:150|290:213,1,167.999994873047,8|0,3:0|0:0,0:0:0:0:
352,256,52669,1,0,0:0:0:0:
225,71,52778,2,0,P|168:78|139:104,1,83.9999974365235,8|0,0:0|0:0,0:0:0:0:
2,199,52996,2,0,P|67:191|194:237,1,167.999994873047,2|0,0:0|0:0,0:0:0:0:
239,292,53322,1,8,0:0:0:0:
375,143,53430,2,0,P|345:195|346:245,1,83.9999974365235,8|0,0:3|0:0,0:0:0:0:
466,274,53648,2,0,P|496:222|495:172,1,83.9999974365235,8|0,0:0|0:0,0:0:0:0:
476,38,53865,1,2,0:0:0:0:
257,383,54083,37,4,0:0:0:0:
118,137,54300,1,0,3:3:0:0:
164,217,54409,1,0,3:3:0:0:
104,288,54517,2,0,L|5:299,1,83.9999974365235,8|0,0:0|0:0,0:0:0:0:
191,37,54735,2,0,L|201:149,1,83.9999974365235,2|0,3:2|0:0,0:0:0:0:
257,383,54952,2,0,L|244:288,1,83.9999974365235,8|0,3:3|0:0,0:0:0:0:
321,147,55169,2,0,L|425:162,1,83.9999974365235,2|0,3:2|0:0,0:0:0:0:
481,364,55387,1,8,0:0:0:0:
505,30,55604,1,0,3:0:0:0:
472,104,55713,1,0,3:0:0:0:
481,184,55822,21,4,3:2:0:0:
130,274,56039,1,2,3:2:0:0:
382,274,56256,1,8,0:0:0:0:
31,184,56474,1,2,3:2:0:0:
253,122,56691,2,0,P|256:197|246:240,1,83.9999974365235,8|0,3:0|0:0,0:0:0:0:
86,368,56909,2,0,P|131:353|204:356,1,83.9999974365235,0|0,3:0|3:0,0:0:0:0:
507,339,57126,2,0,B|445:360|417:300|330:334,1,167.999994873047,8|0,0:0|3:0,0:0:0:0:
256,365,57452,1,2,3:2:0:0:
462,258,57561,38,0,P|479:190|429:84,1,167.999994873047,4|0,0:0|0:0,0:0:0:0:
362,50,57887,1,0,3:0:0:0:
383,205,57996,2,0,P|334:227|276:232,1,83.9999974365235,8|0,0:0|0:0,0:0:0:0:
139,384,58213,2,0,P|143:330|139:282,1,83.9999974365235,2|0,0:0|0:0,0:0:0:0:
85,37,58430,1,8,3:0:0:0:
30,115,58539,2,0,P|19:169|26:214,1,83.9999974365235,2|0,0:0|0:0,0:0:0:0:
237,109,58756,1,0,0:0:0:0:
182,178,58865,1,10,0:0:0:0:
182,178,59083,2,0,L|288:190,1,83.9999974365235
499,189,59300,5,2,3:1:0:0:
487,201,59409,1,2,3:0:0:0:
13,189,59626,37,2,3:2:0:0:
25,201,59735,1,8,1:2:0:0:
259,4,59952,21,2,3:1:0:0:
247,16,60061,1,0,3:0:0:0:
246,350,60278,37,8,0:0:0:0:
258,362,60387,22,0,B|304:351|337:373|337:373|370:356,1,97.9999970092774,10|0,0:0|0:0,0:0:0:0:
111,134,60604,38,0,B|65:145|32:123|32:123|-1:140,1,97.9999970092774,2|8,0:1|0:0,0:0:0:0:
401,250,60822,22,0,B|447:239|480:261|480:261|513:244,1,97.9999970092774,2|0,0:0|0:0,0:0:0:0:
346,37,61039,22,0,P|298:75|283:198,1,167.999994873047,4|0,0:0|0:0,0:0:0:0:
314,254,61365,1,0,3:0:0:0:
191,73,61474,1,8,3:2:0:0:
191,73,61691,2,0,P|142:64|96:81,1,83.9999974365235,2|0,0:0|0:0,0:0:0:0:
203,184,61909,2,0,L|190:298,1,83.9999974365235,8|0,0:3|0:0,0:0:0:0:
78,374,62126,2,0,P|88:317|131:289,1,83.9999974365235,2|0,0:0|3:0,0:0:0:0:
303,370,62343,1,8,3:2:0:0:
433,169,62561,38,0,P|383:187|364:220,1,83.9999974365235
479,364,62778,2,0,P|486:288|505:185,1,167.999994873047,10|0,0:3|0:0,0:0:0:0:
485,89,63104,1,0,3:0:0:0:
409,288,63213,2,0,P|336:284|305:250,1,83.9999974365235,8|0,3:2|0:0,0:0:0:0:
75,320,63430,6,0,P|164:312|263:283,1,167.999994873047,2|8,0:0|0:3,0:0:0:0:
274,204,63756,1,0,3:0:0:0:
61,153,63865,2,0,P|72:218|71:352,1,167.999994873047,2|8,3:2|0:0,0:0:0:0:
351,122,64300,6,0,P|295:98|248:95,1,83.9999974365235,2|0,0:0|3:0,0:0:0:0:
61,153,64517,2,0,B|153:123|178:201|327:180,1,251.999992309571,8|0,3:3|3:0,0:0:0:0:
445,117,64952,1,8,3:2:0:0:
445,117,65169,38,0,P|416:66|376:41,1,83.9999974365235,2|0,0:0|0:0,0:0:0:0:
188,71,65387,2,0,P|252:94|301:98,1,83.9999974365235,8|0,0:3|0:0,0:0:0:0:
496,220,65604,2,0,P|441:222|402:248,1,83.9999974365235,2|0,0:0|3:0,0:0:0:0:
108,350,65822,1,8,3:2:0:0:
61,97,66039,6,0,P|92:151|102:198,1,83.9999974365235,2|0,0:0|0:0,0:0:0:0:
18,278,66256,2,0,P|104:269|212:267,1,167.999994873047,2|0,0:0|0:0,0:0:0:0:
274,316,66583,1,0,3:0:0:0:
235,110,66691,2,0,P|197:92|156:91,1,83.9999974365235,8|0,3:2|0:0,0:0:0:0:
460,96,66909,2,0,P|463:166|442:280,1,167.999994873047,2|8,0:0|0:3,0:0:0:0:
377,351,67235,1,8,0:0:0:0:
346,247,67343,2,0,P|360:162|376:128,1,83.9999974365235,2|0,3:2|3:3,0:0:0:0:
155,91,67561,2,0,L|31:105,1,83.9999974365235,8|0,0:0|0:0,0:0:0:0:
22,277,67778,1,2,3:2:0:0:
343,28,67996,5,4,0:0:0:0:
512,267,68213,2,0,B|423:227|429:287|340:249,1,167.999994873047,2|8,0:0|3:2,0:0:0:0:
255,206,68539,1,0,3:0:0:0:
181,279,68648,2,0,P|140:300|84:304,1,83.9999974365235,2|0,3:2|0:0,0:0:0:0:
85,66,68865,2,0,L|109:167,1,83.9999974365235,8|0,0:3|3:0,0:0:0:0:
22,368,69083,2,0,P|37:275|33:194,1,167.999994873047,2|8,3:2|3:2,0:0:0:0:
455,68,69517,1,0,3:0:0:0:
470,155,69626,1,0,3:0:0:0:
388,185,69735,38,0,L|278:179,1,83.9999974365235,4|0,0:0|0:0,0:0:0:0:
154,362,69952,2,0,L|264:356,1,83.9999974365235,2|0,0:0|3:0,0:0:0:0:
241,26,70169,2,0,L|257:117,1,83.9999974365235,8|0,3:2|0:0,0:0:0:0:
472,374,70387,2,0,P|421:327|307:305,1,167.999994873047,2|8,0:0|0:3,0:0:0:0:
98,59,70822,6,0,P|105:125|104:177,1,83.9999974365235,2|0,0:0|3:0,0:0:0:0:
32,304,71039,2,0,P|72:275|137:268,1,83.9999974365235,8|0,3:2|0:0,0:0:0:0:
328,304,71256,1,0,3:0:0:0:
246,340,71365,1,0,3:0:0:0:
197,268,71474,6,0,P|205:188|211:77,1,167.999994873047,6|0,0:0|0:0,0:0:0:0:
211,12,71800,1,0,3:0:0:0:
284,197,71909,2,0,B|357:209|357:167|470:193,1,167.999994873047,8|0,3:2|0:0,0:0:0:0:
512,125,72235,1,0,3:0:0:0:
501,267,72343,1,8,3:3:0:0:
501,267,72561,1,2,3:2:0:0:
68,68,72778,2,0,L|171:62,1,83.9999974365235,10|0,2:2|0:0,0:0:0:0:
292,118,72996,2,0,L|403:113,1,83.9999974365235,0|0,0:0|3:0,0:0:0:0:
467,32,73213,5,4,0:0:0:0:
467,32,73322,1,0,0:0:0:0:
45,352,73539,1,8,0:3:0:0:
45,352,73648,1,8,0:0:0:0:
45,32,73865,1,8,3:0:0:0:
45,32,73974,1,8,3:0:0:0:
467,352,74191,1,8,3:0:0:0:
467,352,74300,1,12,3:0:0:0:
234,126,74517,5,8,0:0:0:0:
256,229,74626,1,8,3:0:0:0:
278,126,74735,1,8,0:0:0:0:
61,324,74952,6,0,B|80:276|79:276|67:225,1,83.9999974365235,8|0,0:0|0:0,0:0:0:0:
61,60,75169,2,0,B|80:108|79:108|67:159,1,83.9999974365235,8|0,0:0|0:0,0:0:0:0:
215,334,75387,22,0,B|167:301|167:301|176:257,1,83.9999974365235,8|0,0:0|0:0,0:0:0:0:
215,50,75604,2,0,B|167:83|167:83|176:127,1,83.9999974365235,8|0,0:0|0:0,0:0:0:0:
360,362,75822,38,0,B|348:330|308:327|308:327|277:258,1,97.9999970092774,8|0,0:0|0:0,0:0:0:0:
360,22,76039,2,0,B|348:54|308:57|308:57|277:126,1,97.9999970092774,8|0,0:0|0:0,0:0:0:0:
450,366,76256,22,0,B|487:331|487:331|480:273,1,97.9999970092774,8|0,0:0|0:0,0:0:0:0:
450,18,76474,2,0,B|487:53|487:53|480:111,1,97.9999970092774,8|0,0:0|0:0,0:0:0:0:
369,249,76691,5,8,3:2:0:0:
300,208,76800,1,8,3:2:0:0:
217,201,76909,1,8,3:2:0:0:
144,243,77017,1,8,3:2:0:0:
74,299,77126,1,10,3:2:0:0:
19,241,77235,1,8,3:2:0:0:
21,147,77343,1,8,3:2:0:0:
78,64,77452,1,8,3:2:0:0:
168,35,77561,21,8,3:3:0:0:
164,61,77669,2,0,B|153:129|153:129|204:110,1,97.9999970092774,10|0,3:2|3:0,3:0:0:0:
369,195,77887,1,8,3:0:0:0:
373,221,77995,2,0,B|384:289|384:289|333:270,1,97.9999970092774,10|0,3:2|3:0,3:0:0:0:
193,363,78213,1,10,3:2:0:0:
205,283,78322,1,8,3:2:0:0:
219,196,78430,1,4,3:2:0:0:
76,213,79300,22,2,B|47:174|95:85|208:105|229:207|177:314|333:277,1,367.500014019013,2|0,0:0|0:0,0:0:0:0:
413,343,80169,6,0,P|418:285|452:130,1,210.000008010865,4|0,0:0|0:0,0:0:0:0:
330,0,80496,2,0,P|318:104|293:206,1,210.000008010865,4|0,0:0|0:0,0:0:0:0:
99,343,80822,1,12,0:0:0:0:
99,343,81039,22,0,P|94:285|60:130,1,210.000008010865,4|0,0:0|0:0,0:0:0:0:
182,0,81366,2,0,P|193:104|218:206,1,210.000008010865,4|0,0:0|0:0,0:0:0:0:
413,343,81691,1,12,0:0:0:0:
445,179,81909,38,8,L|455:118,1,52.5000020027161,8|8,3:0|3:0,3:0:0:0:
419,180,82017,2,8,L|429:119,1,52.5000020027161,8|8,3:0|3:0,3:0:0:0:
393,181,82126,2,8,L|403:120,1,52.5000020027161,8|8,3:0|3:0,3:0:0:0:
367,182,82235,2,8,L|377:121,1,52.5000020027161,8|8,3:0|3:0,3:0:0:0:
326,194,82343,22,8,L|336:255,1,52.5000020027161,8|8,3:0|3:0,3:0:0:0:
300,193,82451,2,8,L|310:254,1,52.5000020027161,8|8,3:0|3:0,3:0:0:0:
274,192,82560,2,8,L|284:253,1,52.5000020027161,8|8,3:0|3:0,3:0:0:0:
248,191,82669,2,8,L|258:252,1,52.5000020027161,8|8,3:0|3:0,3:0:0:0:
202,209,82778,37,12,3:2:0:0:
47,178,83648,6,0,P|77:233|80:387,1,210.000008010865,2|0,0:0|0:0,0:0:0:0:
291,248,84300,1,8,0:3:0:0:
249,0,84517,22,0,P|219:55|216:209,1,210.000008010865,2|0,0:0|0:0,0:0:0:0:
458,336,85169,1,0,0:0:0:0:
458,336,85278,1,0,0:0:0:0:
458,336,85387,38,0,P|379:328|281:329,1,157.500006008148,0|0,3:0|0:0,0:0:0:0:
192,349,85822,2,0,P|147:352|78:348,1,105.000004005432,2|0,0:0|0:0,0:0:0:0:
386,227,86256,2,0,P|431:224|500:228,1,105.000004005432,2|0,0:0|0:0,0:0:0:0:
109,32,86691,2,0,P|123:87|131:202,1,157.500006008148,2|0,0:0|0:0,0:0:0:0:
117,208,87126,1,0,0:0:0:0:
