osu file format v14

[General]
AudioFilename: audio.mp3
AudioLeadIn: 0
PreviewTime: 31419
Countdown: 0
SampleSet: Soft
StackLeniency: 1
Mode: 0
LetterboxInBreaks: 0
WidescreenStoryboard: 1

[Editor]
Bookmarks: 39122,46079,47818,84340
DistanceSpacing: 1.2
BeatDivisor: 4
GridSize: 4
TimelineZoom: 1.700001

[Metadata]
Title:I believe what you said (TV Size)
TitleUnicode:I believe what you said (TV Size)
Artist:Asaka
ArtistUnicode:亜咲花
Creator:Okoratu
Version:Normal
Source:ひぐらしのなく頃に 業
Tags:Higurashi no Naku Koro ni Gou 2020 When the Cicadas Cry anime opening op 07th Expansion Passione Maebara Keiichi Sonozaki Mion Shion Ryuugu Rena Houjou Satoko Satoshi Furude Rika Hanyuu Okorin toybot vikala Yudragen ChaoticRed Spkz Electronic Japanese
BeatmapID:2655535
BeatmapSetID:1276862

[Difficulty]
HPDrainRate:4
CircleSize:3
OverallDifficulty:3.5
ApproachRate:5
SliderMultiplier:1.2
SliderTickRate:1

[Events]
//Background and Video events
Video,203,"Video.mp4"
0,0,"bg (1).jpg",0,0
//Break Periods
//Storyboard Layer 0 (Background)
//Storyboard Layer 1 (Fail)
//Storyboard Layer 2 (Pass)
//Storyboard Layer 3 (Foreground)
//Storyboard Layer 4 (Overlay)
//Storyboard Sound Samples

[TimingPoints]
170,434.782608695652,4,2,1,50,1,0
930,-100,4,2,15,50,0,0
1148,-100,4,2,1,50,0,0
2669,-100,4,2,15,50,0,0
2887,-100,4,2,1,50,0,0
3050,-100,4,2,1,10,0,0
3104,-100,4,2,1,50,0,0
3376,-100,4,2,1,10,0,0
3430,-100,4,2,1,50,0,0
3648,-100,4,2,1,60,0,0
10496,-100,4,2,1,70,0,0
17561,-100,4,2,1,50,0,0
23648,-83.3333333333333,4,2,1,50,0,0
24517,-100,4,2,1,60,0,0
29843,-100,4,2,1,40,0,0
30115,-100,4,2,1,60,0,0
30224,-100,4,2,1,40,0,0
30550,-100,4,2,1,60,0,0
30659,-100,4,2,1,40,0,0
30985,-100,4,2,1,60,0,0
31093,-100,4,2,1,30,0,0
31474,-100,4,2,1,80,0,0
31528,-100,4,2,1,50,0,0
32289,-100,4,2,15,50,0,0
32398,-100,4,2,1,50,0,0
33430,-100,4,2,1,50,0,0
34028,-100,4,2,15,50,0,0
34137,-100,4,2,1,50,0,0
34952,-100,4,2,1,50,0,0
35767,-100,4,2,15,50,0,0
35876,-100,4,2,1,50,0,0
36909,-100,4,2,1,50,0,0
37561,-83.3333333333333,4,2,1,60,0,0
38430,-100,4,2,1,50,0,0
43430,-100,4,2,1,60,0,0
44409,-83.3333333333333,4,2,1,50,0,0
45333,-83.3333333333333,4,2,1,70,0,0
47126,-83.3333333333333,4,2,1,70,0,1
60387,-83.3333333333333,4,2,1,70,0,1
60604,-71.4285714285714,4,2,1,70,0,0
61039,-83.3333333333333,4,2,1,70,0,1
75822,-83.3333333333333,4,2,1,70,0,1
76746,-83.3333333333333,4,2,1,50,0,1
77072,-83.3333333333333,4,2,1,70,0,1
77180,-83.3333333333333,4,2,1,50,0,1
77506,-83.3333333333333,4,2,1,70,0,1
78539,-133.333333333333,4,2,1,50,0,0
80169,-83.3333333333333,4,2,1,70,0,0
81854,-83.3333333333333,4,2,1,40,0,0
82778,-83.3333333333333,4,2,1,80,0,0
83648,-133.333333333333,4,2,1,50,0,0
87017,-133.333333333333,4,2,1,30,0,0
87126,-133.333333333333,4,2,1,20,0,0

[Colours]
Combo1 : 255,21,28
Combo2 : 255,153,51
Combo3 : 53,72,244
Combo4 : 199,36,177
Combo5 : 107,231,237

[HitObjects]
94,52,170,22,0,P|98:97|106:298,1,240,0|8,1:0|0:0,0:0:0:0:
174,339,1256,2,0,L|268:345,2,90,8|8|8,0:3|0:3|0:3,0:0:0:0:
322,36,2778,37,8,0:0:0:0:
322,36,2996,2,0,L|228:30,2,90,8|8|4,0:3|0:3|0:0,0:0:0:0:
412,169,4083,22,0,P|385:234|390:284,1,120,2|2,0:2|0:0,0:0:0:0:
430,358,4735,2,0,P|378:341|295:339,1,120,0|2,3:2|3:2,0:0:0:0:
226,360,5387,22,0,P|228:286|224:173,2,180,6|2|0,0:2|3:2|0:0,0:0:0:0:
57,318,7126,22,0,P|44:282|42:256,1,60,4|0,0:0|3:0,0:0:0:0:
112,211,7561,2,0,L|114:78,1,120,2|2,0:0|0:0,0:0:0:0:
59,26,8213,2,0,P|113:37|198:28,1,120,0|2,3:0|3:2,0:0:0:0:
266,19,8865,21,12,0:3:0:0:
350,121,9300,1,2,0:0:0:0:
350,121,9517,1,2,3:2:0:0:
423,12,9952,1,0,3:0:0:0:
423,12,10169,1,2,0:0:0:0:
480,161,10604,6,0,L|463:285,1,120,12|10,3:2|3:2,3:2:0:0:
407,358,11256,1,8,3:2:0:0:
407,358,11474,2,0,P|341:331|267:327,1,120,10|10,3:2|3:2,3:2:0:0:
45,347,12343,38,0,L|48:273,1,60,14|8,3:2|3:2,3:2:0:0:
133,252,12778,2,0,L|136:178,1,60,10|10,3:2|3:2,3:2:0:0:
118,102,13213,2,0,L|190:98,1,60,10|8,3:2|3:2,0:0:0:0:
245,38,13648,2,0,L|317:34,1,60,8|8,3:2|3:2,3:2:0:0:
256,192,14083,12,4,15822,3:1:0:0:
81,131,17561,22,0,P|59:181|76:255,2,120,4|8|8,0:0|0:3|0:3,0:0:0:0:
173,50,18865,1,8,0:3:0:0:
276,143,19300,2,0,L|418:148,1,120,12|8,0:3|0:3,0:0:0:0:
476,281,20169,2,0,L|405:277,1,60,8|2,0:3|0:0,0:0:0:0:
357,339,20604,2,0,L|286:335,1,60,8|2,0:3|0:0,0:0:0:0:
216,361,21039,38,0,L|81:365,2,120,12|8|8,0:3|0:3|0:3,0:0:0:0:
285,240,22343,1,8,0:3:0:0:
190,148,22778,2,0,L|56:156,1,120,12|10,0:3|0:3,0:0:0:0:
20,222,23430,2,0,P|31:149|34:23,1,180,2|8,0:0|0:3,0:0:0:0:
174,20,24517,21,6,0:0:0:0:
267,120,24952,1,8,0:3:0:0:
381,28,25387,2,0,P|422:52|454:134,1,120,8|8,2:3|0:3,0:0:0:0:
403,193,26039,1,2,3:2:0:0:
403,193,26256,38,0,L|399:332,1,120,12|8,0:3|0:3,0:0:0:0:
253,361,27126,1,8,0:3:0:0:
201,222,27561,1,8,0:3:0:0:
128,263,27778,1,2,3:2:0:0:
54,305,27996,6,0,P|42:242|61:162,1,120,12|8,3:2|3:2,0:0:0:0:
30,100,28648,1,8,3:2:0:0:
120,97,28865,2,0,L|194:93,1,60,8|8,3:2|3:2,0:0:0:0:
247,38,29300,2,0,L|329:33,2,60,8|8|8,3:2|3:2|3:3,0:0:0:0:
256,192,29843,12,6,31474,0:0:0:0:
251,189,32343,53,8,0:0:0:0:
251,189,32561,2,0,L|259:297,2,90,8|8|8,0:3|0:3|0:3,0:0:0:0:
291,109,33430,2,2,B|210:86|195:138|112:110,1,180,0|8,0:0|0:0,0:2:0:0:
145,332,34952,22,0,P|202:360|368:316,1,240,2|8,0:0|0:0,0:0:0:0:
384,236,36039,2,0,P|381:188|389:120,2,90,8|8|8,0:3|0:3|0:3,0:0:0:0:
465,255,36909,1,2,0:0:0:0:
466,123,37343,1,2,0:0:0:0:
466,123,37561,6,0,B|458:80|458:80|529:37,2,107.999996704102,8|8|8,0:0|0:0|0:0,0:0:0:0:
384,146,38430,6,0,B|315:172|283:104|185:145,1,180,4|8,3:2|3:0,3:0:0:0:
108,135,39300,2,0,P|121:177|118:258,1,120,8|0,3:2|3:0,3:0:0:0:
103,340,39952,21,12,3:3:0:0:
223,294,40387,1,10,3:2:0:0:
352,349,40822,1,8,3:0:0:0:
352,349,41039,2,0,L|356:215,1,120,8|8,3:2|3:2,3:0:0:0:
456,108,41909,38,0,P|429:81|291:77,1,180,6|8,3:2|3:3,3:0:0:0:
236,144,42778,2,0,L|106:139,1,120,8|0,3:2|3:0,3:0:0:0:
23,132,43430,1,14,3:3:0:0:
35,293,43865,1,14,3:0:0:0:
184,248,44300,54,0,B|339:231|266:293|384:332|450:268|432:212,1,300,8|14,3:3|0:0,0:0:0:0:
366,86,45822,1,8,0:3:0:0:
366,86,46039,1,4,0:2:0:0:
247,155,46474,1,4,0:0:0:0:
111,66,46909,1,2,0:0:0:0:
111,66,47126,6,0,P|71:85|54:192,2,143.999995605469,4|8|8,0:0|3:2|0:3,0:0:0:0:
194,102,48213,1,0,0:0:0:0:
191,193,48430,1,8,3:2:0:0:
315,332,48865,22,0,P|313:282|318:166,1,143.999995605469,2|8,0:0|0:0,0:0:0:0:
404,159,49517,2,0,P|407:87|405:15,1,143.999995605469,2|2,0:0|0:0,0:0:0:0:
251,45,50387,1,0,0:0:0:0:
251,45,50604,38,0,P|201:48|93:40,1,143.999995605469,2|8,0:0|3:2,0:0:0:0:
20,73,51256,1,2,0:0:0:0:
74,149,51474,2,0,B|95:212|36:219|71:319,1,143.999995605469,8|8,0:3|0:0,0:0:0:0:
129,355,52126,1,2,3:2:0:0:
129,355,52343,2,0,L|283:354,1,143.999995605469,8|8,3:0|0:0,0:0:0:0:
361,348,52996,21,2,0:0:0:0:
266,214,53430,1,8,0:3:0:0:
340,74,53865,2,0,L|419:68,1,71.9999978027344,2|4,0:0|0:0,0:0:0:0:
486,247,54517,38,0,L|319:257,2,143.999995605469,8|8|8,0:0|3:3|0:0,0:0:0:0:
508,157,55604,1,0,3:0:0:0:
499,69,55822,1,4,3:2:0:0:
369,157,56256,1,8,0:0:0:0:
247,52,56691,2,0,P|205:49|156:52,1,71.9999978027344,8|0,3:0|3:0,0:0:0:0:
83,40,57126,2,0,P|94:99|91:200,1,143.999995605469,8|4,0:0|0:0,0:0:0:0:
24,333,57996,22,0,L|181:326,1,143.999995605469,8|8,0:0|3:0,0:0:0:0:
356,355,58865,1,10,0:0:0:0:
331,270,59083,1,0,0:0:0:0:
366,186,59300,22,0,B|379:129|371:73|371:73,2,107.999996704102,2|2|2,3:1|3:2|3:1,0:0:0:0:
236,277,60387,2,0,P|208:232|216:130,1,143.999995605469,10|2,0:0|0:0,0:0:0:0:
160,61,61039,22,0,L|4:64,2,143.999995605469,4|8|8,0:0|3:2|0:3,0:0:0:0:
252,51,62126,1,2,0:0:0:0:
341,58,62343,1,8,3:2:0:0:
311,205,62778,6,0,P|308:245|331:354,1,143.999995605469,10|8,0:3|3:2,0:0:0:0:
427,334,63430,2,0,P|428:262|410:192,1,143.999995605469,2|2,0:0|3:2,0:0:0:0:
329,51,64300,1,2,0:0:0:0:
329,51,64517,2,0,B|286:79|246:28|174:71,1,143.999995605469,8|8,3:3|3:2,0:0:0:0:
95,51,65169,1,2,0:0:0:0:
129,138,65387,2,0,P|134:206|127:289,1,143.999995605469,8|8,0:3|3:2,0:0:0:0:
46,342,66039,1,2,0:0:0:0:
46,342,66256,6,0,P|26:293|37:193,1,143.999995605469,2|8,0:0|3:2,0:0:0:0:
11,114,66909,1,2,0:0:0:0:
155,121,67343,1,2,0:0:0:0:
281,28,67778,2,0,L|370:33,1,71.9999978027344,2|4,3:2|0:0,0:0:0:0:
422,87,68213,38,0,P|407:129|410:239,2,143.999995605469,2|2|2,0:0|3:2|3:2,0:0:0:0:
487,26,69300,1,8,3:2:0:0:
504,185,69735,6,0,L|493:339,1,143.999995605469,4|8,0:0|3:2,0:0:0:0:
412,364,70387,2,0,P|362:337|276:334,1,143.999995605469,2|2,0:0|0:0,0:0:0:0:
187,361,71039,1,8,3:2:0:0:
64,269,71474,6,0,P|32:204|133:15,1,287.999991210938,6|8,0:0|3:3,0:0:0:0:
253,83,72778,1,10,2:2:0:0:
330,29,72996,1,0,0:0:0:0:
408,85,73213,6,0,L|524:90,2,107.999996704102,4|8|8,0:0|0:3|3:0,0:0:0:0:
313,195,74300,2,0,L|320:288,1,71.9999978027344,12|8,3:0|0:0,0:0:0:0:
266,347,74735,1,8,0:0:0:0:
175,315,74952,22,0,P|143:267|140:159,1,143.999995605469,8|8,0:0|0:0,0:0:0:0:
48,51,75822,2,0,L|209:37,1,143.999995605469,8|8,0:0|0:0,0:0:0:0:
285,63,76474,1,8,0:0:0:0:
270,152,76691,1,8,3:2:0:0:
256,192,76800,12,4,78430,3:2:0:0:
205,315,80169,38,0,P|143:321|67:308,2,107.999996704102,4|4|12,0:0|0:0|0:0,0:0:0:0:
307,315,81039,2,0,P|369:321|445:308,2,107.999996704102,4|4|12,0:0|0:0|0:0,0:0:0:0:
256,245,81909,22,8,B|285:183|216:90|216:90|178:151|90:137,1,287.999991210938,8|12,3:0|3:2,3:0:0:0:
425,348,83648,54,0,P|409:288|431:161,1,180.000006866455,2|2,0:0|0:0,0:0:0:0:
248,67,85387,2,0,L|148:73,1,90.0000034332277,0|2,3:0|0:0,0:0:0:0:
117,169,86256,2,0,L|17:175,1,90.0000034332277,2|2,0:0|0:0,0:0:0:0:
