osu file format v14

[General]
AudioFilename: audio.mp3
AudioLeadIn: 0
PreviewTime: 46831
Countdown: 0
SampleSet: Soft
StackLeniency: 0.3
Mode: 0
LetterboxInBreaks: 0
WidescreenStoryboard: 1

[Editor]
DistanceSpacing: 1
BeatDivisor: 4
GridSize: 4
TimelineZoom: 1.2

[Metadata]
Title:I believe what you said (TV Size)
TitleUnicode:I believe what you said (TV Size)
Artist:Asaka
ArtistUnicode:亜咲花
Creator:Andrea
Version:Normal
Source:ひぐらしのなく頃に 業
Tags:opening Sekai Sekaii Sekai-nyan osuplayer111 gore horror Visual Novel VN anime japanese jpop j-pop Higurashi No Naku Koro Ni 2020 Gou When They Cry 07th Expansion Passione 竜騎士07 Collab Collaboration Chiyomaru Shikura 志倉 千代丸 Shinichi Yuuki 悠木 真一 New
BeatmapID:2647908
BeatmapSetID:1274360

[Difficulty]
HPDrainRate:4
CircleSize:4
OverallDifficulty:4
ApproachRate:5
SliderMultiplier:1.2
SliderTickRate:2

[Events]
//Background and Video events
Video,300,"Video.mp4"
0,0,"BG Normal.jpg",0,0
//Break Periods
//Storyboard Layer 0 (Background)
//Storyboard Layer 1 (Fail)
//Storyboard Layer 2 (Pass)
//Storyboard Layer 3 (Foreground)
//Storyboard Layer 4 (Overlay)
//Storyboard Sound Samples

[TimingPoints]
310,434.782608695652,4,2,2,50,1,0
310,-100,4,2,2,50,0,0
3788,-100,4,2,1,60,0,0
6396,-100,4,2,2,60,0,0
7157,-100,4,2,1,5,0,0
7266,-100,4,2,1,60,0,0
8570,-100,4,2,2,60,0,0
9875,-100,4,2,2,60,0,0
10636,-100,4,2,1,5,0,0
10744,-100,4,2,1,50,0,0
14223,-100,4,2,1,40,0,0
16070,-100,4,2,2,40,0,0
17483,-100,4,2,1,5,0,0
17701,-100,4,2,2,50,0,0
22483,-100,4,2,1,50,0,0
24005,-100,4,2,2,50,0,0
24657,-100,4,2,1,50,0,0
28136,-100,4,2,1,40,0,0
31614,-100,4,2,2,40,0,0
37701,-100,4,2,2,50,0,0
44005,-100,4,2,2,35,0,0
44223,-100,4,2,2,40,0,0
45853,-100,4,2,1,5,0,0
45962,-100,4,2,2,40,0,0
47266,-100,4,2,1,60,0,1
49875,-100,4,2,2,60,0,1
50092,-100,4,2,1,60,0,1
53353,-100,4,2,2,60,0,1
53788,-100,4,2,1,60,0,1
59875,-100,4,2,2,60,0,1
61070,-100,4,2,1,60,0,0
61179,-100,4,2,1,60,0,1
63788,-100,4,2,2,60,0,1
64005,-100,4,2,1,60,0,1
67266,-100,4,2,2,60,0,1
67483,-100,4,2,1,60,0,1
70744,-100,4,2,2,60,0,1
70962,-100,4,2,1,60,0,1
73353,-100,4,2,1,50,0,1
75092,-100,4,2,1,50,0,0
76831,-100,4,2,1,45,0,0
78136,-100,4,2,2,45,0,0
79005,-100,4,2,2,40,0,0
80309,-100,4,2,2,50,0,0
82049,-100,4,2,2,40,0,0
83788,-100,4,2,2,30,0,0
85527,-100,4,2,2,20,0,0
85962,-100,4,2,2,30,0,0

[Colours]
Combo1 : 101,0,191
Combo2 : 172,122,254
SliderBorder : 101,0,191
SliderTrackOverride : 172,122,254

[HitObjects]
208,104,310,5,2,1:2:0:0:
256,72,527,1,0,0:0:0:0:
304,104,744,2,0,P|360:104|408:144,1,120,0|8,0:0|0:0,0:0:0:0:
440,196,1396,1,0,1:0:0:0:
392,304,1831,5,2,0:0:0:0:
392,304,2049,2,0,P|347:342|288:343,1,120,0|2,1:0|0:0,0:0:0:0:
236,312,2701,2,0,L|176:284,1,60,0|8,0:0|0:0,0:0:0:0:
128,260,3136,2,0,P|80:260|40:236,1,90,0|0,1:0|1:0,0:0:0:0:
48,152,3788,6,0,L|64:92,1,60,4|2,1:2|0:0,0:0:0:0:
124,84,4223,2,0,P|184:84|228:36,1,120
274,9,4875,1,2,0:0:0:0:
380,64,5309,1,2,0:0:0:0:
424,104,5527,6,0,P|444:160|424:216,1,120
380,256,6179,2,0,P|324:275|268:255,1,120,2|2,0:0|0:0,0:0:0:0:
220,220,6831,1,0,0:0:0:0:
168,112,7266,6,0,P|112:92|56:111,2,120,4|0|0,1:2|0:0|0:0,0:0:0:0:
228,104,8353,2,0,L|344:48,1,120,2|2,0:0|0:0,0:0:0:0:
388,24,9005,5,0,0:0:0:0:
456,124,9440,1,0,0:0:0:0:
456,124,9657,2,0,P|476:180|456:236,1,120,2|2,1:2|0:0,0:0:0:0:
412,276,10309,1,0,0:0:0:0:
312,340,10744,6,0,P|256:359|200:339,1,120,4|8,1:2|1:0,0:0:0:0:
112,260,11614,1,0,1:0:0:0:
112,140,12049,1,8,1:0:0:0:
196,56,12483,5,0,1:0:0:0:
316,56,12918,1,8,1:0:0:0:
400,140,13353,1,0,1:0:0:0:
400,260,13788,1,8,1:0:0:0:
316,328,14223,5,8,1:0:0:0:
256,328,14440,1,8,1:0:0:0:
196,328,14657,2,0,P|132:328|88:292,1,120,8|8,1:0|1:0,0:0:0:0:
48,252,15309,1,8,1:0:0:0:
48,132,15744,5,8,1:0:0:0:
48,132,15962,2,0,B|104:56|212:56|212:56|384:56,1,360,4|0,1:2|0:0,0:0:0:0:
480,128,17701,6,0,P|504:184|480:236,1,120,4|2,1:2|3:0,0:0:0:0:
412,332,18570,2,0,P|358:354|305:330,1,120,0|2,3:0|3:0,0:0:0:0:
256,296,19223,1,0,0:0:0:0:
206,330,19440,6,0,P|153:354|100:332,1,120,0|2,3:0|3:0,0:0:0:0:
52,296,20092,1,0,0:0:0:0:
24,180,20527,1,0,0:0:0:0:
24,180,20744,6,0,L|88:76,1,120,2|0,3:0|3:0,0:0:0:0:
196,28,21614,1,2,3:0:0:0:
316,28,22049,2,0,P|396:28|468:96,1,180,0|0,3:0|0:0,0:0:0:0:
480,152,22918,5,0,3:0:0:0:
408,248,23353,2,0,L|368:296,1,60,2|0,3:0|0:0,0:0:0:0:
328,336,23788,2,0,P|264:336|220:304,1,120,0|2,3:0|3:0,0:0:0:0:
144,212,24657,5,4,1:2:0:0:
108,164,24875,1,2,0:0:0:0:
76,112,25092,2,0,B|92:68|140:68|140:68|184:68,1,120,0|0,3:0|3:0,0:0:0:0:
296,68,25962,2,0,L|356:68,1,60,0|2,3:0|0:0,0:0:0:0:
416,68,26396,6,0,B|460:84|460:132|460:132|460:176,1,120,0|0,3:0|3:0,0:0:0:0:
460,228,27049,1,2,0:0:0:0:
356,288,27483,2,0,L|296:320,1,60,2|0,0:0|3:0,0:0:0:0:
256,352,27918,1,2,0:0:0:0:
209,316,28136,6,0,P|149:316|105:272,1,120,8|0,1:0|1:0,0:0:0:0:
100,156,29005,2,0,P|160:156|204:200,1,120,8|0,1:0|1:0,0:0:0:0:
315,235,29875,6,0,L|375:235,1,60,8|8,1:0|1:0,0:0:0:0:
434,235,30309,1,8,1:0:0:0:
496,132,30744,1,8,1:0:0:0:
434,29,31179,1,8,1:0:0:0:
372,132,31614,6,0,B|312:132|312:132|256:108|256:108|196:108,1,180,4|2,1:2|0:0,0:0:0:0:
136,108,32483,1,8,0:0:0:0:
52,196,32918,1,2,0:0:0:0:
52,196,33136,2,0,P|27:249|50:302,2,120,0|2|2,0:0|0:0|0:0,0:0:0:0:
320,328,35092,6,0,P|400:328|472:256,1,180,0|2,1:0|0:0,0:0:0:0:
448,208,35962,2,0,L|388:100,1,120,8|0,0:0|0:0,0:0:0:0:
360,52,36614,5,2,0:0:0:0:
256,116,37049,1,0,0:0:0:0:
152,52,37483,1,2,0:0:0:0:
152,52,37701,2,0,P|108:52|72:80,2,90,8|8|8,1:0|1:0|1:0,0:0:0:0:
168,108,38570,6,0,B|183:165|183:165|227:207|227:207|243:265,1,180,4|0,1:2|1:0,0:0:0:0:
264,320,39440,1,8,1:0:0:0:
384,320,39875,1,2,0:0:0:0:
384,320,40092,2,0,P|444:320|480:272,1,120,0|0,1:0|1:0,0:0:0:0:
456,220,40744,6,0,L|424:160,1,60,2|0,0:0|1:0,0:0:0:0:
396,116,41179,1,8,1:0:0:0:
312,28,41614,1,2,0:0:0:0:
256,52,41831,1,0,0:0:0:0:
200,28,42049,6,0,B|160:28|160:28|124:40|124:40|80:40,1,120,0|2,1:0|0:0,0:0:0:0:
48,88,42701,2,0,B|48:130|48:130|60:166|60:166|60:206,1,120,0|2,1:0|0:0,0:0:0:0:
60,268,43353,1,0,0:0:0:0:
60,268,43570,1,0,1:0:0:0:
160,336,44005,6,0,P|213:360|266:337,1,120,8|8,1:3|1:0,0:0:0:0:
312,300,44657,2,0,P|365:277|418:301,1,120,8|8,0:3|0:3,0:0:0:0:
488,204,45527,5,4,1:2:0:0:
416,108,45962,1,8,1:0:0:0:
416,108,46179,1,4,1:2:0:0:
344,12,46614,1,4,1:2:0:0:
272,108,47049,1,2,0:0:0:0:
272,108,47266,6,0,P|212:108|164:148,1,120,4|8,1:2|1:0,0:0:0:0:
132,192,47918,1,2,0:0:0:0:
166,240,48136,2,0,P|213:276|272:276,1,120,0|8,1:0|1:0,0:0:0:0:
392,272,49005,5,0,1:0:0:0:
484,196,49440,1,8,1:0:0:0:
484,196,49657,2,0,B|466:157|466:157|440:130|440:130|423:94,1,120,2|2,0:0|0:0,0:0:0:0:
392,44,50309,2,0,L|328:44,1,60,8|2,1:0|0:0,0:0:0:0:
272,44,50744,6,0,P|208:44|164:80,1,120,0|8,1:0|1:0,0:0:0:0:
124,120,51396,1,2,0:0:0:0:
124,120,51614,2,0,L|188:236,1,120,0|8,1:0|1:0,0:0:0:0:
256,320,52483,5,0,1:0:0:0:
330,225,52918,1,8,1:0:0:0:
330,225,53136,2,0,L|388:120,1,120,2|2,0:0|1:2,0:0:0:0:
416,68,53788,1,8,1:0:0:0:
484,168,54223,6,0,L|426:273,1,120,4|8,1:2|1:0,0:0:0:0:
396,324,54875,1,2,0:0:0:0:
396,324,55092,2,0,P|343:348|289:325,1,120,0|8,1:0|1:0,0:0:0:0:
200,248,55962,5,4,1:2:0:0:
108,168,56396,2,0,L|108:100,1,60,8|2,1:0|0:0,0:0:0:0:
148,64,56831,2,0,P|201:41|254:65,1,120,0|8,1:0|1:0,0:0:0:0:
336,152,57701,6,0,P|388:176|442:153,1,120,4|8,1:2|1:0,0:0:0:0:
488,192,58353,1,2,0:0:0:0:
488,192,58570,2,0,L|488:316,1,120,0|8,1:0|1:0,0:0:0:0:
372,348,59440,6,0,P|324:348|288:320,2,90,8|8|2,1:0|1:0|1:2,0:0:0:0:
448,256,60527,2,0,L|484:204,2,60,2|8|2,1:2|1:0|1:2,0:0:0:0:
392,232,61179,6,0,P|356:232|300:176,1,120,4|8,1:2|1:0,0:0:0:0:
256,132,61831,1,2,0:0:0:0:
212,175,62049,2,0,P|177:222|120:232,1,120,0|8,1:0|1:0,0:0:0:0:
60,128,62918,6,0,P|94:80|152:71,1,120,0|8,1:0|1:0,0:0:0:0:
212,72,63570,2,0,P|269:62|304:15,1,120,2|2,0:0|0:0,0:0:0:0:
424,12,64440,1,2,0:0:0:0:
424,12,64657,6,0,B|441:48|441:48|467:75|467:75|485:114,1,120,0|8,1:0|1:0,0:0:0:0:
508,168,65309,1,2,0:0:0:0:
456,196,65527,2,0,B|420:213|420:213|393:239|393:239|354:257,1,120,0|8,1:0|1:0,0:0:0:0:
256,324,66396,5,0,1:0:0:0:
158,257,66831,1,8,1:0:0:0:
158,257,67049,2,0,B|119:239|119:239|92:213|92:213|56:196,1,120,2|2,0:0|1:2,0:0:0:0:
4,168,67701,2,0,L|36:104,1,60,8|2,1:0|0:0,0:0:0:0:
56,60,68136,5,4,1:2:0:0:
156,128,68570,1,8,1:0:0:0:
256,60,69005,1,0,1:0:0:0:
308,32,69223,1,2,0:0:0:0:
360,60,69440,6,0,P|424:60|468:96,1,120,8|4,1:0|1:2,0:0:0:0:
424,208,70309,1,8,1:0:0:0:
424,208,70527,2,0,P|360:208|316:172,1,120,2|2,0:0|0:0,0:0:0:0:
276,132,71179,1,8,1:0:0:0:
196,44,71614,6,0,L|136:44,1,60,4|2,1:2|0:0,0:0:0:0:
96,88,72049,2,0,B|79:124|79:124|53:151|53:151|35:190,1,120,8|0,1:0|1:0,0:0:0:0:
108,284,72918,1,8,1:0:0:0:
156,320,73136,1,2,0:0:0:0:
204,284,73353,6,0,B|221:248|221:248|247:221|247:221|265:182,1,120,8|8,1:0|1:0,0:0:0:0:
308,68,74223,2,0,B|336:32|372:32|372:32|424:32,1,120,0|8,1:0|1:0,0:0:0:0:
464,68,74875,1,8,1:0:0:0:
464,68,75092,6,0,B|500:96|500:132|500:132|500:184,1,120,4|8,1:2|1:0,0:0:0:0:
432,272,75962,1,8,1:0:0:0:
344,352,76396,1,8,1:0:0:0:
256,272,76831,5,8,1:0:0:0:
168,352,77266,1,8,1:0:0:0:
80,272,77701,2,0,L|16:204,2,90,8|8|8,1:0|1:0|1:0,0:0:0:0:
124,312,78570,1,4,1:2:0:0:
204,220,79005,6,0,P|256:195|310:218,1,120,2|2,0:0|0:0,0:0:0:0:
388,312,79875,1,2,0:0:0:0:
462,218,80309,6,0,L|514:145,2,90,4|2|0,1:2|1:2|1:0,0:0:0:0:
400,220,81179,2,0,L|348:293,2,90,4|2|0,1:2|1:2|1:0,0:0:0:0:
372,168,82049,1,0,1:0:0:0:
256,136,82483,1,0,1:0:0:0:
140,168,82918,1,4,1:2:0:0:
352,280,83788,5,2,0:0:0:0:
256,352,84223,1,0,0:0:0:0:
160,280,84657,2,0,P|92:192|160:104,1,240,2|0,0:0|1:0,0:0:0:0:
256,28,85962,5,2,0:0:0:0:
352,103,86396,1,2,0:0:0:0:
256,176,86831,1,2,0:0:0:0:
