osu file format v14

[General]
AudioFilename: audio.mp3
AudioLeadIn: 0
PreviewTime: 115132
Countdown: 0
SampleSet: Soft
StackLeniency: 0.9
Mode: 0
LetterboxInBreaks: 0
WidescreenStoryboard: 1

[Editor]
Bookmarks: 7360,21273,35186,49099,50838,87360,100182,101273,115186,130838,167360,174317,181273,200403,236925,250838
DistanceSpacing: 0.8
BeatDivisor: 8
GridSize: 16
TimelineZoom: 2.5

[Metadata]
Title:I believe what you said
TitleUnicode:I believe what you said
Artist:Asaka
ArtistUnicode:亜咲花
Creator:Okoratu
Version:Yudragen's Expert
Source:ひぐらしのなく頃に 業
Tags:Higurashi no Naku Koro ni Gou 2020 When the Cicadas Cry anime opening op 07th Expansion Passione Maebara Keiichi Sonozaki Mion Shion Ryuugu Rena Houjou Satoko Satoshi Furude Rika Hanyuu Okorin Electronic Japanese Pop Spkz Yudragen Anime
BeatmapID:2824130
BeatmapSetID:1294563

[Difficulty]
HPDrainRate:5.5
CircleSize:4.4
OverallDifficulty:8
ApproachRate:9.3
SliderMultiplier:1.56
SliderTickRate:1

[Events]
//Background and Video events
0,0,"behgeh3.jpg",0,0
//Break Periods
//Storyboard Layer 0 (Background)
//Storyboard Layer 1 (Fail)
//Storyboard Layer 2 (Pass)
//Storyboard Layer 3 (Foreground)
//Storyboard Layer 4 (Overlay)
//Storyboard Sound Samples

[TimingPoints]
400,434.782608695652,4,2,1,50,1,0
1160,-100,4,2,2,50,0,0
1378,-100,4,2,1,50,0,0
2899,-100,4,2,2,50,0,0
3117,-100,4,2,1,50,0,0
3443,-100,4,2,1,40,0,0
3878,-100,4,2,1,50,0,0
4639,-100,4,2,2,50,0,0
4856,-100,4,2,1,50,0,0
6378,-100,4,2,2,50,0,0
6595,-100,4,2,1,60,0,0
6867,-100,4,2,1,20,0,0
7030,-33.3333333333333,4,2,1,60,0,0
7139,-33.3333333333333,4,2,1,20,0,0
7356,-71.4285714285714,4,2,1,60,0,0
14313,-57.1428571428571,4,2,1,70,0,0
17791,-52.6315789473684,4,2,1,70,0,0
19530,-111.111111111111,4,2,1,70,0,0
21160,-111.111111111111,4,2,1,5,0,0
21269,-111.111111111111,4,2,1,55,0,0
28226,-80,4,2,1,55,0,0
31704,-52.6315789473684,4,2,1,70,0,0
35182,-125,4,2,1,80,0,0
35291,-125,4,2,1,50,0,0
35943,-125,4,2,2,50,0,0
36160,-125,4,2,1,50,0,0
37736,-125,4,2,2,50,0,0
37845,-125,4,2,1,50,0,0
38932,-125,4,2,1,5,0,0
39041,-125,4,2,1,50,0,0
39476,-125,4,2,2,50,0,0
39584,-125,4,2,1,50,0,0
41269,-50,4,2,1,70,0,0
42139,-71.4285714285714,4,2,1,60,0,0
47139,-71.4285714285714,4,2,1,70,0,0
48334,-62.5,4,2,1,70,0,0
49095,-58.8235294117647,4,2,1,70,0,0
49204,-58.8235294117647,4,2,1,60,0,0
50182,-100,4,2,1,60,0,0
50834,-52.6315789473684,4,2,1,80,0,1
63008,-47.6190476190476,4,2,1,80,0,1
64747,-52.6315789473684,4,2,1,80,0,1
76921,-47.6190476190476,4,2,1,80,0,1
78660,-43.4782608695652,4,2,1,80,0,1
80345,-43.4782608695652,4,2,1,70,0,1
82139,-111.111111111111,4,2,1,70,0,0
82247,-111.111111111111,4,2,1,50,0,0
83878,-55.5555555555556,4,2,1,80,0,0
85563,-55.5555555555556,4,2,1,50,0,0
86486,-55.5555555555556,4,2,1,80,0,0
87356,-80,4,2,1,80,0,0
87573,-80,4,2,1,60,0,0
90834,-80,4,2,1,60,0,0
94313,-71.4285714285714,4,2,1,50,0,0
99476,-71.4285714285714,4,2,1,30,0,0
99639,-71.4285714285714,4,2,1,40,0,0
99856,-71.4285714285714,4,2,1,50,0,0
100073,-71.4285714285714,4,2,1,55,0,0
100291,-71.4285714285714,4,2,1,60,0,0
100508,-71.4285714285714,4,2,1,65,0,0
100726,-71.4285714285714,4,2,1,70,0,0
100943,-71.4285714285714,4,2,1,75,0,0
101269,-83.3333333333333,4,2,1,70,0,0
101378,-83.3333333333333,4,2,1,50,0,0
108226,-66.6666666666667,4,2,1,60,0,0
111649,-66.6666666666667,4,2,1,70,0,0
111704,-52.6315789473684,4,2,1,70,0,0
115182,-71.4285714285714,4,2,1,70,0,0
115617,-71.4285714285714,4,2,1,60,0,0
121269,-50,4,2,1,70,0,0
122139,-66.6666666666667,4,2,1,60,0,0
128334,-55.5555555555556,4,2,1,60,0,0
130617,-76.9230769230769,4,2,1,60,0,0
130834,-52.6315789473684,4,2,1,80,0,1
143008,-47.6190476190476,4,2,1,80,0,1
144747,-52.6315789473684,4,2,1,80,0,1
156921,-47.6190476190476,4,2,1,80,0,1
158660,-43.4782608695652,4,2,1,80,0,1
160345,-43.4782608695652,4,2,1,70,0,1
162139,-111.111111111111,4,2,1,70,0,0
162247,-111.111111111111,4,2,1,50,0,0
163878,-55.5555555555556,4,2,1,80,0,0
165563,-55.5555555555556,4,2,1,50,0,0
166486,-55.5555555555556,4,2,1,80,0,0
167356,-142.857142857143,4,2,1,80,0,0
168226,-38.4615384615385,4,2,1,80,0,0
168878,-250,4,2,1,80,0,0
169313,-41.6666666666667,4,2,1,80,0,0
170182,-38.4615384615385,4,2,1,80,0,0
170834,-166.666666666667,4,2,1,80,0,0
171704,-38.4615384615385,4,2,1,80,0,0
172139,-45.4545454545455,4,2,1,80,0,0
173226,-38.4615384615385,4,2,1,80,0,0
173660,-33.3333333333333,4,2,1,70,0,0
174313,-62.5,4,2,1,70,0,0
174747,-100,4,2,1,70,0,0
175182,-38.4615384615385,4,2,1,60,0,0
175399,-38.4615384615385,4,2,2,30,0,0
175834,-62.5,4,2,1,70,0,0
176704,-38.4615384615385,4,2,1,70,0,0
176921,-166.666666666667,4,2,1,70,0,0
177139,-166.666666666667,4,2,1,70,0,0
177791,-62.5,4,2,1,70,0,0
178226,-90.9090909090909,4,2,1,70,0,0
178660,-38.4615384615385,4,2,1,70,0,0
179095,-166.666666666667,4,2,1,70,0,0
179530,-500,4,2,1,70,0,0
179965,-62.5,4,2,1,70,0,0
180182,-62.5,4,2,1,60,0,0
180617,-33.3333333333333,4,2,1,60,0,0
181269,-62.5,4,2,1,60,0,0
181323,-62.5,4,2,2,40,0,0
181486,-55.5555555555556,4,2,2,40,0,0
182030,-55.5555555555556,4,2,1,60,0,0
182356,-83.3333333333333,4,2,1,60,0,0
182791,-50,4,2,1,60,0,0
183008,-38.4615384615385,4,2,1,60,0,0
183878,-62.5,4,2,1,60,0,0
184095,-55.5555555555556,4,2,1,60,0,0
184149,-55.5555555555556,4,2,1,30,0,0
184204,-55.5555555555556,4,2,1,60,0,0
184258,-55.5555555555556,4,2,1,30,0,0
184313,-55.5555555555556,4,2,1,60,0,0
184367,-55.5555555555556,4,2,1,30,0,0
184422,-55.5555555555556,4,2,1,60,0,0
184476,-55.5555555555556,4,2,1,30,0,0
184531,-55.5555555555556,4,2,1,60,0,0
184584,-55.5555555555556,4,2,1,30,0,0
184639,-55.5555555555556,4,2,1,60,0,0
184693,-55.5555555555556,4,2,1,30,0,0
184747,-62.5,4,2,1,60,0,0
184964,-55.5555555555556,4,2,1,60,0,0
185834,-166.666666666667,4,2,1,60,0,0
186486,-38.4615384615385,4,2,1,60,0,0
187573,-45.4545454545455,4,2,1,60,0,0
188226,-62.5,4,2,1,60,0,0
188443,-55.5555555555556,4,2,1,60,0,0
188878,-83.3333333333333,4,2,1,60,0,0
189965,-38.4615384615385,4,2,1,60,0,0
191052,-62.5,4,2,1,60,0,0
191106,-62.5,4,2,1,30,0,0
191161,-62.5,4,2,1,60,0,0
191215,-62.5,4,2,1,30,0,0
191270,-62.5,4,2,1,60,0,0
191323,-62.5,4,2,1,30,0,0
191378,-62.5,4,2,1,60,0,0
191432,-62.5,4,2,1,30,0,0
191487,-62.5,4,2,1,60,0,0
191541,-62.5,4,2,1,30,0,0
191596,-62.5,4,2,1,60,0,0
191649,-62.5,4,2,1,30,0,0
191704,-50,4,2,1,70,0,0
192573,-66.6666666666667,4,2,1,70,0,0
193443,-40,4,2,1,70,0,0
194584,-40,4,2,1,20,0,0
194639,-40,4,2,1,70,0,0
194693,-40,4,2,1,20,0,0
194748,-40,4,2,1,70,0,0
194802,-40,4,2,1,20,0,0
194857,-40,4,2,1,70,0,0
194910,-40,4,2,1,20,0,0
194965,-40,4,2,1,70,0,0
195019,-40,4,2,1,20,0,0
195074,-40,4,2,1,70,0,0
195128,-40,4,2,1,20,0,0
195182,-47.6190476190476,4,2,1,60,0,0
197030,-43.4782608695652,4,2,1,60,0,0
197356,-41.6666666666667,4,2,1,60,0,0
197682,-40,4,2,1,60,0,0
198008,-38.4615384615385,4,2,1,60,0,0
198226,-37.037037037037,4,2,1,60,0,0
198660,-142.857142857143,4,2,1,60,0,0
200399,-100,4,2,1,40,0,0
207356,-68.9655172413793,4,2,1,60,0,0
210834,-60.6060606060606,4,2,1,70,0,0
212573,-47.6190476190476,4,2,1,70,0,0
213660,-43.4782608695652,4,2,1,70,0,0
214095,-86.9565217391304,4,2,1,70,0,0
214313,-86.9565217391304,4,2,1,50,0,0
214747,-50,4,2,1,80,0,1
226486,-45.4545454545455,4,2,1,80,0,1
228226,-41.6666666666667,4,2,1,80,0,1
229910,-41.6666666666667,4,2,1,70,0,1
231704,-100,4,2,1,70,0,0
231813,-100,4,2,1,50,0,0
233443,-52.6315789473684,4,2,1,80,0,0
235073,-52.6315789473684,4,2,1,50,0,0
236052,-52.6315789473684,4,2,1,80,0,0
236921,-71.4285714285714,4,2,1,60,0,0
240399,-66.6666666666667,4,2,1,60,0,0
243878,-55.5555555555556,4,2,1,70,0,0
247356,-50,4,2,1,70,0,0
249095,-111.111111111111,4,2,1,70,0,0
250780,-111.111111111111,4,2,1,5,0,0
250834,-100,4,2,1,30,0,0
251649,-100,4,2,2,30,0,0
251758,-100,4,2,1,30,0,0
253389,-100,4,2,2,30,0,0
253497,-100,4,2,1,30,0,0
255128,-100,4,2,2,30,0,0
255236,-100,4,2,1,30,0,0
256867,-100,4,2,2,30,0,0
256976,-100,4,2,1,30,0,0

[Colours]
Combo1 : 121,104,191
Combo2 : 240,220,79
Combo3 : 79,202,91
Combo4 : 233,63,63

[HitObjects]
87,81,400,5,0,1:0:0:0:
104,93,617,1,0,0:0:0:0:
106,109,834,1,2,0:0:0:0:
64,173,1269,1,8,0:0:0:0:
49,164,1486,1,8,3:3:0:0:
4,232,1921,5,0,0:0:0:0:
16,251,2139,2,0,P|64:264|131:286,1,117,2|2,1:1|0:0,0:0:0:0:
209,259,2573,1,2,3:2:0:0:
229,267,2791,1,2,0:0:0:0:
297,311,3226,1,8,1:3:0:0:
303,331,3443,2,0,P|346:301|338:243,1,117,2|0,0:1|0:0,0:0:0:0:
291,184,3878,5,0,1:0:0:0:
302,155,4095,1,2,0:0:0:0:
328,148,4313,1,0,0:0:0:0:
410,127,4747,1,8,0:0:0:0:
435,142,4965,1,8,3:3:0:0:
505,191,5399,1,2,0:0:0:0:
508,218,5617,2,0,P|493:258|483:301,1,78,2|0,0:0|0:0,0:0:0:0:
399,362,6052,1,0,0:0:0:0:
402,335,6270,2,0,P|387:295|377:252,1,78,2|8,0:0|0:0,0:0:0:0:
299,202,6704,6,0,P|272:210|301:214,1,78,8|0,1:3|0:0,0:0:0:0:
301,227,7030,6,0,P|271:226|308:216,1,117.000004463196,8|0,1:3|0:0,0:0:0:0:
488,81,7356,5,4,0:0:0:0:
417,30,7573,1,0,3:0:0:0:
417,30,7682,1,0,3:3:0:0:
417,30,7791,2,0,P|405:96|400:144,1,109.199996667481,2|0,0:0|3:0,0:0:0:0:
249,311,8226,2,0,P|243:283|267:248,1,54.5999983337403,2|0,0:0|0:0,0:0:0:0:
315,214,8443,2,0,B|383:241|340:245|408:269,1,109.199996667481,2|2,0:0|3:0,0:0:0:0:
255,111,8878,5,2,0:0:0:0:
255,111,8986,1,0,0:0:0:0:
255,111,9095,2,0,P|164:146|97:166,1,163.799995001221,6|0,1:3|3:0,0:0:0:0:
192,265,9530,2,0,B|206:240|206:240|183:216,1,54.5999983337403,2|0,0:0|0:0,0:0:0:0:
38,299,9747,2,0,P|116:323|192:353,1,163.799995001221,2|0,0:0|0:0,0:0:0:0:
423,221,10182,2,0,P|405:276|396:322,1,54.5999983337403
347,355,10399,2,0,P|323:277|293:201,1,163.799995001221,2|0,0:0|3:3,0:0:0:0:
168,74,10834,6,0,B|187:108|203:148|203:148|235:121|278:96,1,163.799995001221,4|0,0:0|0:0,0:0:0:0:
243,31,11269,1,2,0:0:0:0:
243,31,11378,1,0,0:0:0:0:
243,31,11486,1,2,3:0:0:0:
100,138,11704,2,0,P|64:154|33:172,1,54.5999983337403,2|0,0:0|0:0,0:0:0:0:
11,229,11921,2,0,P|38:327|45:360,1,109.199996667481,2|2,3:2|1:2,0:0:0:0:
222,299,12356,2,0,P|225:269|202:244,1,54.5999983337403,2|0,3:0|3:0,0:0:0:0:
166,346,12573,6,0,P|221:316|326:290,1,163.799995001221,4|0,1:3|3:0,0:0:0:0:
405,299,13008,2,0,P|396:324|382:348,1,54.5999983337403,2|0,0:0|0:0,0:0:0:0:
310,203,13226,2,0,B|360:104|293:147|349:38,1,163.799995001221,2|0,3:2|0:0,0:0:0:0:
291,0,13660,1,2,3:2:0:0:
461,143,13878,2,0,P|437:131|412:121,2,54.5999983337403,2|0|0,1:2|0:0|3:0,0:0:0:0:
107,171,14313,6,0,L|86:75,1,68.2500006508827,12|0,3:2|3:2,3:2:0:0:
170,93,14530,2,0,L|184:159,1,68.2500006508827,8|0,3:2|3:2,3:2:0:0:
60,243,14747,2,0,P|142:266|216:287,1,136.500001301765,10|8,3:2|3:2,3:2:0:0:
324,247,15073,5,0,3:2:0:0:
316,254,15182,2,0,P|300:223|310:182,1,68.2500006508827,10|0,3:2|3:2,3:2:0:0:
383,187,15399,2,0,P|363:274|346:359,1,136.500001301765,10|10,3:2|1:2,3:2:0:0:
505,289,15726,5,0,3:2:0:0:
512,281,15834,2,0,P|490:262|431:282,1,68.2500006508827,10|0,3:2|3:2,3:2:0:0:
273,371,16052,2,0,B|176:340|257:326|141:290,1,136.500001301765,14|8,3:2|3:2,3:2:0:0:
17,228,16378,5,0,3:2:0:0:
27,240,16486,2,0,P|42:306|51:346,1,68.2500006508827,10|0,3:2|3:2,3:2:0:0:
116,213,16704,2,0,B|151:169|151:169|109:73,1,136.500001301765,10|10,3:2|3:2,3:2:0:0:
190,34,17030,5,0,0:0:0:0:
199,22,17139,2,0,L|265:47,1,68.2500006508827,8|0,3:2|3:2,3:2:0:0:
405,43,17356,2,0,P|365:58|369:186,1,136.500001301765,10|8,3:2|3:2,3:2:0:0:
336,140,17791,6,0,P|378:122|458:112,1,74.0999980213166,12|8,3:2|3:2,0:0:0:0:
320,258,18008,2,0,P|300:302|296:349,1,74.0999980213166,8|8,3:0|3:0,0:0:0:0:
226,193,18226,2,0,P|211:144|219:94,1,74.0999980213166,10|8,3:2|3:2,0:0:0:0:
41,341,18443,1,8,3:0:0:0:
62,271,18552,1,8,3:0:0:0:
134,258,18660,2,0,P|154:302|158:349,1,74.0999980213166,8|2,3:2|3:0,0:0:0:0:
40,175,18878,2,0,P|40:126|56:82,1,74.0999980213166,8|2,3:2|3:0,0:0:0:0:
214,0,19095,6,0,L|225:46,3,37.0499990106583,2|8|8|8,1:2|3:2|3:2|3:3,3:0:0:0:
134,90,19313,2,0,L|142:53,3,37.0499990106583,8|8|0|0,3:2|3:2|3:0|0:0,0:0:0:0:
190,162,19530,6,2,B|256:100|341:169|341:169|336:176|336:176|424:257|496:221|521:147|505:91|474:65|420:50|389:63|368:98,1,544.049983396912,2|0,3:2|0:0,0:0:0:0:
379,97,21269,5,4,0:0:0:0:
268,42,21704,1,8,0:3:0:0:
203,115,22030,1,8,0:3:0:0:
188,109,22139,1,8,0:3:0:0:
129,163,22356,1,2,0:0:0:0:
48,167,22573,1,8,0:3:0:0:
33,159,22682,1,0,0:0:0:0:
0,255,22899,5,0,0:0:0:0:
15,246,23008,1,10,0:3:0:0:
94,258,23226,1,2,0:0:0:0:
131,327,23443,1,8,0:3:0:0:
34,379,23769,1,8,0:3:0:0:
43,365,23878,1,8,0:3:0:0:
112,319,24095,1,2,0:0:0:0:
193,335,24313,1,8,0:3:0:0:
204,348,24421,1,0,0:0:0:0:
278,381,24639,5,0,0:0:0:0:
288,367,24747,1,10,1:3:0:0:
381,290,25182,1,8,0:3:0:0:
332,215,25508,1,8,0:3:0:0:
341,203,25617,1,8,0:3:0:0:
367,132,25834,1,2,0:0:0:0:
317,78,26052,1,8,0:3:0:0:
300,71,26160,1,0,0:0:0:0:
234,32,26378,5,0,0:0:0:0:
223,45,26486,1,10,1:3:0:0:
97,94,26921,1,8,0:3:0:0:
62,163,27139,1,2,0:0:0:0:
105,85,27356,2,0,P|157:103|181:202,1,140.399995715332,8|10,1:3|1:3,0:0:0:0:
177,190,27899,1,0,0:0:0:0:
62,321,28117,5,0,3:0:0:0:
74,331,28226,2,0,P|135:306|189:297,1,97.5,4|2,0:0|3:2,0:0:0:0:
314,201,28660,2,0,P|306:237|295:274,1,48.75,8|0,3:0|0:0,0:0:0:0:
396,304,28878,2,0,P|389:280|384:256,1,48.75,0|8,0:0|0:3,0:0:0:0:
252,147,29095,1,8,3:3:0:0:
422,81,29313,1,2,0:0:0:0:
239,160,29530,1,8,0:3:0:0:
317,13,29747,6,0,P|269:28|190:52,1,97.5,2|10,3:2|0:3,0:0:0:0:
153,92,30073,1,0,0:0:0:0:
139,81,30182,2,0,P|129:51|116:18,1,48.75,2|0,3:2|0:0,0:0:0:0:
59,117,30399,2,0,P|49:147|36:180,1,48.75,8|0,0:3|0:0,0:0:0:0:
91,243,30617,1,0,0:0:0:0:
91,243,30726,1,8,0:3:0:0:
91,243,30834,1,10,0:3:0:0:
39,369,31052,2,0,P|32:343|43:313,1,48.75,2|0,3:2|0:0,0:0:0:0:
181,258,31269,2,0,P|164:306|154:340,1,48.75,8|0,0:3|0:0,0:0:0:0:
203,376,31486,1,2,3:2:0:0:
430,186,31704,6,0,L|345:155,1,74.0999980213166,12|0,3:2|3:2,3:2:0:0:
206,88,31921,2,0,P|250:72|297:47,1,74.0999980213166,10|0,3:2|3:2,3:2:0:0:
327,291,32139,2,0,P|308:343|305:411,1,74.0999980213166,8|0,3:2|3:2,3:2:0:0:
95,216,32356,2,0,P|85:181|109:145,1,74.0999980213166,8|0,3:2|3:2,3:2:0:0:
276,200,32573,2,0,P|221:203|200:313,2,148.199996042633,10|8|8,3:2|3:2|3:2,3:2:0:0:
400,124,33117,1,0,3:2:0:0:
388,113,33226,2,0,P|372:173|362:213,1,74.0999980213166,10|0,3:2|3:2,3:2:0:0:
474,384,33443,5,14,3:2:0:0:
487,317,33551,1,0,1:0:0:0:
441,267,33660,1,10,3:2:0:0:
374,274,33769,1,0,1:0:0:0:
338,335,33878,1,10,1:3:0:0:
270,342,33987,1,8,3:2:0:0:
225,292,34096,1,2,1:2:0:0:
238,226,34204,1,10,3:2:0:0:
299,190,34313,5,8,1:3:0:0:
293,224,34421,1,0,1:0:0:0:
287,258,34530,1,2,1:2:0:0:
281,292,34639,1,2,1:2:0:0:
274,325,34747,2,0,L|233:307,3,37.0499990106583,0|0|0|0,1:0|1:0|1:0|1:0,1:0:0:0:
179,358,34965,2,0,L|144:374,3,37.0499990106583,0|0|0|0,1:0|1:0|1:0|0:0,0:0:0:0:
71,333,35182,5,4,0:0:0:0:
71,333,35399,2,0,P|85:276|105:191,1,124.8,0|2,0:0|0:0,0:0:0:0:
167,156,36052,1,8,0:0:0:0:
110,102,36269,2,0,P|94:69|31:44,2,93.6,8|8|8,3:0|3:0|3:0,0:0:0:0:
240,206,37139,2,2,P|286:188|362:162,1,124.8,0|0,0:2|0:2,0:2:0:0:
409,101,37791,5,8,0:0:0:0:
479,173,38008,1,8,0:3:0:0:
427,277,38334,1,8,0:3:0:0:
291,302,38660,6,0,B|237:294|199:330|205:331|212:332|171:382|104:372,1,187.2,2|0,0:0|3:0,0:0:0:0:
56,340,39530,1,8,0:0:0:0:
100,273,39747,2,0,P|113:213|123:168,2,93.6,8|0|8,3:0|3:0|3:0,0:0:0:0:
31,192,40617,2,2,P|24:143|92:98,1,124.8,2|0,0:0|0:0,0:0:0:0:
282,37,41269,6,0,P|257:107|248:148,1,78,8|0,0:0|0:0,0:0:0:0:
427,186,41486,1,8,3:0:0:0:
370,230,41595,2,0,P|355:193|344:156,1,78,8|0,0:0|0:0,0:0:0:0:
512,60,41813,1,8,3:3:0:0:
455,16,41922,2,0,P|440:52|429:89,1,78,8|0,0:0|0:0,0:0:0:0:
247,242,42139,6,0,B|200:208|167:171|167:171|151:229|126:290,1,218.399993334961,12|0,3:2|3:0,3:0:0:0:
58,325,42682,1,0,3:0:0:0:
49,315,42791,2,0,P|41:281|42:241,1,54.5999983337403,8|0,1:3|3:0,0:0:0:0:
205,330,43008,2,0,P|273:341|388:386,1,163.799995001221,8|0,1:2|3:0,3:0:0:0:
441,342,43443,2,0,P|449:308|448:268,1,54.5999983337403,2|0,3:2|2:0,3:0:0:0:
375,168,43660,2,0,B|346:202|346:202|376:296,1,109.199996667481,8|2,3:0|3:0,3:0:0:0:
502,90,44095,6,0,P|432:71|364:52,1,109.199996667481,8|2,3:2|3:2,3:0:0:0:
219,125,44530,1,0,1:0:0:0:
157,92,44639,1,0,3:0:0:0:
194,34,44747,2,0,P|208:120|227:219,1,163.799995001221,8|0,1:2|3:2,3:0:0:0:
190,259,45182,1,2,3:0:0:0:
447,359,45399,5,2,3:2:0:0:
447,359,45508,1,0,3:2:0:0:
447,359,45617,2,0,P|457:291|369:273,1,163.799995001221,8|0,3:0|2:0,3:0:0:0:
331,331,46052,2,0,P|296:345|259:361,1,54.5999983337403,0|0,3:0|3:0,0:0:0:0:
217,263,46269,2,0,P|206:316|195:370,2,109.199996667481,0|8|2,1:0|3:2|3:2,0:0:0:0:
160,205,46813,1,0,3:0:0:0:
149,211,46921,2,0,P|132:238|127:285,1,54.5999983337403,2|0,3:2|3:0,3:0:0:0:
292,218,47139,2,0,P|284:191|269:169,1,54.5999983337403,8|0,3:0|3:0,0:0:0:0:
306,86,47356,5,2,3:0:0:0:
58,186,47573,1,14,3:0:0:0:
138,0,47791,5,0,0:0:0:0:
163,27,47899,1,8,3:0:0:0:
172,64,48008,1,8,3:0:0:0:
162,101,48117,1,8,3:0:0:0:
137,130,48226,1,2,3:0:0:0:
69,103,48334,2,0,P|51:52|51:25,1,62.4,8|8,3:2|3:0,0:0:0:0:
203,209,48552,2,0,P|238:167|261:154,1,62.4,8|0,0:3|0:0,0:0:0:0:
94,357,48769,5,8,3:0:0:0:
20,325,48878,1,8,3:0:0:0:
83,273,48986,1,0,1:0:0:0:
158,306,49095,1,4,0:0:0:0:
421,189,49531,5,8,3:0:0:0:
358,250,49639,1,8,3:0:0:0:
436,291,49748,1,4,3:2:0:0:
217,54,50182,5,12,0:2:0:0:
217,54,50617,6,0,P|227:81|232:116,1,58.5,2|0,0:0|0:0,0:0:0:0:
289,32,50834,6,2,B|218:66|246:136|254:134|260:132|305:184|226:232,1,222.29999406395,4|0,0:0|3:0,0:0:0:0:
405,362,51269,2,0,P|416:331|350:276,1,111.149997031975,8|0,3:2|0:0,0:0:0:0:
358,285,51486,2,0,P|308:305|270:326,1,74.0999980213166,2|0,0:0|0:0,0:0:0:0:
123,230,51704,2,0,P|113:191|137:145,1,74.0999980213166,2|0,1:2|0:0,0:0:0:0:
351,81,51921,2,0,P|304:65|254:152,1,148.199996042633,2|8,0:0|1:2,0:0:0:0:
394,182,52247,1,0,3:0:0:0:
405,191,52356,2,0,P|438:170|495:152,1,74.0999980213166,2|0,0:0|0:0,0:0:0:0:
409,367,52573,5,2,1:2:0:0:
351,320,52682,1,0,0:0:0:0:
278,315,52791,1,0,3:0:0:0:
215,360,52899,1,0,3:0:0:0:
144,334,53008,2,0,P|109:322|50:303,1,74.0999980213166,8|0,0:0|0:0,0:0:0:0:
213,225,53226,2,2,B|250:189|250:189|224:85,1,148.199996042633,2|0,0:0|1:0,0:0:0:0:
11,76,53552,1,0,3:0:0:0:
0,85,53660,2,2,P|36:128|159:81,1,148.199996042633,2|8,0:0|0:0,0:0:0:0:
404,57,53986,1,0,0:0:0:0:
349,12,54095,2,0,P|328:57|321:115,1,74.0999980213166,2|0,0:0|3:0,0:0:0:0:
480,327,54313,5,2,1:2:0:0:
511,262,54421,1,0,0:0:0:0:
489,193,54530,1,0,3:0:0:0:
425,159,54639,1,0,3:0:0:0:
356,178,54747,2,0,P|373:263|382:315,1,111.149997031975,8|0,3:2|0:0,0:0:0:0:
369,296,54965,2,0,P|330:297|294:260,1,74.0999980213166,2|0,0:0|0:0,0:0:0:0:
236,100,55182,2,0,P|226:136|214:170,1,74.0999980213166,2|0,1:2|3:0,0:0:0:0:
75,111,55399,2,0,P|96:182|112:255,1,148.199996042633,2|8,0:0|0:0,0:0:0:0:
12,371,55726,1,0,3:0:0:0:
1,357,55834,2,0,P|-3:322|29:279,1,74.0999980213166,2|0,0:0|0:0,0:0:0:0:
206,298,56052,6,0,P|186:368|180:404,1,74.0999980213166,2|0,1:2|3:0,0:0:0:0:
363,194,56269,2,0,P|354:158|342:122,1,74.0999980213166,0|0,3:0|3:0,0:0:0:0:
335,330,56486,2,0,P|370:343|404:359,1,74.0999980213166,10|0,3:2|0:0,0:0:0:0:
211,157,56704,2,2,P|177:172|142:185,1,74.0999980213166,2|0,0:2|0:0,0:0:0:0:
42,384,56921,1,0,1:0:0:0:
100,335,57030,1,8,1:2:0:0:
165,371,57139,2,0,P|200:359|200:252,1,148.199996042633,2|8,0:0|0:0,0:0:0:0:
58,141,57465,1,0,0:0:0:0:
47,154,57573,2,0,P|28:233|17:269,1,74.0999980213166,2|0,3:2|3:0,0:0:0:0:
309,166,57791,6,0,B|243:175|215:120|220:117|224:114|190:47|120:59,1,222.29999406395,4|0,1:2|3:0,0:0:0:0:
305,61,58226,2,0,P|349:45|393:19,1,74.0999980213166,10|0,3:2|0:0,0:0:0:0:
224,247,58443,2,0,P|268:263|312:289,1,74.0999980213166,2|0,3:2|3:0,0:0:0:0:
435,121,58660,2,0,P|411:171|401:223,1,74.0999980213166,0|0,1:2|0:0,0:0:0:0:
157,372,58878,2,0,P|136:290|85:186,1,148.199996042633,2|8,3:0|0:0,0:0:0:0:
42,142,59204,1,0,0:0:0:0:
27,157,59313,2,0,P|11:200|-5:236,1,74.0999980213166,0|0,3:0|3:0,0:0:0:0:
202,150,59530,6,0,P|191:64|133:54,1,148.199996042633,4|2,3:2|0:0,0:0:0:0:
240,256,59856,1,0,0:0:0:0:
255,246,59965,2,0,P|308:228|386:204,1,111.149997031975,8|0,3:2|0:0,0:0:0:0:
370,217,60182,2,0,P|390:177|354:130,1,74.0999980213166
330,1,60399,2,0,P|319:47|306:85,1,74.0999980213166,0|0,1:0|0:0,0:0:0:0:
493,124,60617,2,0,P|504:170|517:208,1,74.0999980213166,2|0,0:0|0:0,0:0:0:0:
378,343,60834,2,0,B|337:338|306:300|316:300|326:302|288:266|240:260,1,148.199996042633,8|2,0:0|3:2,0:0:0:0:
48,335,61160,1,0,3:0:0:0:
107,377,61269,6,0,P|136:306|117:154,1,222.29999406395,6|2,1:2|0:0,0:0:0:0:
0,0,61704,2,2,P|25:46|119:53,1,148.199996042633,8|2,0:0|0:0,0:0:0:0:
315,130,62030,1,0,0:0:0:0:
340,67,62139,2,2,P|268:66|226:124,1,148.199996042633,0|0,1:0|0:0,0:0:0:0:
400,267,62465,1,0,3:0:0:0:
347,219,62573,2,0,P|322:268|319:314,1,74.0999980213166,10|0,0:0|0:0,0:0:0:0:
448,384,62791,2,0,P|467:352|476:316,1,74.0999980213166,2|0,3:0|0:0,0:0:0:0:
148,262,63008,5,6,1:1:0:0:
90,324,63117,2,0,P|53:339|2:374,1,81.8999975006104,0|0,1:0|0:0,0:0:0:0:
71,227,63334,5,2,1:1:0:0:
183,337,63443,2,0,P|219:352|271:387,1,81.8999975006104,0|0,1:0|0:0,0:0:0:0:
403,228,63660,5,2,1:1:0:0:
331,269,63769,1,0,1:0:0:0:
277,208,63878,2,0,B|264:170|264:170|297:124,1,81.8999975006104,2|0,1:3|1:0,0:0:0:0:
472,23,64095,6,0,P|446:105|445:171,1,81.8999975006104,4|0,1:0|0:0,0:0:0:0:
169,98,64313,1,2,1:0:0:0:
116,41,64421,1,0,1:0:0:0:
47,76,64530,2,0,L|72:153,1,81.8999975006104,2|0,1:2|0:0,0:0:0:0:
185,257,64747,6,2,P|121:248|43:381,1,222.29999406395,4|0,1:2|3:0,0:0:0:0:
266,384,65182,2,0,B|293:353|293:353|280:268,1,111.149997031975,8|0,3:2|0:0,0:0:0:0:
292,275,65399,2,0,P|286:238|277:184,1,74.0999980213166,2|0,0:0|3:0,0:0:0:0:
417,67,65617,2,0,P|446:115|437:156,1,74.0999980213166,2|0,1:2|0:0,0:0:0:0:
270,81,65834,2,2,B|167:63|243:34|122:12,1,148.199996042633,2|8,0:0|0:0,0:0:0:0:
48,189,66160,1,0,3:0:0:0:
63,175,66269,2,0,P|96:159|141:146,1,74.0999980213166,2|0,3:2|0:0,0:0:0:0:
397,202,66486,5,2,1:2:0:0:
443,257,66594,1,0,0:0:0:0:
442,329,66703,1,0,0:0:0:0:
392,383,66812,1,0,3:0:0:0:
324,341,66921,2,0,P|310:307|332:256,1,74.0999980213166,10|0,3:2|0:0,0:0:0:0:
452,111,67139,2,2,P|414:159|304:127,1,148.199996042633,2|0,3:2|1:0,0:0:0:0:
173,16,67465,1,0,3:0:0:0:
186,6,67573,2,2,P|204:103|220:184,1,148.199996042633,2|8,0:0|0:0,0:0:0:0:
18,231,67899,1,0,0:0:0:0:
70,179,68008,2,0,P|104:246|102:273,1,74.0999980213166,2|0,3:2|3:0,0:0:0:0:
146,384,68226,5,2,1:2:0:0:
201,336,68334,1,0,3:0:0:0:
273,322,68443,1,0,3:0:0:0:
343,344,68552,1,2,3:2:0:0:
415,311,68660,2,0,P|425:250|435:184,1,111.149997031975,8|0,3:2|0:0,0:0:0:0:
448,194,68878,2,0,L|435:104,1,74.0999980213166,2|0,3:2|0:0,0:0:0:0:
199,7,69095,2,0,P|178:45|186:85,1,74.0999980213166,2|0,1:2|0:0,0:0:0:0:
326,148,69313,2,2,P|268:150|233:244,1,148.199996042633,2|8,3:2|0:0,0:0:0:0:
289,334,69639,1,0,3:0:0:0:
306,329,69747,2,0,P|327:291|319:251,1,74.0999980213166,2|0,3:2|0:0,0:0:0:0:
131,166,69965,5,2,1:0:0:0:
59,180,70073,1,0,0:0:0:0:
15,237,70182,1,0,0:0:0:0:
19,310,70291,1,0,3:0:0:0:
94,339,70399,2,0,P|129:318|177:301,1,74.0999980213166,10|0,0:0|0:0,0:0:0:0:
334,179,70617,2,2,P|299:165|268:145,1,74.0999980213166,2|0,0:0|0:0,3:0:0:0:
21,7,70834,1,0,1:0:0:0:
64,71,70943,1,0,3:1:0:0:
137,44,71052,2,0,B|167:24|194:-2|194:-2|204:30|233:67,1,148.199996042633,2|8,3:1|0:0,0:0:0:0:
163,218,71378,1,0,0:0:0:0:
151,205,71486,2,0,P|153:167|169:127,1,74.0999980213166,0|0,3:0|3:0,0:0:0:0:
399,30,71704,6,0,B|442:70|442:70|408:199,1,148.199996042633,4|2,1:2|0:0,0:0:0:0:
498,250,72030,1,0,0:0:0:0:
490,232,72139,2,0,L|378:274,1,111.149997031975,8|0,0:0|0:0,0:0:0:0:
369,268,72356,2,0,P|348:302|351:349,1,74.0999980213166,2|0,3:2|0:0,0:0:0:0:
212,228,72573,2,0,P|203:191|190:157,1,74.0999980213166,0|0,1:0|0:0,0:0:0:0:
245,50,72791,2,2,P|311:73|323:142,1,148.199996042633,2|8,0:0|0:0,0:0:0:0:
19,300,73117,1,0,0:0:0:0:
79,340,73226,2,0,P|98:290|102:264,1,74.0999980213166,0|0,3:0|3:0,0:0:0:0:
92,100,73443,6,0,P|59:115|6:135,1,74.0999980213166,4|0,1:2|0:0,0:0:0:0:
274,266,73660,2,0,P|240:251|205:238,1,74.0999980213166,2|0,3:2|0:0,0:0:0:0:
406,97,73878,2,0,P|373:112|320:132,1,74.0999980213166,8|0,2:0|0:0,0:0:0:0:
387,369,74095,2,2,P|427:297|364:224,1,148.199996042633,2|0,0:0|1:0,0:0:0:0:
245,40,74421,1,0,3:0:0:0:
233,52,74530,2,0,P|219:105|210:142,1,74.0999980213166,2|0,3:2|0:0,0:0:0:0:
89,279,74747,2,0,B|71:247|71:247|99:187,1,74.0999980213166,8|0,0:0|0:0,0:0:0:0:
279,236,74965,2,0,P|222:252|180:266,1,74.0999980213166,2|0,0:0|0:0,0:0:0:0:
1,136,75182,6,0,P|32:87|143:105,1,148.199996042633,6|0,1:0|3:0,0:0:0:0:
338,109,75508,2,2,P|377:173|519:160,1,222.29999406395,0|2,3:0|0:0,0:0:0:0:
485,8,75943,1,0,0:0:0:0:
470,17,76052,2,0,P|450:52|466:100,1,74.0999980213166,0|0,1:0|0:0,0:0:0:0:
249,205,76269,2,0,P|229:170|245:122,1,74.0999980213166
383,308,76486,2,0,P|348:317|314:333,1,74.0999980213166,2|0,1:0|0:0,0:0:0:0:
380,178,76704,2,0,P|413:193|449:203,1,74.0999980213166,2|0,0:0|0:0,0:0:0:0:
120,327,76921,5,4,1:2:0:0:
175,377,77030,2,0,P|206:312|209:280,1,81.8999975006104,0|0,1:0|0:0,0:0:0:0:
0,213,77247,1,2,1:2:0:0:
55,163,77356,2,0,P|86:228|89:260,1,81.8999975006104,0|0,1:0|0:0,0:0:0:0:
236,116,77573,5,2,1:2:0:0:
280,170,77682,2,0,P|219:199|181:177,1,81.8999975006104,0|0,1:0|0:0,0:0:0:0:
127,0,77899,1,0,1:0:0:0:
83,54,78008,2,0,P|144:83|182:61,1,81.8999975006104,0|0,1:0|0:0,0:0:0:0:
483,49,78226,5,2,1:2:0:0:
407,10,78334,1,0,1:0:0:0:
367,85,78443,2,0,P|384:139|399:192,1,81.8999975006104,2|0,1:2|0:0,0:0:0:0:
120,252,78660,6,0,P|99:205|90:139,1,89.7000017108918,8|0,3:2|3:2,3:2:0:0:
393,291,78878,2,0,P|383:334|364:375,1,89.7000017108918,8|0,3:2|3:2,3:2:0:0:
170,104,79095,2,0,P|200:62|252:21,1,89.7000017108918,8|0,3:2|3:2,3:2:0:0:
272,359,79313,2,0,P|229:372|184:376,1,89.7000017108918,8|2,3:2|3:0,3:2:0:0:
314,77,79530,2,0,P|365:82|426:107,1,89.7000017108918,10|0,3:2|3:2,3:2:0:0:
144,292,79748,2,0,P|111:261|85:224,1,89.7000017108918,8|0,3:2|3:2,3:2:0:0:
387,181,79965,2,0,P|407:228|417:294,1,89.7000017108918,8|0,3:2|3:2,3:2:0:0:
115,141,80183,2,0,P|124:97|143:56,1,89.7000017108918,8|0,3:2|3:2,3:2:0:0:
444,120,80399,5,2,1:0:0:0:
383,84,80507,1,8,3:2:0:0:
314,96,80616,1,0,1:0:0:0:
268,149,80725,1,8,3:2:0:0:
270,220,80834,1,2,1:2:0:0:
257,288,80942,1,2,1:3:0:0:
203,334,81051,1,0,1:0:0:0:
133,332,81160,1,2,1:3:0:0:
80,282,81269,5,2,1:0:0:0:
137,230,81378,2,0,B|148:186|148:186|118:152,1,89.7000017108918,8|0,1:3|3:0,1:0:0:0:
202,0,81595,1,2,1:0:0:0:
259,52,81704,2,0,B|270:96|270:96|240:129,1,89.7000017108918,8|0,1:3|3:3,1:0:0:0:
380,276,81921,5,2,1:0:0:0:
293,236,82030,1,2,1:2:0:0:
370,178,82139,1,0,1:0:0:0:
370,178,83008,6,2,B|302:175|266:228|277:230|292:232|245:317|150:294,1,245.699992501831,2|0,0:0|0:0,0:0:0:0:
103,349,83878,6,0,B|72:306|72:306|117:184,1,175.499994644165,6|0,1:0|0:0,0:0:0:0:
43,137,84204,2,0,B|65:89|65:89|193:67,1,175.499994644165,2|0,1:0|0:0,0:0:0:0:
233,0,84530,2,0,B|285:-5|285:-5|337:63,1,105.299996786499,8|0,0:0|0:0,0:0:0:0:
474,120,84747,6,0,B|431:95|397:76|397:76|384:120|363:176,1,175.499994644165,6|0,1:0|0:0,0:0:0:0:
286,172,85073,2,0,B|242:196|209:216|209:216|240:249|278:296,1,175.499994644165,2|0,1:0|0:0,0:0:0:0:
340,325,85399,2,0,B|336:350|329:379|329:379|364:370|402:363,1,105.299996786499,8|0,0:0|0:0,0:0:0:0:
428,303,85617,6,8,L|414:258,5,35.099998928833,2|8|8|8|8|8,3:1|3:0|3:0|3:0|3:0|3:0,3:0:0:0:
498,259,85943,2,8,L|509:225,5,35.099998928833,2|8|8|8|8|8,1:0|3:0|3:0|3:0|3:0|3:0,3:0:0:0:
435,188,86269,2,8,L|424:154,3,35.099998928833,2|8|8|8,3:1|3:0|3:0|3:0,3:0:0:0:
477,95,86486,5,4,3:2:0:0:
477,95,87356,6,0,P|405:79|360:68,1,97.5,4|0,0:0|0:0,0:0:0:0:
281,109,87791,1,0,3:0:0:0:
414,281,88008,2,0,P|435:223|405:196,1,97.5,2|0,0:0|3:0,0:0:0:0:
297,306,88443,1,0,3:0:0:0:
287,297,88552,2,0,P|257:286|222:278,1,48.75,0|0,0:0|3:0,0:0:0:0:
168,306,88769,1,0,0:0:0:0:
158,318,88878,1,2,0:0:0:0:
41,229,89095,5,0,3:0:0:0:
52,216,89204,1,0,0:0:0:0:
45,200,89313,1,2,0:0:0:0:
111,130,89530,1,0,3:0:0:0:
106,114,89639,1,0,0:0:0:0:
88,112,89748,1,2,0:0:0:0:
26,3,89965,2,0,P|79:20|150:36,1,97.5,0|0,3:0|0:0,0:0:0:0:
288,67,90399,1,0,3:0:0:0:
205,107,90617,1,0,0:0:0:0:
359,257,90834,6,0,B|401:231|401:231|359:114,1,146.25,2|0,3:2|0:0,0:0:0:0:
305,171,91269,1,0,3:0:0:0:
491,268,91486,1,0,0:0:0:0:
345,357,91704,2,0,P|293:343|244:335,1,97.5,0|0,3:0|0:0,0:0:0:0:
181,370,92030,2,0,P|146:315|165:260,1,97.5
218,255,92356,1,2,0:0:0:0:
40,229,92573,5,0,3:0:0:0:
29,211,92682,1,0,0:0:0:0:
39,192,92791,1,2,0:0:0:0:
0,105,93008,1,0,3:0:0:0:
10,86,93117,1,0,0:0:0:0:
31,85,93226,1,2,2:2:0:0:
99,18,93443,1,0,3:0:0:0:
114,31,93552,1,2,0:0:0:0:
188,93,93769,1,2,0:0:0:0:
199,76,93878,1,0,3:0:0:0:
219,67,93986,1,0,0:0:0:0:
240,68,94095,1,0,0:0:0:0:
366,19,94313,6,0,P|349:109|343:153,1,109.199996667481,2|0,3:2|3:0,0:0:0:0:
423,326,94747,1,8,0:0:0:0:
463,241,94965,1,0,3:0:0:0:
346,250,95182,2,0,P|292:272|286:349,1,109.199996667481,2|0,0:0|0:0,0:0:0:0:
325,379,95508,1,0,0:0:0:0:
339,371,95617,1,8,3:2:0:0:
141,293,95834,2,2,P|113:310|91:327,1,54.5999983337403,2|0,0:0|0:0,0:3:0:0:
21,310,96052,5,8,3:0:0:0:
176,377,96269,1,2,3:2:0:0:
234,217,96486,1,8,0:0:0:0:
58,147,96704,1,2,3:2:0:0:
132,287,96921,5,10,3:0:0:0:
143,218,97030,2,0,P|148:184|170:102,1,109.199996667481,8|0,0:0|0:0,0:0:0:0:
131,37,97356,2,0,P|64:55|3:67,1,109.199996667481,8|2,1:2|3:0,0:0:0:0:
256,210,97791,5,8,1:3:0:0:
324,211,97899,1,0,1:0:0:0:
369,159,98008,1,8,1:2:0:0:
356,91,98117,1,2,1:3:0:0:
288,69,98226,1,10,1:2:0:0:
227,105,98334,1,0,1:0:0:0:
215,175,98443,1,8,1:2:0:0:
260,229,98552,1,0,1:0:0:0:
293,291,98660,1,10,1:2:0:0:
271,358,98769,1,2,1:3:0:0:
202,375,98878,1,2,1:2:0:0:
156,321,98986,1,2,1:3:0:0:
184,255,99095,2,0,L|213:265,3,27.2999991668701,0|0|0|0,1:0|1:0|1:0|1:0,1:0:0:0:
259,205,99313,2,0,L|284:196,3,27.2999991668701,0|0|0|0,1:0|1:0|1:0|0:0,0:0:0:0:
353,234,99530,5,2,0:0:0:0:
377,227,99747,1,2,0:0:0:0:
381,188,99965,1,0,0:0:0:0:
351,160,100182,1,2,0:0:0:0:
278,178,100399,1,0,0:0:0:0:
255,261,100617,1,0,0:0:0:0:
335,334,100834,1,2,0:0:0:0:
457,269,101052,1,2,0:0:0:0:
412,93,101269,6,4,P|348:79|311:70,1,93.5999971435548,0|0,0:0|3:0,0:0:0:0:
218,35,101595,1,2,0:0:0:0:
230,26,101704,2,0,P|240:88|249:147,1,93.5999971435548,8|0,0:3|3:0,0:0:0:0:
200,187,102030,1,0,0:0:0:0:
187,197,102139,2,0,P|167:184|147:172,2,46.7999985717774,8|0|2,0:3|0:0|0:0,0:0:0:0:
61,337,102573,1,8,3:0:0:0:
48,323,102682,2,0,P|48:292|112:268,1,93.5999971435548,0|0,3:0|3:0,0:0:0:0:
148,317,103008,5,8,0:3:0:0:
259,378,103226,1,0,3:0:0:0:
351,279,103443,1,8,0:3:0:0:
228,198,103660,2,0,P|216:149|204:103,1,93.5999971435548,2|8,0:0|0:3,0:0:0:0:
244,44,103986,1,0,3:0:0:0:
256,51,104095,2,0,P|294:66|319:75,1,46.7999985717774,2|0,0:0|0:0,0:0:0:0:
127,154,104313,2,2,P|105:162|83:171,1,46.7999985717774,10|0,0:3|0:0,0:0:0:0:
292,267,104530,1,2,3:2:0:0:
313,254,104639,1,0,3:0:0:0:
314,229,104747,5,8,0:3:0:0:
169,280,104965,2,0,P|155:322|150:355,1,46.7999985717774,0|2,0:0|0:0,0:0:0:0:
92,379,105182,1,8,0:3:0:0:
239,341,105399,1,2,3:2:0:0:
61,167,105617,2,0,P|79:241|85:277,1,93.5999971435548,8|2,3:3|0:0,0:0:0:0:
35,319,105943,1,0,0:0:0:0:
25,329,106052,1,8,0:3:0:0:
166,183,106269,2,0,P|193:196|225:211,1,46.7999985717774,2|0,3:2|0:0,0:0:0:0:
288,233,106486,6,0,B|305:191|305:191|276:152,2,93.5999971435548,8|2|8,3:0|3:2|3:0,0:0:0:0:
455,358,107139,1,2,3:0:0:0:
473,339,107247,1,0,0:0:0:0:
465,318,107356,1,8,0:3:0:0:
405,250,107573,1,2,3:0:0:0:
497,199,107791,1,8,0:3:0:0:
430,154,108008,1,2,3:0:0:0:
412,135,108116,1,0,3:0:0:0:
420,114,108225,5,2,1:2:0:0:
512,16,108443,2,0,P|500:54|494:85,1,58.500002231598,0|2,3:0|1:2,0:0:0:0:
321,162,108660,2,0,P|314:133|304:106,1,58.500002231598,8|0,0:3|0:0,0:0:0:0:
393,0,108878,1,2,1:2:0:0:
410,16,108986,1,0,3:0:0:0:
403,35,109095,2,0,P|345:20|276:10,1,117.000004463196,8|2,3:3|1:2,0:0:0:0:
128,111,109421,1,0,0:0:0:0:
118,94,109530,2,0,P|166:84|201:173,1,117.000004463196,8|2,1:2|3:2,0:0:0:0:
142,217,109965,6,0,P|112:230|85:249,1,58.500002231598,2|0,1:2|0:0,0:0:0:0:
210,279,110182,2,0,P|175:288|137:308,1,58.500002231598,0|2,3:0|1:2,0:0:0:0:
341,288,110399,2,0,P|371:301|398:320,1,58.500002231598,8|0,0:3|0:0,0:0:0:0:
273,350,110617,2,0,P|308:359|346:379,2,58.500002231598,2|0|8,1:2|3:3|3:0,0:0:0:0:
489,305,111052,1,2,1:2:0:0:
293,110,111269,2,0,P|309:159|316:196,1,58.500002231598,8|0,3:2|3:0,0:0:0:0:
271,240,111486,1,2,3:0:0:0:
253,228,111595,1,0,3:0:0:0:
231,233,111704,6,0,P|178:255|133:274,1,74.0999980213166,10|0,3:2|3:2,3:2:0:0:
98,106,111921,2,0,P|132:120|167:135,1,74.0999980213166,8|0,3:2|3:2,3:2:0:0:
28,283,112139,2,0,P|45:240|55:201,1,74.0999980213166,8|0,3:2|3:2,3:2:0:0:
277,70,112356,2,0,P|287:105|301:139,1,74.0999980213166,8|0,3:2|3:2,3:2:0:0:
447,230,112573,2,0,P|460:167|377:113,2,148.199996042633,8|8|8,3:2|3:2|3:2,3:2:0:0:
387,318,113117,1,0,3:2:0:0:
372,307,113226,2,0,P|320:320|286:330,1,74.0999980213166,8|0,3:2|3:2,3:2:0:0:
101,358,113443,5,14,3:2:0:0:
171,343,113551,1,0,1:0:0:0:
204,279,113660,1,10,3:2:0:0:
176,213,113769,1,0,1:0:0:0:
109,181,113878,1,8,1:3:0:0:
80,115,113987,1,8,3:2:0:0:
114,51,114096,1,2,1:2:0:0:
184,36,114204,1,10,3:2:0:0:
243,80,114313,2,0,L|226:123,7,37.0499990106583,8|0|0|0|2|0|2|0,1:3|0:0|1:0|0:0|1:2|0:0|1:2|0:0,0:0:0:0:
328,178,114747,2,0,L|311:135,7,37.0499990106583,0|0|0|0|2|0|2|0,1:0|1:0|1:0|1:0|1:2|1:0|1:2|1:0,1:0:0:0:
409,141,115182,6,0,L|469:125,5,54.5999983337403,4|0|0|0|0|0,3:2|0:0|0:0|3:0|3:0|3:0,0:0:0:0:
415,227,115834,2,0,L|435:288,1,54.5999983337403,8|0,1:3|3:0,0:0:0:0:
372,341,116052,2,0,L|317:324,5,36.3999988891602,10|0|0|0|0|0,3:2|3:0|3:0|3:0|0:0|0:0,0:0:0:0:
262,376,116486,2,0,P|248:341|252:315,1,54.5999983337403,2|0,3:2|3:0,3:0:0:0:
292,249,116704,2,0,P|298:217|278:184,3,54.5999983337403,8|0|0|0,3:0|3:0|0:0|3:0,3:0:0:0:
213,149,117139,5,10,3:0:0:0:
213,149,117573,2,0,P|165:164|140:171,1,54.5999983337403,0|0,1:2|3:0,3:0:0:0:
282,87,117791,2,0,P|294:64|303:26,3,36.3999988891602,10|0|0|0,3:2|3:0|3:0|3:0,0:0:0:0:
197,8,118117,1,0,3:0:0:0:
191,19,118226,2,0,P|197:35|206:51,3,36.3999988891602,2|0|0|0,3:2|3:0|3:0|3:0,0:0:0:0:
125,88,118552,5,0,3:0:0:0:
115,79,118660,2,0,L|46:63,4,54.5999983337403,2|0|0|0|0,1:2|0:0|0:0|3:0|3:0,0:0:0:0:
144,167,119204,2,0,B|120:228,2,54.5999983337403,0|8|0,3:0|3:0|0:0,0:0:0:0:
234,164,119530,2,0,P|254:173|273:193,3,36.3999988891602,10|0|0|0,3:2|3:0|3:0|3:0,0:0:0:0:
272,90,119856,1,0,0:0:0:0:
285,93,119965,2,0,P|320:80|350:70,1,54.5999983337403,2|0,3:2|0:0,0:0:0:0:
426,54,120182,2,0,L|410:125,3,54.5999983337403,8|0|0|0,3:0|3:0|0:0|3:0,0:0:0:0:
488,152,120617,2,0,L|504:223,3,54.5999983337403,10|0|0|0,3:0|0:0|3:0|3:0,0:0:0:0:
420,242,121052,2,0,L|404:316,1,54.5999983337403,8|8,3:0|3:0,0:0:0:0:
129,91,121269,6,0,B|121:54|121:54|160:15,1,78,8|0,3:2|0:0,0:0:0:0:
231,186,121486,1,8,3:0:0:0:
290,142,121595,2,0,B|298:105|298:105|269:76,1,78,8|0,3:2|0:0,0:0:0:0:
106,291,121813,1,8,3:0:0:0:
47,247,121922,2,0,B|39:210|39:210|67:181,1,78,8|0,3:2|3:0,0:0:0:0:
218,297,122139,6,2,B|296:317|296:317|324:358|324:358|424:384,1,234.000008926392,6|2,0:0|3:2,0:0:0:0:
461,156,122791,2,0,P|442:203|439:239,1,58.500002231598,8|0,3:0|0:0,0:0:0:0:
489,267,123008,2,0,P|431:241|373:136,1,175.500006694794,8|0,3:2|0:0,0:0:0:0:
363,226,123443,2,0,P|382:273|385:309,1,58.500002231598,0|0,3:0|0:0,0:0:0:0:
272,190,123660,6,0,P|289:115|304:49,1,117.000004463196,8|0,3:0|3:2,0:0:0:0:
35,159,124095,2,0,P|4:199|20:284,1,117.000004463196,2|0,1:2|3:0,0:0:0:0:
252,376,124530,5,0,1:0:0:0:
193,332,124639,1,8,3:0:0:0:
121,358,124747,2,0,P|98:310|191:166,1,234.000008926392,8|0,3:2|3:0,0:0:0:0:
400,18,125399,5,2,0:0:0:0:
388,37,125508,1,0,3:0:0:0:
388,63,125617,2,0,P|403:123|416:196,1,117.000004463196,2|0,1:0|0:0,0:0:0:0:
503,348,126052,2,0,P|506:316|492:281,1,58.500002231598,2|0,3:0|3:0,0:0:0:0:
332,309,126269,2,0,P|285:325|253:330,1,58.500002231598,8|0,3:0|0:0,0:0:0:0:
361,375,126486,2,0,P|292:350|211:335,1,117.000004463196,8|2,3:2|3:0,0:0:0:0:
147,377,126921,1,2,3:2:0:0:
318,221,127139,6,0,P|309:185|305:141,2,58.500002231598,10|0|0,3:0|3:0|3:0,0:0:0:0:
206,163,127573,1,6,3:0:0:0:
384,19,127791,5,0,0:0:0:0:
368,50,127899,1,8,3:0:0:0:
338,68,128008,1,8,3:0:0:0:
303,74,128117,1,8,3:0:0:0:
270,61,128226,1,0,0:0:0:0:
211,21,128334,2,0,P|177:2|122:8,1,70.1999978576661,8|8,3:2|3:0,0:0:0:0:
283,225,128552,2,0,P|250:244|227:295,1,70.1999978576661,8|0,3:0|3:0,0:0:0:0:
476,292,128769,5,8,3:2:0:0:
511,215,128878,1,8,3:0:0:0:
459,150,128986,1,0,1:0:0:0:
374,158,129095,1,4,3:2:0:0:
126,334,129530,5,8,3:0:0:0:
55,277,129638,1,8,3:0:0:0:
90,197,129747,1,4,3:2:0:0:
313,347,130182,5,4,0:0:0:0:
313,347,130617,6,0,P|321:308|304:256,1,76.0499965187074,2|0,0:0|0:0,0:0:0:0:
237,384,130834,6,2,P|219:316|286:179,1,222.29999406395,6|0,1:2|3:0,0:0:0:0:
399,20,131269,2,0,P|381:127|377:158,1,111.149997031975,8|0,3:2|0:0,0:0:0:0:
398,147,131486,2,0,P|448:135|460:89,1,74.0999980213166,2|0,0:0|0:0,0:0:0:0:
271,21,131704,2,0,P|218:37|182:46,1,74.0999980213166,2|0,1:2|0:0,0:0:0:0:
10,44,131921,2,2,P|79:73|79:164,1,148.199996042633,2|8,0:0|1:2,0:0:0:0:
12,306,132247,1,0,3:0:0:0:
0,292,132356,2,0,P|16:217|21:195,1,74.0999980213166,2|0,3:2|3:0,0:0:0:0:
214,147,132573,5,2,1:2:0:0:
282,168,132681,1,0,3:0:0:0:
311,234,132790,1,0,3:0:0:0:
282,300,132899,1,0,3:0:0:0:
208,282,133008,2,0,P|166:267|119:253,1,74.0999980213166,10|0,3:2|0:0,0:0:0:0:
389,176,133226,2,2,B|488:204|410:230|572:275,1,148.199996042633,2|0,0:0|1:0,0:0:0:0:
304,4,133552,1,0,3:2:0:0:
284,13,133660,2,2,P|263:83|269:157,1,148.199996042633,2|8,0:0|1:2,0:0:0:0:
468,0,133986,1,0,3:0:0:0:
512,59,134095,2,0,P|455:78|411:78,1,74.0999980213166,2|0,3:2|3:3,0:0:0:0:
137,31,134313,5,2,1:2:0:0:
64,31,134421,1,0,0:0:0:0:
10,79,134530,1,0,0:0:0:0:
0,151,134639,1,0,3:0:0:0:
64,204,134747,2,0,P|125:186|191:166,1,111.149997031975,8|0,3:2|0:0,0:0:0:0:
190,179,134965,2,0,P|168:251|160:275,1,74.0999980213166,2|0,0:0|0:0,0:0:0:0:
60,377,135182,2,0,P|54:360|70:307,1,74.0999980213166,2|0,1:2|0:0,0:0:0:0:
284,268,135399,2,0,P|379:305|443:329,1,148.199996042633,2|8,0:0|3:2,0:0:0:0:
496,193,135726,1,0,3:0:0:0:
482,187,135834,2,0,P|433:204|389:222,1,74.0999980213166,2|0,3:2|0:0,0:0:0:0:
158,104,136052,5,2,1:2:0:0:
179,33,136160,1,0,3:0:0:0:
247,3,136269,1,2,3:0:0:0:
320,11,136378,1,0,3:0:0:0:
324,84,136486,2,0,P|318:148|299:213,1,74.0999980213166,10|0,3:2|0:0,0:0:0:0:
149,334,136704,2,2,P|135:301|241:229,1,148.199996042633,2|0,0:0|1:2,0:0:0:0:
374,315,137030,1,8,3:2:0:0:
311,274,137139,2,0,P|295:343|300:383,1,74.0999980213166,2|0,1:2|0:0,0:0:0:0:
478,250,137356,2,0,P|494:181|489:141,1,74.0999980213166,8|0,0:2|0:0,0:0:0:0:
308,0,137573,2,0,P|332:95|339:137,1,111.149997031975,2|0,3:2|0:0,0:0:0:0:
334,107,137791,6,0,B|280:138|228:87|236:83|250:78|201:16|132:33,1,222.29999406395,4|0,1:2|3:0,0:0:0:0:
31,7,138226,2,0,B|13:40|13:40|28:73,1,74.0999980213166,10|0,3:2|0:0,0:0:0:0:
147,212,138443,2,0,P|153:175|165:140,1,74.0999980213166,2|0,0:0|0:0,0:0:0:0:
26,178,138660,2,0,P|1:204|0:240,1,74.0999980213166,0|0,1:0|3:0,0:0:0:0:
257,315,138878,2,2,P|331:288|435:252,2,148.199996042633,2|8|0,0:0|0:0|3:0,0:0:0:0:
78,336,139421,5,0,3:0:0:0:
134,383,139530,2,0,P|157:314|151:277,1,74.0999980213166,4|0,1:2|0:0,0:0:0:0:
32,149,139747,2,0,P|80:203|115:216,1,74.0999980213166,2|0,3:2|3:0,0:0:0:0:
285,177,139965,2,0,P|213:191|184:215,1,74.0999980213166,8|0,0:0|0:0,0:0:0:0:
85,281,140182,2,0,P|50:294|14:296,1,74.0999980213166,2|0,3:0|3:3,0:0:0:0:
218,268,140399,2,0,P|247:291|266:322,1,74.0999980213166,0|0,1:0|0:0,0:0:0:0:
141,159,140617,2,0,P|147:122|164:90,1,74.0999980213166,2|0,0:0|0:0,0:0:0:0:
389,33,140834,1,10,0:0:0:0:
409,76,140943,1,0,0:0:0:0:
394,103,141052,1,2,3:0:0:0:
403,120,141160,1,0,3:0:0:0:
403,120,141269,6,0,B|310:88|310:88|256:122|253:184|298:206,1,222.29999406395,6|2,1:2|0:0,0:0:0:0:
447,344,141704,2,0,B|472:311|472:311|434:231,1,111.149997031975,8|0,0:0|0:0,0:0:0:0:
429,244,141921,2,0,P|368:275|339:290,1,74.0999980213166,2|0,0:0|3:0,0:0:0:0:
227,281,142139,2,0,B|249:320|269:342|269:342|231:359|181:388,1,148.199996042633,0|0,1:0|0:0,0:0:0:0:
26,279,142465,1,0,3:0:0:0:
87,238,142573,2,0,P|108:318|103:351,1,74.0999980213166,10|0,0:0|0:0,0:0:0:0:
184,168,142791,2,0,P|205:88|200:55,1,74.0999980213166,2|0,3:0|3:0,0:0:0:0:
445,36,143008,5,6,1:0:0:0:
387,129,143117,2,0,P|338:157|282:172,1,81.8999975006104,0|0,1:0|0:0,0:0:0:0:
359,35,143334,5,2,1:0:0:0:
484,150,143443,2,0,P|498:203|498:261,1,81.8999975006104,0|0,1:0|0:0,0:0:0:0:
274,358,143660,5,2,1:0:0:0:
311,278,143769,1,0,1:0:0:0:
398,292,143878,2,0,P|419:346|382:397,1,81.8999975006104,2|0,1:3|1:0,0:0:0:0:
150,318,144095,6,0,P|136:268|118:201,1,81.8999975006104,6|0,1:2|0:0,0:0:0:0:
64,0,144313,1,2,1:0:0:0:
110,80,144421,1,0,1:0:0:0:
21,132,144530,2,0,P|7:182|-11:249,1,81.8999975006104,2|0,1:2|0:0,0:0:0:0:
259,191,144747,6,2,B|325:159|325:159|303:3,1,222.29999406395,6|0,1:2|3:0,0:0:0:0:
440,171,145182,2,0,P|488:238|468:290,1,111.149997031975,8|0,3:2|0:0,0:0:0:0:
471,274,145399,2,0,P|436:258|400:248,1,74.0999980213166,2|0,0:0|0:0,0:0:0:0:
207,315,145617,2,0,B|187:349|187:349|223:409,1,74.0999980213166,2|0,1:2|0:0,0:0:0:0:
269,207,145834,2,2,B|221:122|288:168|221:31,1,148.199996042633,2|8,0:0|0:0,0:0:0:0:
26,40,146160,1,0,3:0:0:0:
14,113,146269,1,2,3:2:0:0:
78,150,146378,1,0,3:0:0:0:
139,109,146486,5,2,1:2:0:0:
68,86,146595,1,0,0:0:0:0:
10,132,146704,1,0,3:0:0:0:
10,206,146813,1,0,3:0:0:0:
63,256,146921,2,0,P|98:269|163:300,1,74.0999980213166,10|0,1:2|0:0,0:0:0:0:
275,384,147139,2,2,B|238:343|238:343|280:246,1,148.199996042633,2|0,0:0|1:0,0:0:0:0:
435,204,147465,1,0,3:0:0:0:
375,160,147573,2,2,L|419:320,1,148.199996042633,2|8,0:0|0:0,0:0:0:0:
211,201,147899,1,0,3:0:0:0:
202,212,148008,2,0,P|227:237|263:241,1,74.0999980213166,2|0,3:2|0:0,0:0:0:0:
461,75,148226,5,2,1:2:0:0:
389,54,148334,1,0,0:0:0:0:
318,33,148443,1,0,3:0:0:0:
247,13,148552,1,0,3:0:0:0:
184,59,148660,2,0,P|128:87|84:108,1,74.0999980213166,8|0,3:2|0:0,0:0:0:0:
269,140,148878,2,0,P|301:193|281:245,1,74.0999980213166,2|0,0:0|0:0,0:0:0:0:
101,306,149095,2,0,P|117:261|126:209,1,74.0999980213166,2|0,1:2|0:0,0:0:0:0:
259,318,149313,2,2,B|363:347|294:369|406:388,1,148.199996042633,2|8,0:0|0:0,0:0:0:0:
497,223,149639,1,0,3:2:0:0:
484,234,149747,2,0,P|463:311|453:337,1,74.0999980213166,2|0,3:2|0:0,0:0:0:0:
279,212,149965,5,2,1:0:0:0:
275,140,150073,1,0,3:0:0:0:
328,91,150182,1,2,3:0:0:0:
399,101,150291,1,0,3:0:0:0:
472,82,150399,2,0,P|484:34|499:-8,1,74.0999980213166,10|0,3:2|0:0,0:0:0:0:
236,36,150617,2,2,P|170:72|136:86,1,74.0999980213166,2|0,0:0|0:0,0:3:0:0:
30,208,150834,1,0,1:0:0:0:
93,150,150943,1,8,3:2:0:0:
172,187,151052,2,0,P|212:248|161:315,1,148.199996042633,2|8,1:0|3:2,0:0:0:0:
2,358,151378,1,0,0:0:0:0:
61,317,151486,2,0,P|82:394|66:424,1,74.0999980213166,2|0,3:2|3:0,0:0:0:0:
307,318,151704,6,0,P|359:292|465:269,2,148.199996042633,6|2|8,1:2|0:0|0:0,0:0:0:0:
240,257,152247,1,0,3:0:0:0:
228,243,152356,2,0,P|231:201|294:162,1,74.0999980213166,2|0,3:2|0:0,0:0:0:0:
369,83,152573,2,0,P|377:118|393:152,1,74.0999980213166,0|0,1:0|0:0,0:0:0:0:
235,40,152791,2,2,P|169:73|97:90,1,148.199996042633,2|8,0:0|0:0,0:0:0:0:
0,194,153117,1,0,0:0:0:0:
18,184,153226,2,0,P|50:194|109:241,1,74.0999980213166,0|0,3:0|3:0,0:0:0:0:
243,384,153443,6,0,P|268:351|255:287,1,74.0999980213166,6|0,1:2|0:0,0:0:0:0:
139,344,153660,2,0,P|89:376|53:398,1,74.0999980213166,2|0,0:0|0:0,0:0:0:0:
236,221,153878,2,0,P|254:184|264:103,1,74.0999980213166,10|0,3:2|0:0,0:0:0:0:
379,312,154095,2,2,P|447:349|558:391,1,148.199996042633,2|0,0:0|0:0,0:0:0:0:
483,258,154421,1,0,3:0:0:0:
435,208,154530,2,0,P|434:167|458:103,1,74.0999980213166,2|0,3:2|0:0,0:0:0:0:
406,18,154747,2,0,P|327:54|310:57,1,74.0999980213166,8|0,0:0|0:0,0:0:0:0:
142,191,154965,2,0,P|130:157|170:89,1,74.0999980213166,0|0,3:0|3:0,0:0:0:0:
223,0,155182,6,0,P|239:85|259:191,1,148.199996042633,6|0,1:0|3:0,0:0:0:0:
451,150,155508,2,2,B|375:181|375:181|361:224|361:224|243:275,1,222.29999406395,0|0,3:0|3:0,0:0:0:0:
141,362,155943,1,0,3:0:0:0:
153,375,156052,2,0,P|169:323|147:260,1,74.0999980213166,2|0,1:2|0:0,0:0:0:0:
19,199,156269,2,0,P|2:260|-10:300,1,74.0999980213166,2|0,3:0|3:0,0:0:0:0:
156,185,156486,2,0,B|168:148|168:148|147:111,1,74.0999980213166,2|0,1:0|0:0,0:0:0:0:
0,0,156704,2,0,P|84:30|124:35,1,74.0999980213166,2|0,3:0|3:0,0:0:0:0:
347,109,156921,5,4,1:2:0:0:
329,38,157030,2,0,B|285:32|285:32|224:101,1,81.8999975006104,0|0,1:0|0:0,0:0:0:0:
423,212,157247,1,2,1:2:0:0:
441,141,157356,2,0,B|485:135|485:135|546:204,1,81.8999975006104,0|0,1:0|0:0,0:0:0:0:
271,321,157573,5,2,1:2:0:0:
334,364,157682,2,0,P|350:287|355:264,1,81.8999975006104,0|0,1:0|0:0,0:0:0:0:
144,194,157899,1,0,1:0:0:0:
207,151,158008,2,0,P|223:228|228:251,1,81.8999975006104,0|0,1:0|0:0,0:0:0:0:
9,381,158226,5,2,1:2:0:0:
81,335,158334,1,0,1:0:0:0:
23,269,158443,2,0,P|2:231|21:172,1,81.8999975006104,2|0,1:2|0:0,0:0:0:0:
349,8,158660,6,0,P|322:92|317:145,1,89.7000017108918,12|0,3:2|3:0,3:0:0:0:
304,384,158878,2,0,P|330:299|335:246,1,89.7000017108918,8|0,3:2|3:2,3:2:0:0:
493,103,159095,2,0,P|408:129|362:155,1,89.7000017108918,8|0,3:2|3:2,3:2:0:0:
159,281,159313,2,0,P|243:254|289:228,1,89.7000017108918,8|2,3:2|3:3,3:2:0:0:
483,277,159530,2,0,P|412:223|365:200,1,89.7000017108918,10|0,3:2|3:2,3:2:0:0:
146,105,159748,2,0,P|216:158|263:181,1,89.7000017108918,8|0,3:2|3:2,3:2:0:0:
341,382,159965,2,0,P|344:293|336:241,1,89.7000017108918,8|0,3:2|3:2,3:2:0:0:
287,5,160183,2,0,P|283:93|291:145,1,89.7000017108918,8|0,3:2|3:2,3:2:0:0:
440,293,160399,5,2,1:0:0:0:
430,223,160507,1,8,3:2:0:0:
376,178,160616,1,0,1:0:0:0:
306,182,160725,1,8,3:2:0:0:
256,234,160834,1,2,1:2:0:0:
186,238,160943,1,2,1:3:0:0:
132,193,161052,1,0,1:0:0:0:
123,124,161160,1,2,1:3:0:0:
195,86,161269,5,2,1:0:0:0:
132,29,161378,2,0,P|37:53|-11:63,1,89.7000017108918,8|0,1:3|3:0,1:0:0:0:
256,191,161595,5,2,1:0:0:0:
193,248,161704,2,0,P|98:224|50:214,1,89.7000017108918,8|0,1:3|3:0,1:0:0:0:
393,121,161921,5,2,1:0:0:0:
315,82,162030,1,2,1:2:0:0:
404,135,162139,1,4,1:2:0:0:
404,135,163008,6,2,B|349:189|349:189|393:374,1,263.249991966248
452,323,163878,6,0,P|389:269|288:306,1,175.499994644165,6|0,1:0|0:0,0:0:0:0:
229,382,164204,2,0,P|217:300|115:262,1,175.499994644165,2|0,1:0|0:0,0:0:0:0:
30,253,164530,2,0,P|77:186|67:148,1,105.299996786499,8|0,1:2|0:0,0:0:0:0:
0,118,164747,6,0,P|62:87|180:36,1,175.499994644165,6|0,1:0|0:0,0:0:0:0:
232,0,165073,2,0,P|297:21|417:69,1,175.499994644165,2|0,1:0|0:0,0:0:0:0:
466,14,165399,2,0,P|497:76|522:136,1,105.299996786499,8|0,1:2|0:0,0:0:0:0:
453,179,165617,6,8,P|438:150|434:122,5,35.099998928833,2|8|8|8|8|8,3:1|3:0|3:0|3:0|3:0|3:0,3:0:0:0:
377,219,165943,2,8,P|344:217|318:206,5,35.099998928833,2|8|8|8|8|8,1:0|3:0|3:0|3:0|3:0|3:0,3:0:0:0:
420,295,166269,2,8,P|402:322|380:339,3,35.099998928833,2|8|8|8,1:0|3:0|3:0|3:0,3:0:0:0:
503,259,166486,5,4,0:0:0:0:
106,240,167356,6,0,P|104:261|66:349,1,109.199996667481,4|2,0:0|0:0,0:0:0:0:
184,271,168226,2,0,B|235:215|229:158|229:158|28:145,1,304.19998607483,6|0,1:0|0:0,0:0:0:0:
297,306,168878,6,0,L|286:276,1,31.2,4|0,0:0|0:0,0:0:0:0:
286,276,169313,6,0,P|266:377|260:425,1,93.5999971435548,0|0,1:0|0:0,0:0:0:0:
239,93,169530,2,0,P|161:25|123:-4,1,93.5999971435548,2|0,1:2|0:0,0:0:0:0:
414,170,169747,2,0,P|510:136|554:118,1,93.5999971435548,4|0,0:0|0:0,0:0:0:0:
512,149,170182,6,0,P|457:168|403:187,1,101.399995358277,0|0,1:0|0:0,0:0:0:0:
157,40,170399,2,0,P|201:77|244:116,1,101.399995358277,2|0,1:2|0:0,0:0:0:0:
279,381,170617,2,0,P|288:324|301:267,1,101.399995358277,2|0,1:2|0:0,0:0:0:0:
247,190,170834,6,0,L|342:208,1,93.5999971435548,4|2,0:0|0:0,0:0:0:0:
376,367,171704,2,0,L|157:321,1,202.799990716553,6|0,1:0|0:0,0:0:0:0:
177,325,172139,6,0,B|143:297|143:297|165:209,1,85.8000026184083,0|0,1:2|0:0,0:0:0:0:
116,187,172356,2,0,B|130:146|130:146|220:137,1,85.8000026184083,0|0,1:2|0:0,0:0:0:0:
230,74,172573,2,0,B|274:74|274:74|313:156,1,85.8000026184083,6|0,1:2|0:0,0:0:0:0:
291,111,173008,6,0,P|360:146|401:183,1,128.700003927612,0|0,1:3|0:0,0:0:0:0:
399,27,173226,2,0,P|353:153|256:311,1,304.19998607483,2|0,0:0|0:0,0:0:0:0:
365,275,173660,6,0,L|319:45,2,234.000008926392,2|2|2,1:0|3:2|1:0,0:0:0:0:
128,262,174313,6,4,L|1:234,1,124.8,4|0,1:0|0:0,0:0:0:0:
69,164,174747,2,0,L|196:192,1,117,2|0,3:1|3:0,0:0:0:0:
326,113,175182,6,2,B|347:83|347:83|240:48|240:48|285:231,1,304.19998607483,4|0,0:0|0:0,0:3:0:0:
277,198,175617,1,0,0:0:0:0:
245,293,175834,6,0,P|216:304|164:329,1,62.4,2|0,0:0|0:0,0:0:0:0:
236,384,176052,1,2,1:2:0:0:
236,384,176160,1,0,0:0:0:0:
236,384,176269,2,0,P|264:370|293:359,1,62.4,2|0,3:0|3:0,0:0:0:0:
362,325,176486,2,0,P|391:334|419:347,1,62.4,2|0,3:2|0:0,0:0:0:0:
505,223,176704,6,2,B|480:254|451:276|451:276|475:291|510:325,1,152.099993037415,2|0,3:1|0:0,0:3:0:0:
509,324,176921,1,8,1:2:0:0:
358,211,177139,6,0,L|365:179,1,23.3999992858887,2|0,0:1|0:0,0:0:0:0:
289,195,177356,2,0,L|296:163,1,23.3999992858887,2|0,3:2|3:0,0:0:0:0:
220,179,177573,2,0,L|227:147,1,23.3999992858887,2|0,1:1|0:0,0:0:0:0:
316,2,177791,6,0,P|337:34|257:54,1,124.8,10|0,3:0|0:0,0:3:0:0:
134,231,178226,2,0,P|78:252|96:309,1,128.700003927612,2|0,3:2|3:0,0:0:0:0:
217,367,178660,6,2,B|174:349|174:349|235:295|321:322|321:322|350:282|338:234|286:228,1,304.19998607483,10|0,1:2|0:0,0:3:0:0:
246,165,179095,6,0,L|285:152,1,23.3999992858887,2|0,3:0|0:0,0:0:0:0:
225,97,179313,2,0,L|264:84,1,23.3999992858887,2|0,3:2|0:0,0:0:0:0:
203,30,179530,6,0,L|225:22,1,23.3999992858887,8|0,3:0|3:0,0:0:0:0:
389,40,179965,5,2,3:0:0:0:
389,40,180073,1,2,3:0:0:0:
389,40,180182,2,2,P|382:70|374:100,1,62.4,2|0,0:1|0:0,3:0:0:0:
433,155,180399,1,8,0:0:0:0:
433,155,180617,6,2,L|136:94,2,234.000008926392,2|10|2,1:0|1:2|1:0,1:0:0:0:
495,194,181160,1,8,3:0:0:0:
478,270,181269,6,0,P|450:314|433:376,1,93.6,4|0,0:0|0:0,0:3:0:0:
436,353,181486,2,2,B|354:330|356:232|419:185|429:195|438:204|510:153|508:82|442:59,1,350.99998928833,0|0,0:0|0:0,0:3:0:0:
399,53,182139,1,10,1:2:0:0:
399,53,182356,6,0,B|364:52|347:12|347:12|362:53|344:89,1,140.399995715332,2|0,3:1|0:0,0:0:0:0:
290,130,182791,2,0,B|260:119|260:119|249:119|249:119|192:103,1,78,8|0,3:0|3:0,0:0:0:0:
66,52,183008,6,0,B|105:80|140:101|140:101|120:176|96:280,1,253.499988395691,6|0,1:0|0:0,0:0:0:0:
53,326,183334,2,0,B|109:298|147:245|147:245|159:324|191:380,1,253.499988395691,2|0,1:0|0:0,0:0:0:0:
265,336,183660,2,0,P|299:301|369:311,1,101.399995358277,8|0,3:0|1:0,0:0:0:0:
408,228,183878,6,0,P|397:198|400:232,1,93.6,8|0,1:2|0:0,0:0:0:0:
477,279,184095,6,2,L|491:241,3,35.099998928833,2|2|2|2,0:0|0:0|0:0|0:0,0:0:0:0:
512,173,184313,2,2,L|495:136,3,35.099998928833,2|2|2|2,0:0|0:0|0:0|0:0,0:0:0:0:
471,67,184530,2,2,L|433:52,3,35.099998928833,2|2|2|2,0:0|0:0|0:0|0:0,0:0:0:0:
375,6,184747,6,0,P|341:39|352:98,1,93.6,8|0,1:3|0:0,0:0:0:0:
342,82,184965,2,2,P|282:64|185:166,1,210.599993572998,2|0,0:0|0:0,0:3:0:0:
248,207,185399,2,0,P|279:188|316:176,1,70.1999978576661,0|0,0:0|3:3,0:0:0:0:
432,322,185617,5,8,1:2:0:0:
432,322,185834,2,0,L|444:276,1,46.7999985717774,2|2,3:1|3:2,0:0:0:0:
370,264,186160,2,0,L|382:218,1,46.7999985717774,0|0,3:1|3:0,0:0:0:0:
448,190,186486,6,0,B|356:212|356:212|342:266|342:266|218:298,1,253.499988395691,6|0,1:0|0:0,0:0:0:0:
184,351,186813,2,0,B|130:310|154:238|154:238|162:243|162:243|197:164|117:124,1,253.499988395691,2|0,1:0|0:0,3:0:0:0:
82,81,187139,6,0,L|96:33,2,50.6999976791383,8|0|0,1:3|0:0|1:0,0:0:0:0:
62,162,187356,1,12,1:2:0:0:
62,162,187573,5,8,1:3:0:0:
112,230,187682,2,0,P|66:261|15:279,1,85.8000026184083,12|0,1:2|0:0,0:0:0:0:
272,306,187899,5,0,1:0:0:0:
270,225,188008,2,0,P|224:194|173:176,1,85.8000026184083,8|0,1:2|0:0,0:0:0:0:
397,319,188226,6,0,B|424:280|424:280|389:222,1,93.6,8|0,3:3|0:0,0:0:0:0:
400,240,188443,2,2,B|424:278|439:303|439:303|503:264|501:182|447:147,1,245.699992501831,0|0,0:0|0:0,0:3:0:0:
392,99,188878,2,0,P|358:112|331:123,1,46.7999985717774,8|0,3:2|3:1,0:0:0:0:
199,72,189095,1,8,1:2:0:0:
199,72,189313,5,2,3:0:0:0:
259,111,189421,1,2,0:0:0:0:
257,182,189530,1,2,3:0:0:0:
193,230,189639,5,2,0:0:0:0:
133,269,189747,1,2,3:0:0:0:
135,340,189856,1,0,0:0:0:0:
207,375,189965,6,0,B|274:321|360:308|360:308|317:317|307:368,1,253.499988395691,6|0,1:0|0:0,0:0:0:0:
428,356,190291,2,0,B|359:330|342:239|401:175|496:225|450:290,1,253.499988395691,2|0,1:0|0:0,0:0:0:0:
288,240,190617,2,0,B|244:224|244:224|239:211|239:211|187:193,1,101.399995358277,8|0,1:3|3:0,0:0:0:0:
103,183,190834,5,8,1:2:0:0:
103,183,191052,2,2,L|86:135,3,31.2,2|2|2|2,0:3|0:0|0:0|0:0,0:0:0:0:
166,111,191269,2,2,L|187:65,3,31.2,2|2|2|2,0:0|0:0|0:0|0:0,0:0:0:0:
259,113,191486,2,2,L|307:96,3,31.2,2|2|2|2,0:0|0:0|0:0|0:0,0:0:0:0:
365,150,191704,5,8,1:2:0:0:
365,150,191921,2,0,P|410:131|446:103,1,78,8|0,1:2|3:0,0:0:0:0:
309,226,192139,2,0,P|347:255|390:272,1,78,10|0,1:2|0:0,0:0:0:0:
236,281,192356,2,0,P|229:329|236:374,1,78,8|0,1:2|0:0,0:0:0:0:
151,245,192573,5,0,0:0:0:0:
151,245,192791,2,0,P|110:261|78:286,1,58.500002231598,8|0,1:2|0:0,0:0:0:0:
200,177,193009,2,0,P|165:150|127:135,1,58.500002231598,8|0,1:2|0:0,0:0:0:0:
265,128,193226,2,0,P|270:84|264:44,1,58.500002231598,8|0,1:2|0:0,0:0:0:0:
508,72,193443,5,6,1:0:0:0:
454,21,193552,2,0,P|415:77|433:128,1,97.5,0|8,0:0|1:3,0:0:0:0:
320,254,193769,1,2,1:1:0:0:
374,203,193878,2,0,P|413:259|395:310,1,97.5
163,362,194095,5,8,1:3:0:0:
240,329,194204,1,0,1:0:0:0:
144,353,194313,2,0,B|127:307|127:307|160:267,1,97.5,8|0,1:2|0:0,0:0:0:0:
252,91,194530,5,2,1:2:0:0:
292,155,194639,1,10,1:2:0:0:
229,206,194747,5,0,0:0:0:0:
201,132,194856,1,2,1:2:0:0:
231,60,194965,1,10,1:2:0:0:
305,39,195073,1,0,0:0:0:0:
380,69,195182,5,4,1:2:0:0:
286,295,195399,1,2,1:0:0:0:
491,235,195617,1,0,1:0:0:0:
418,198,195726,1,10,1:2:0:0:
173,151,195943,1,8,1:2:0:0:
245,112,196052,1,8,1:3:0:0:
333,384,196269,5,2,1:0:0:0:
193,254,196486,1,0,1:0:0:0:
161,325,196595,1,10,1:2:0:0:
428,186,196921,5,8,1:2:0:0:
354,224,197030,2,0,P|312:209|234:190,1,89.7000017108918,10|0,1:2|0:0,0:0:0:0:
63,60,197247,1,8,1:2:0:0:
132,13,197356,2,0,B|167:44|167:44|160:105,1,93.5999971435548,10|0,1:2|0:0,0:0:0:0:
16,262,197573,5,8,1:2:0:0:
79,208,197682,2,0,P|130:222|181:240,1,97.5,8|0,1:2|0:0,0:0:0:0:
363,348,197899,1,8,1:2:0:0:
302,293,198008,2,0,B|262:323|262:323|274:385,1,101.399995358277,8|0,1:2|0:0,0:0:0:0:
512,272,198226,6,0,P|491:201|476:146,1,105.300000401688,10|0,1:2|1:0,0:0:0:0:
270,1,198443,2,0,P|255:51|240:102,1,105.300000401688,12|0,1:2|0:0,0:0:0:0:
360,186,198660,6,2,B|131:228|285:331|49:385,1,382.199988336182,0|0,0:0|0:0,0:0:0:0:
52,384,200399,5,0,0:0:0:0:
35,364,200617,1,2,0:0:0:0:
44,319,200834,1,2,0:0:0:0:
62,212,201052,5,0,0:0:0:0:
156,203,201269,1,0,0:0:0:0:
192,289,201486,1,2,0:0:0:0:
302,238,201704,5,2,0:0:0:0:
323,200,201813,1,0,0:0:0:0:
315,173,201921,1,0,0:0:0:0:
325,158,202030,1,0,0:0:0:0:
325,158,202139,5,2,0:0:0:0:
348,140,202356,1,0,0:0:0:0:
449,156,202573,1,0,0:0:0:0:
437,249,202791,1,2,0:0:0:0:
454,278,203008,1,0,0:0:0:0:
403,358,203226,1,2,0:0:0:0:
311,317,203443,5,2,0:0:0:0:
275,291,203552,1,0,0:0:0:0:
244,306,203660,1,0,0:0:0:0:
220,304,203769,1,0,0:0:0:0:
220,304,203878,5,2,0:0:0:0:
191,266,204095,1,2,0:0:0:0:
227,225,204313,1,0,0:0:0:0:
327,171,204530,5,0,0:0:0:0:
361,82,204747,1,0,0:0:0:0:
276,36,204965,1,2,0:0:0:0:
187,20,205182,5,2,0:0:0:0:
158,44,205291,1,0,0:0:0:0:
150,67,205399,1,0,0:0:0:0:
130,77,205508,1,0,0:0:0:0:
129,77,205617,5,2,0:0:0:0:
83,65,205834,1,2,0:0:0:0:
4,126,206052,1,0,0:0:0:0:
66,192,206269,1,2,0:0:0:0:
76,237,206486,1,0,0:0:0:0:
1,384,206704,6,2,P|-13:357|72:335,1,156
240,322,207356,6,0,P|300:278|259:170,1,169.650005177307,4|0,0:0|0:0,0:0:0:0:
218,134,207791,2,0,P|204:197|200:214,1,56.5500017257691,2|0,0:0|0:0,0:0:0:0:
155,252,208008,1,0,3:0:0:0:
373,357,208226,2,0,L|385:300,1,56.5500017257691,2|0,0:0|0:0,0:0:0:0:
449,253,208443,2,0,L|421:130,1,113.100003451538,0|0,3:0|0:0,0:0:0:0:
254,9,208878,5,2,3:2:0:0:
254,9,208986,1,0,3:0:0:0:
254,9,209095,2,0,P|315:64|303:109,1,113.100003451538,4|0,0:0|3:0,0:0:0:0:
219,197,209530,1,2,0:0:0:0:
373,290,209747,1,0,3:0:0:0:
295,384,209965,2,0,P|264:372|221:361,1,56.5500017257691,2|0,0:0|0:0,0:0:0:0:
124,204,210182,2,0,P|93:216|50:227,1,56.5500017257691,2|0,3:2|0:0,0:0:0:0:
0,317,210399,1,8,3:2:0:0:
34,343,210508,1,0,0:0:0:0:
22,363,210617,1,2,3:2:0:0:
30,381,210726,1,0,3:0:0:0:
30,381,210834,6,2,P|65:320|219:343,1,193.050001841068,6|0,1:2|3:0,0:0:0:0:
332,159,211269,2,0,P|321:235|316:275,1,96.5250009205342,2|0,1:2|0:0,0:0:0:0:
306,264,211486,2,2,L|326:354,1,64.3500006136894,6|0,1:2|0:0,0:2:0:0:
189,194,211704,2,0,P|180:158|223:106,1,96.5250009205342
218,97,211921,2,0,P|254:74|294:89,1,64.3500006136894,0|0,1:2|3:0,0:0:0:0:
500,177,212139,2,0,L|432:195,1,64.3500006136894,4|0,3:2|0:0,0:0:0:0:
215,324,212356,1,2,3:2:0:0:
172,305,212465,1,0,3:0:0:0:
160,318,212573,6,0,P|68:346|-21:380,1,163.799995001221,12|2,1:2|3:3,0:0:0:0:
232,164,212899,2,0,P|253:70|268:-23,1,163.799995001221,6|0,1:0|3:0,0:0:0:0:
388,276,213226,2,0,P|458:341|532:401,1,163.799995001221,6|0,1:0|0:0,0:0:0:0:
419,60,213660,6,0,P|370:88|335:146,1,89.7000017108918,4|0,0:0|0:0,0:0:0:0:
284,384,213878,2,0,P|284:327|251:268,1,89.7000017108918,0|0,1:0|0:0,0:0:0:0:
27,137,214095,2,0,P|75:165|143:166,1,89.7000017108918,2|0,1:2|0:0,0:0:0:0:
109,171,214747,6,0,P|69:166|7:278,1,156,4|2,0:0|0:0,0:0:0:0:
182,344,215073,1,0,3:0:0:0:
120,382,215182,2,0,P|101:335|102:277,1,78,2|0,1:2|0:0,0:0:0:0:
236,243,215399,2,0,B|342:275|261:293|403:332,1,156,2|10,0:0|0:0,0:0:0:0:
501,197,215726,1,0,3:0:0:0:
448,144,215834,2,0,P|411:196|432:247,1,78,2|0,3:2|3:0,0:0:0:0:
216,142,216052,5,2,1:2:0:0:
187,69,216160,1,0,0:0:0:0:
235,7,216269,1,0,3:0:0:0:
313,8,216378,1,0,3:0:0:0:
359,71,216486,2,0,P|308:89|276:105,1,78,10|0,3:2|0:0,0:0:0:0:
56,85,216704,2,2,B|99:126|99:126|64:249,1,156,2|0,0:0|1:0,0:0:0:0:
209,372,217030,1,0,3:0:0:0:
209,299,217139,2,2,P|155:311|42:367,1,156,2|8,0:2|0:0,0:0:0:0:
199,152,217465,1,0,3:0:0:0:
256,206,217573,2,0,P|300:226|362:244,1,78,2|0,3:2|0:0,0:0:0:0:
489,130,217791,5,2,1:2:0:0:
482,52,217899,1,0,3:0:0:0:
414,12,218008,1,2,3:0:0:0:
344,47,218117,1,0,3:0:0:0:
267,27,218226,2,0,P|217:47|159:63,1,78,8|0,3:2|0:0,0:0:0:0:
60,170,218443,2,0,P|45:129|72:79,1,78,2|0,0:0|3:0,0:0:0:0:
212,170,218660,2,0,P|190:224|184:276,1,78,2|0,1:2|0:0,0:0:0:0:
15,295,218878,2,2,P|75:303|121:397,1,156,2|8,0:0|0:0,0:0:0:0:
346,345,219204,1,0,3:0:0:0:
283,306,219313,2,0,B|257:333|257:333|268:382,1,78,2|0,3:2|3:0,0:0:0:0:
472,318,219530,5,2,1:2:0:0:
484,241,219638,1,0,0:0:0:0:
460,168,219747,1,0,0:0:0:0:
403,116,219856,1,0,3:0:0:0:
349,175,219965,2,0,P|375:241|392:290,1,78,10|0,0:0|0:0,0:0:0:0:
166,218,220182,2,0,P|160:180|183:149,1,78,2|0,0:0|3:0,0:0:0:0:
334,17,220399,1,0,1:0:0:0:
268,53,220508,1,10,0:2:0:0:
199,22,220617,2,0,P|152:6|74:-4,1,117
63,5,220834,2,0,P|32:62|32:90,1,78,8|0,3:2|0:0,0:0:0:0:
184,214,221052,2,0,P|228:193|290:176,1,78,2|2,3:2|3:0,0:0:0:0:
18,291,221269,6,0,P|8:225|88:186,1,156,4|2,1:2|0:0,0:0:0:0:
190,384,221595,1,0,0:0:0:0:
241,333,221704,2,0,B|211:304|211:304|138:310,1,78,8|0,0:0|3:0,0:0:0:0:
265,195,221921,2,0,P|318:225|365:241,1,78,2|0,3:2|0:0,0:0:0:0:
488,86,222139,2,0,P|459:112|462:172,1,78,2|0,1:2|0:0,0:0:0:0:
367,309,222356,2,2,P|356:231|330:133,1,156,2|8,0:0|0:0,0:0:0:0:
145,53,222682,1,0,0:0:0:0:
200,6,222791,2,0,P|227:69|226:121,1,78,0|2,3:0|3:0,0:0:0:0:
57,212,223008,6,0,P|31:176|44:126,1,78,4|0,1:2|0:0,0:0:0:0:
222,255,223226,2,0,P|222:293|198:322,1,78,0|0,3:0|3:0,0:0:0:0:
4,363,223443,2,0,P|41:336|94:318,1,78,8|0,0:0|0:0,0:0:0:0:
170,152,223660,2,2,B|213:145|255:126|241:115|234:109|279:78|348:72,1,156,2|0,0:0|1:0,0:0:0:0:
512,42,223986,1,0,0:0:0:0:
452,1,224095,2,0,P|429:71|435:108,1,78,2|0,3:2|0:0,0:0:0:0:
337,263,224313,2,0,P|353:216|361:170,1,78,8|0,3:2|0:0,0:0:0:0:
491,235,224530,2,0,P|499:273|512:309,1,78,0|2,3:0|3:0,0:0:0:0:
289,370,224747,6,0,P|222:348|120:322,1,156,4|0,1:0|3:0,0:0:0:0:
15,327,225073,2,2,B|46:282|98:244|98:244|38:220|-9:176,1,234,0|2,3:0|3:0,0:0:0:0:
137,82,225508,1,0,0:0:0:0:
193,123,225617,2,0,P|133:164|93:154,1,78,0|0,1:0|0:0,0:0:0:0:
2,2,225834,2,0,P|38:13|63:43,1,78,0|0,3:0|3:0,0:0:0:0:
267,218,226052,2,0,P|281:165|289:123,1,78,2|0,1:1|3:3,0:0:0:0:
172,263,226269,2,0,B|146:295|146:295|159:364,1,78,2|0,3:2|3:0,0:0:0:0:
433,357,226486,5,4,1:0:0:0:
360,326,226595,2,0,P|299:350|261:364,1,85.8000026184083,0|0,1:0|0:0,0:0:0:0:
512,210,226813,1,2,1:2:0:0:
439,241,226922,2,0,P|378:217|340:203,1,85.8000026184083,0|0,1:0|0:0,0:0:0:0:
194,62,227139,5,2,1:2:0:0:
255,104,227247,2,0,B|282:72|282:72|267:4,1,85.8000026184083,0|0,1:0|0:0,0:0:0:0:
125,173,227465,1,0,1:0:0:0:
64,215,227573,2,0,B|36:183|36:183|51:115,1,85.8000026184083,0|0,1:0|0:0,0:0:0:0:
217,324,227791,5,2,1:2:0:0:
282,372,227899,1,0,1:0:0:0:
333,315,228008,2,0,P|334:275|278:230,1,85.8000026184083,2|0,1:2|0:0,0:0:0:0:
102,322,228226,6,0,P|36:361|10:373,1,93.5999971435548,8|0,3:2|3:2,3:2:0:0:
346,140,228443,2,0,P|412:101|438:89,1,93.5999971435548,8|0,3:2|3:2,3:2:0:0:
108,221,228660,2,0,P|33:201|6:192,1,93.5999971435548,8|0,3:2|3:2,3:2:0:0:
399,241,228877,2,0,P|473:260|500:269,1,93.5999971435548,8|2,3:2|3:3,3:2:0:0:
143,121,229095,2,0,P|104:55|92:28,1,93.5999971435548,10|0,3:2|3:2,3:2:0:0:
323,303,229312,2,0,P|362:369|373:395,1,93.5999971435548,8|0,3:2|3:2,3:2:0:0:
247,90,229530,2,0,P|266:15|275:-11,1,93.5999971435548,8|0,3:2|3:2,3:2:0:0:
218,294,229747,2,0,P|198:368|189:395,1,93.5999971435548,8|0,3:2|3:2,3:2:0:0:
463,189,229965,5,2,1:0:0:0:
410,139,230073,1,8,3:2:0:0:
344,138,230182,1,0,1:0:0:0:
280,162,230291,1,8,3:2:0:0:
227,207,230399,1,2,1:2:0:0:
161,234,230508,1,2,1:3:0:0:
92,225,230617,1,0,1:0:0:0:
46,170,230725,1,2,1:3:0:0:
94,111,230834,5,2,1:0:0:0:
162,142,230943,2,0,P|181:92|179:30,1,93.5999971435548,8|0,1:3|3:0,1:0:0:0:
369,241,231160,1,2,1:0:0:0:
301,272,231269,2,0,P|281:222|283:160,1,93.5999971435548,0|0,1:3|3:0,1:0:0:0:
89,349,231486,5,2,1:0:0:0:
172,384,231595,1,2,1:2:0:0:
193,300,231704,1,4,1:0:0:0:
193,300,232573,6,2,P|157:269|-12:391,1,273,2|0,0:0|0:0,0:0:0:0:
62,369,233443,6,0,P|25:286|-7:162,1,185.249995053291,6|0,1:0|0:0,0:0:0:0:
84,174,233769,2,0,P|137:100|228:10,1,185.249995053291,2|0,1:0|0:0,0:0:0:0:
259,103,234095,2,0,P|349:112|394:130,1,111.149997031975,8|0,1:2|0:0,0:0:0:0:
511,106,234313,6,0,B|405:160|506:167|354:229,1,185.249995053291,6|0,1:0|0:0,0:0:0:0:
424,330,234639,2,0,B|324:265|368:356|238:255,1,185.249995053291,2|0,1:0|0:0,0:0:0:0:
178,331,234965,2,0,B|182:251|144:307|159:198,1,111.149997031975,8|0,1:2|0:0,0:0:0:0:
98,168,235182,6,8,P|72:178|56:195,5,37.0499990106583,2|8|8|8|8|8,3:1|3:0|3:0|3:0|3:0|3:0,3:0:0:0:
137,95,235508,2,8,P|115:77|92:72,5,37.0499990106583,2|8|8|8|8|8,1:0|3:0|3:0|3:0|3:0|3:0,3:0:0:0:
213,64,235834,2,8,P|217:36|210:14,3,37.0499990106583,2|8|8|8,3:1|3:0|3:0|3:0,3:0:0:0:
284,108,236052,5,4,0:0:0:0:
284,108,236921,6,0,P|303:189|322:274,1,163.799995001221,6|0,0:0|3:0,0:0:0:0:
388,313,237356,2,0,L|437:282,1,54.5999983337403,2|0,1:0|0:0,0:0:0:0:
292,383,237573,1,0,0:0:0:0:
292,383,237791,2,0,L|220:361,1,54.5999983337403,2|0,1:2|0:0,0:0:0:0:
188,297,238008,2,0,L|55:347,1,109.199996667481,2|8,0:0|1:3,0:0:0:0:
18,114,238443,5,0,3:0:0:0:
35,110,238552,1,0,3:0:0:0:
53,124,238660,2,0,P|92:174|84:259,1,109.199996667481,2|0,1:0|3:0,0:0:0:0:
313,111,239095,2,0,P|294:122|247:135,1,54.5999983337403,2|0,1:2|0:0,0:0:0:0:
220,214,239313,2,0,P|289:232|332:262,1,109.199996667481,2|2,3:0|1:2,0:0:0:0:
512,149,239747,2,0,P|496:212|487:241,1,54.5999983337403,0|0,3:0|0:0,0:0:0:0:
425,384,239965,2,0,B|457:343|457:343|417:223,1,163.799995001221,10|0,1:2|3:0,0:0:0:0:
356,184,240399,6,0,B|302:201|285:231|293:233|301:234|255:291|190:302,1,175.500006694794,4|0,1:2|3:0,0:0:0:0:
146,354,240834,2,0,P|141:302|143:253,1,58.500002231598,2|0,1:0|0:0,0:0:0:0:
173,224,241052,1,0,3:0:0:0:
0,108,241269,2,0,P|28:117|60:133,1,58.500002231598,2|0,1:2|0:0,0:0:0:0:
125,90,241486,2,0,P|161:50|234:58,1,117.000004463196,2|2,0:0|1:2,0:0:0:0:
512,170,241921,6,0,L|434:139,1,58.500002231598,2|0,3:2|3:2,0:0:0:0:
386,35,242139,2,2,B|338:104|338:104|394:211,1,175.500006694794,2|0,1:0|0:0,0:0:0:0:
322,254,242573,2,0,L|262:279,1,58.500002231598,2|0,1:2|0:0,0:0:0:0:
175,366,242791,2,0,B|200:286|157:345|202:197,1,117.000004463196,2|0,3:2|3:2,0:0:0:0:
75,164,243117,1,0,0:0:0:0:
64,177,243226,2,0,L|139:211,1,58.500002231598,2|0,3:2|0:0,0:0:0:0:
244,184,243443,2,0,L|193:9,1,175.500006694794,8|0,1:2|0:0,0:0:0:0:
313,81,243878,6,0,P|359:98|396:116,1,70.1999978576661,12|0,3:2|3:2,3:2:0:0:
459,39,244095,2,0,P|413:22|376:4,1,70.1999978576661,10|0,3:2|3:2,3:2:0:0:
437,181,244313,2,0,P|473:238|418:324,1,140.399995715332,10|8,3:2|3:2,3:2:0:0:
312,334,244639,5,0,3:2:0:0:
301,321,244747,2,0,P|311:279|320:244,1,70.1999978576661,10|0,3:2|3:2,3:2:0:0:
222,285,244965,2,0,P|146:310|78:337,1,140.399995715332,10|10,3:2|3:2,3:2:0:0:
84,226,245291,5,0,3:2:0:0:
96,235,245399,2,0,P|129:193|119:147,1,70.1999978576661,10|0,3:2|3:2,3:2:0:0:
0,16,245617,2,0,P|29:76|96:88,1,140.399995715332,12|8,3:2|3:2,3:2:0:0:
281,39,245943,5,0,3:2:0:0:
267,29,246052,2,0,L|244:116,1,70.1999978576661,10|0,3:2|3:2,3:2:0:0:
236,199,246269,2,0,B|293:175|293:175|308:181|308:181|374:153,1,140.399995715332,10|10,3:2|3:2,3:2:0:0:
473,270,246595,5,0,0:0:0:0:
460,258,246704,2,0,B|443:290|443:290|466:349,1,70.1999978576661,8|0,3:2|3:2,3:2:0:0:
384,373,246921,2,0,P|306:350|210:322,1,140.399995715332,10|8,3:2|3:2,3:2:0:0:
249,333,247356,6,0,P|208:343|175:389,1,78,12|8,3:2|3:2,0:0:0:0:
51,219,247573,2,0,P|87:230|113:259,1,78,8|8,3:0|3:0,0:0:0:0:
351,260,247791,2,0,P|339:223|310:197,1,78,10|8,3:2|3:2,0:0:0:0:
119,32,248008,1,8,3:3:0:0:
108,108,248117,1,8,3:3:0:0:
183,129,248226,2,0,P|208:100|245:88,1,78,10|2,3:2|3:0,0:0:0:0:
471,176,248443,2,0,P|499:150|511:113,1,78,8|2,3:2|3:0,0:0:0:0:
387,16,248660,6,8,L|397:53,3,39,8|8|8|8,3:0|3:0|3:0|3:0,3:0:0:0:
349,125,248878,2,0,L|338:162,3,39,8|8|8|0,3:0|3:0|3:0|0:0,0:0:0:0:
368,239,249095,6,2,B|392:219|396:185|396:185|257:159|257:159|171:194|176:320|215:372|340:356|320:275|284:244,1,544.049983396912,6|2,0:0|0:0,0:0:0:0:
275,252,250834,5,6,0:0:0:0:
275,252,251269,1,2,0:0:0:0:
205,44,251704,1,10,0:0:0:0:
205,44,252573,5,8,0:3:0:0:
101,186,253008,1,2,0:0:0:0:
257,353,253443,1,10,0:0:0:0:
427,130,253878,1,2,0:0:0:0:
228,158,254313,5,2,0:0:0:0:
435,322,255182,5,10,0:0:0:0:
435,322,256052,1,2,0:0:0:0:
326,45,256486,5,2,0:0:0:0:
300,238,256921,1,10,0:0:0:0:
145,119,257356,1,2,0:0:0:0:
