osu file format v14

[General]
AudioFilename: audio.mp3
AudioLeadIn: 0
PreviewTime: 115132
Countdown: 0
SampleSet: Soft
StackLeniency: 0.7
Mode: 0
LetterboxInBreaks: 0
WidescreenStoryboard: 1

[Editor]
Bookmarks: 400,7356,21269,35182,49095,50834,87356,90834,94313,101269,115182,130834,167356,174313,181269,200399,206704,212573,214095,214747,217356,236921,250834,257356
DistanceSpacing: 1
BeatDivisor: 8
GridSize: 4
TimelineZoom: 3.399999

[Metadata]
Title:I believe what you said
TitleUnicode:I believe what you said
Artist:Asaka
ArtistUnicode:亜咲花
Creator:Okoratu
Version:Spkz's Insane
Source:ひぐらしのなく頃に 業
Tags:Higurashi no Naku Koro ni Gou 2020 When the Cicadas Cry anime opening op 07th Expansion Passione Maebara Keiichi Sonozaki Mion Shion Ryuugu Rena Houjou Satoko Satoshi Furude Rika Hanyuu Okorin Electronic Japanese Pop Spkz Yudragen Anime
BeatmapID:2689666
BeatmapSetID:1294563

[Difficulty]
HPDrainRate:6
CircleSize:4
OverallDifficulty:8
ApproachRate:9
SliderMultiplier:2
SliderTickRate:2

[Events]
//Background and Video events
0,0,"behgeh3.jpg",0,0
//Break Periods
2,91034,93713
2,200399,206104
//Storyboard Layer 0 (Background)
//Storyboard Layer 1 (Fail)
//Storyboard Layer 2 (Pass)
//Storyboard Layer 3 (Foreground)
//Storyboard Layer 4 (Overlay)
//Storyboard Sound Samples

[TimingPoints]
400,434.782608695652,4,2,1,50,1,0
400,-100,4,2,1,50,0,0
1160,-100,4,2,2,50,0,0
1378,-100,4,2,1,50,0,0
2899,-100,4,2,2,50,0,0
3117,-100,4,2,1,50,0,0
3443,-100,4,2,1,40,0,0
3878,-100,4,2,1,50,0,0
4639,-100,4,2,2,50,0,0
4856,-100,4,2,1,50,0,0
5617,-200,4,2,1,50,0,0
6378,-200,4,2,2,50,0,0
6595,-200,4,2,1,60,0,0
7356,-100,4,2,1,60,0,0
10834,-83.3333333333333,4,2,1,60,0,0
11269,-100,4,2,1,60,0,0
14313,-100,4,2,1,70,0,0
19095,-57.1428571428571,4,2,1,70,0,0
21160,-57.1428571428571,4,2,1,5,0,0
21269,-133.333333333333,4,2,1,55,0,0
27356,-83.3333333333333,4,2,1,55,0,0
28226,-100,4,2,1,55,0,0
31704,-100,4,2,1,70,0,0
34747,-57.1428571428571,4,2,1,70,0,0
35182,-133.333333333333,4,2,1,80,0,0
35291,-133.333333333333,4,2,1,50,0,0
35943,-133.333333333333,4,2,2,50,0,0
36160,-133.333333333333,4,2,1,50,0,0
37736,-133.333333333333,4,2,2,50,0,0
37845,-133.333333333333,4,2,1,50,0,0
38932,-133.333333333333,4,2,1,5,0,0
39041,-133.333333333333,4,2,1,50,0,0
39476,-133.333333333333,4,2,2,50,0,0
39584,-133.333333333333,4,2,1,50,0,0
40617,-100,4,2,1,50,0,0
41269,-83.3333333333333,4,2,1,70,0,0
42139,-100,4,2,1,60,0,0
47139,-100,4,2,1,70,0,0
49204,-100,4,2,1,60,0,0
50834,-66.6666666666667,4,2,1,80,0,1
64313,-71.4285714285714,4,2,1,80,0,0
64747,-66.6666666666667,4,2,1,80,0,1
80345,-66.6666666666667,4,2,1,70,0,1
80399,-71.4285714285714,4,2,1,70,0,1
82247,-133.333333333333,4,2,1,50,0,0
83878,-66.6666666666667,4,2,1,80,0,0
85563,-66.6666666666667,4,2,1,50,0,0
86486,-66.6666666666667,4,2,1,80,0,0
90834,-66.6666666666667,4,2,1,60,0,0
94313,-100,4,2,1,50,0,0
95834,-83.3333333333333,4,2,1,50,0,0
97791,-100,4,2,1,50,0,0
99095,-57.1428571428571,4,2,1,50,0,0
99476,-57.1428571428571,4,2,1,30,0,0
99530,-57.1428571428571,4,2,1,40,0,0
99639,-57.1428571428571,4,2,1,40,0,0
99747,-57.1428571428571,4,2,1,40,0,0
99856,-57.1428571428571,4,2,1,50,0,0
99965,-57.1428571428571,4,2,1,50,0,0
100073,-57.1428571428571,4,2,1,55,0,0
100182,-57.1428571428571,4,2,1,55,0,0
100291,-57.1428571428571,4,2,1,60,0,0
100399,-57.1428571428571,4,2,1,60,0,0
100508,-57.1428571428571,4,2,1,65,0,0
100617,-57.1428571428571,4,2,1,65,0,0
100726,-57.1428571428571,4,2,1,70,0,0
100834,-57.1428571428571,4,2,1,70,0,0
100943,-57.1428571428571,4,2,1,75,0,0
101052,-57.1428571428571,4,2,1,75,0,0
101269,-133.333333333333,4,2,1,70,0,0
101378,-133.333333333333,4,2,1,50,0,0
108226,-100,4,2,1,60,0,0
111649,-100,4,2,1,70,0,0
114747,-57.1428571428571,4,2,1,70,0,0
115182,-100,4,2,1,70,0,0
115617,-100,4,2,1,60,0,0
121269,-83.3333333333333,4,2,1,70,0,0
122139,-100,4,2,1,60,0,0
130834,-66.6666666666667,4,2,1,80,0,1
144313,-71.4285714285714,4,2,1,80,0,0
144747,-66.6666666666667,4,2,1,80,0,1
160345,-66.6666666666667,4,2,1,70,0,1
160399,-71.4285714285714,4,2,1,70,0,1
162247,-133.333333333333,4,2,1,50,0,0
163878,-66.6666666666667,4,2,1,80,0,0
165563,-66.6666666666667,4,2,1,50,0,0
166486,-66.6666666666667,4,2,1,80,0,0
167356,-76.9230769230769,4,2,1,80,0,0
168226,-76.9230769230769,4,2,1,80,0,0
168660,-76.9230769230769,4,2,1,5,0,0
168878,-76.9230769230769,4,2,1,80,0,0
170182,-76.9230769230769,4,2,1,80,0,0
170399,-76.9230769230769,4,2,1,80,0,0
170617,-76.9230769230769,4,2,1,80,0,0
170834,-76.9230769230769,4,2,1,80,0,0
171704,-76.9230769230769,4,2,1,80,0,0
172030,-76.9230769230769,4,2,1,5,0,0
172139,-76.9230769230769,4,2,1,80,0,0
173226,-76.9230769230769,4,2,1,80,0,0
173552,-76.9230769230769,4,2,1,5,0,0
173660,-76.9230769230769,4,2,1,70,0,0
173769,-76.9230769230769,4,2,1,70,0,0
173878,-76.9230769230769,4,2,1,70,0,0
173986,-76.9230769230769,4,2,1,70,0,0
174095,-76.9230769230769,4,2,1,70,0,0
174204,-76.9230769230769,4,2,1,70,0,0
174313,-58.8235294117647,4,2,1,70,0,0
174639,-58.8235294117647,4,2,1,70,0,0
174747,-200,4,2,1,70,0,0
175073,-200,4,2,1,70,0,0
175182,-58.8235294117647,4,2,1,60,0,0
175399,-58.8235294117647,4,2,2,30,0,0
175508,-58.8235294117647,4,2,2,5,0,0
175617,-58.8235294117647,4,2,1,60,0,0
175834,-58.8235294117647,4,2,1,70,0,0
176704,-58.8235294117647,4,2,1,70,0,0
177139,-66.6666666666667,4,2,1,70,0,0
177791,-58.8235294117647,4,2,1,70,0,0
178117,-58.8235294117647,4,2,1,70,0,0
178226,-200,4,2,1,70,0,0
178552,-200,4,2,1,70,0,0
178660,-58.8235294117647,4,2,1,70,0,0
178986,-58.8235294117647,4,2,1,5,0,0
179095,-58.8235294117647,4,2,1,70,0,0
179747,-58.8235294117647,4,2,1,70,0,0
179965,-58.8235294117647,4,2,1,70,0,0
180182,-58.8235294117647,4,2,1,60,0,0
180399,-58.8235294117647,4,2,1,60,0,0
180617,-58.8235294117647,4,2,1,60,0,0
180834,-50,4,2,1,60,0,0
181052,-43.4782608695652,4,2,1,60,0,0
181269,-90.9090909090909,4,2,1,60,0,0
181323,-90.9090909090909,4,2,2,40,0,0
182030,-90.9090909090909,4,2,1,60,0,0
182356,-66.6666666666667,4,2,1,60,0,0
183008,-133.333333333333,4,2,1,60,0,0
183334,-76.9230769230769,4,2,1,60,0,0
183660,-50,4,2,1,60,0,0
184095,-100,4,2,1,60,0,0
184149,-100,4,2,1,30,0,0
184204,-100,4,2,1,60,0,0
184258,-100,4,2,1,30,0,0
184313,-100,4,2,1,60,0,0
184367,-100,4,2,1,30,0,0
184422,-100,4,2,1,60,0,0
184476,-100,4,2,1,30,0,0
184531,-100,4,2,1,60,0,0
184584,-100,4,2,1,30,0,0
184639,-100,4,2,1,60,0,0
184693,-100,4,2,1,30,0,0
184747,-100,4,2,1,60,0,0
185834,-66.6666666666667,4,2,1,60,0,0
186486,-133.333333333333,4,2,1,60,0,0
186813,-76.9230769230769,4,2,1,60,0,0
188226,-100,4,2,1,60,0,0
189313,-76.9230769230769,4,2,1,60,0,0
189965,-133.333333333333,4,2,1,60,0,0
190291,-76.9230769230769,4,2,1,60,0,0
190617,-50,4,2,1,60,0,0
191052,-76.9230769230769,4,2,1,60,0,0
191106,-76.9230769230769,4,2,1,30,0,0
191161,-76.9230769230769,4,2,1,60,0,0
191215,-76.9230769230769,4,2,1,30,0,0
191270,-76.9230769230769,4,2,1,60,0,0
191323,-76.9230769230769,4,2,1,30,0,0
191378,-76.9230769230769,4,2,1,60,0,0
191432,-76.9230769230769,4,2,1,30,0,0
191487,-76.9230769230769,4,2,1,60,0,0
191541,-76.9230769230769,4,2,1,30,0,0
191596,-76.9230769230769,4,2,1,60,0,0
191649,-76.9230769230769,4,2,1,30,0,0
191704,-76.9230769230769,4,2,1,70,0,0
194584,-76.9230769230769,4,2,1,20,0,0
194639,-76.9230769230769,4,2,1,70,0,0
194693,-76.9230769230769,4,2,1,20,0,0
194748,-76.9230769230769,4,2,1,70,0,0
194802,-76.9230769230769,4,2,1,20,0,0
194857,-76.9230769230769,4,2,1,70,0,0
194910,-76.9230769230769,4,2,1,20,0,0
194965,-76.9230769230769,4,2,1,70,0,0
195019,-76.9230769230769,4,2,1,20,0,0
195074,-76.9230769230769,4,2,1,70,0,0
195128,-76.9230769230769,4,2,1,20,0,0
195182,-76.9230769230769,4,2,1,60,0,0
206704,-100,4,2,1,60,0,0
207356,-133.333333333333,4,2,1,60,0,0
210834,-100,4,2,1,70,0,0
212573,-100,4,2,1,70,0,1
213660,-66.6666666666667,4,2,1,70,0,1
214313,-66.6666666666667,4,2,1,50,0,0
214747,-66.6666666666667,4,2,1,80,0,1
229910,-66.6666666666667,4,2,1,70,0,1
229965,-71.4285714285714,4,2,1,70,0,1
231813,-133.333333333333,4,2,1,50,0,0
233443,-66.6666666666667,4,2,1,80,0,0
235073,-66.6666666666667,4,2,1,50,0,0
236052,-66.6666666666667,4,2,1,80,0,0
236921,-83.3333333333333,4,2,1,60,0,0
243878,-83.3333333333333,4,2,1,70,0,0
245617,-100,4,2,1,70,0,0
248660,-57.1428571428571,4,2,1,70,0,0
250780,-57.1428571428571,4,2,1,5,0,0
250834,-133.333333333333,4,2,1,30,0,0
251649,-133.333333333333,4,2,2,30,0,0
251758,-133.333333333333,4,2,1,30,0,0
253389,-133.333333333333,4,2,2,30,0,0
253497,-133.333333333333,4,2,1,30,0,0
255128,-133.333333333333,4,2,2,30,0,0
255236,-133.333333333333,4,2,1,30,0,0
256867,-133.333333333333,4,2,2,30,0,0
256976,-133.333333333333,4,2,1,30,0,0

[Colours]
Combo1 : 255,21,28
Combo2 : 255,153,51
Combo3 : 53,72,244
Combo4 : 199,36,177
Combo5 : 107,231,237

[HitObjects]
206,316,400,21,0,1:0:0:0:
128,254,617,1,0,0:0:0:0:
141,155,834,1,2,0:0:0:0:
241,86,1052,1,0,0:0:0:0:
103,64,1269,1,8,0:0:0:0:
141,155,1486,22,0,P|115:112|103:63,1,100,8|0,3:3|0:0,0:0:0:0:
250,203,1813,2,0,P|300:203|348:217,1,100,8|0,3:0|0:0,0:0:0:0:
188,275,2139,22,0,P|179:299|165:320,1,50,2|0,1:1|0:0,0:0:0:0:
57,285,2356,2,0,P|78:273|98:256,1,50,2|2,0:0|0:0,0:0:0:0:
265,111,2573,2,0,P|289:120|310:134,1,50,2|0,3:2|0:0,0:0:0:0:
278,244,2791,1,2,0:0:0:0:
278,244,2899,1,0,0:0:0:0:
278,244,3008,2,0,P|266:222|249:202,1,50,8|0,0:0|0:0,0:0:0:0:
494,139,3226,54,0,L|446:152,1,50,8|0,1:3|0:0,0:0:0:0:
217,98,3443,2,0,L|266:111,1,50,2|8,0:1|0:3,0:0:0:0:
265,293,3660,2,0,L|278:245,1,50,2|0,0:1|0:0,0:0:0:0:
383,82,3878,22,0,P|357:125|353:175,1,100,0|2,1:0|0:0,0:0:0:0:
397,363,4313,1,0,0:0:0:0:
474,246,4530,1,0,0:0:0:0:
265,293,4747,1,8,0:0:0:0:
227,147,4965,22,0,P|179:131|129:131,1,100,8|0,3:3|0:0,0:0:0:0:
358,56,5291,2,0,P|384:100|394:148,1,100,8|0,3:0|0:0,0:0:0:0:
313,357,5617,22,2,B|335:307|312:258|312:258|291:211|311:163,1,200,2|8,0:0|0:0,0:0:0:0:
447,93,6704,54,0,P|435:87|423:84,1,25,8|0,1:3|0:0,0:0:0:0:
184,87,7030,2,0,P|196:81|208:78,1,25,8|0,1:3|0:0,0:0:0:0:
47,263,7356,22,0,P|52:214|40:166,1,100,4|0,0:0|3:0,0:0:0:0:
184,87,7791,2,0,P|258:93|331:76,1,150,2|0,0:0|0:0,0:0:0:0:
358,67,8226,2,0,P|406:56|456:56,2,100,2|2|2,0:0|0:0|3:0,0:0:0:0:
220,214,8878,21,2,0:0:0:0:
220,214,8986,1,0,0:0:0:0:
220,214,9095,2,0,P|288:244|362:255,1,150,6|0,1:3|3:0,0:0:0:0:
118,303,9530,2,0,P|94:301|69:305,1,50,2|0,0:0|0:0,0:0:0:0:
142,109,9747,2,0,P|212:82|284:100,1,150,2|0,0:0|0:0,0:0:0:0:
22,158,10182,2,0,P|13:136|9:111,1,50
219,213,10399,2,0,P|250:281|236:354,1,150,2|0,0:0|3:3,0:0:0:0:
431,108,10834,22,0,P|439:34|369:61,1,179.999994506836,4|0,0:0|0:0,0:0:0:0:
343,190,11269,2,0,P|344:265|359:339,1,150,2|0,0:0|0:0,0:0:0:0:
370,364,11704,2,0,P|420:362|469:350,2,100,2|2|2,0:0|3:2|1:2,0:0:0:0:
189,246,12356,21,2,3:0:0:0:
189,246,12465,1,0,3:0:0:0:
189,246,12573,2,0,L|164:97,1,150,4|0,1:3|3:0,0:0:0:0:
336,60,13008,2,0,L|385:51,1,50,2|0,0:0|0:0,0:0:0:0:
75,115,13226,2,0,L|99:263,1,150,2|0,3:2|0:0,0:0:0:0:
243,49,13660,2,0,L|234:0,1,50,2|0,3:2|0:0,0:0:0:0:
279,237,13878,2,0,P|258:306|193:340,1,150,2|0,1:2|3:0,0:0:0:0:
0,286,14313,53,12,3:2:0:0:
0,286,14530,1,8,3:2:0:0:
220,141,14747,21,10,3:2:0:0:
220,141,14965,1,8,3:2:0:0:
137,334,15182,37,10,3:2:0:0:
137,334,15399,1,10,3:2:0:0:
83,93,15617,21,10,1:2:0:0:
83,93,15834,1,10,3:2:0:0:
249,86,16052,38,0,L|298:80,1,50,14|0,3:2|3:2,3:2:0:0:
234,208,16269,2,0,L|184:213,1,50,8|0,3:2|3:2,3:2:0:0:
257,63,16486,22,0,L|306:57,1,50,10|0,3:2|3:2,3:2:0:0:
226,231,16704,2,0,L|176:236,1,50,10|0,3:2|3:2,3:2:0:0:
178,125,16921,38,0,L|172:76,1,50,10|0,3:2|0:0,0:0:0:0:
300,140,17138,2,0,L|305:190,1,50,8|0,3:2|3:2,3:2:0:0:
155,117,17356,22,0,L|149:68,1,50,10|0,3:2|3:2,3:2:0:0:
323,148,17573,2,0,L|328:198,1,50,8|0,3:2|3:2,3:2:0:0:
123,348,17791,5,12,3:2:0:0:
122,297,17899,1,8,3:2:0:0:
139,249,18008,1,8,3:0:0:0:
169,210,18117,1,8,3:0:0:0:
221,185,18226,5,10,3:2:0:0:
277,184,18334,1,8,3:2:0:0:
323,148,18443,1,8,3:0:0:0:
336,91,18552,1,8,3:0:0:0:
301,39,18660,53,8,3:2:0:0:
239,28,18768,1,2,3:0:0:0:
183,56,18877,1,8,3:2:0:0:
155,112,18986,1,2,3:0:0:0:
168,154,19095,6,0,P|188:145|210:143,1,43.7500004172325,2|8,1:2|3:2,3:0:0:0:
160,187,19204,2,0,P|181:189|201:198,1,43.7500004172325,8|8,3:2|3:3,0:0:0:0:
138,214,19313,2,0,P|155:226|168:244,1,43.7500004172325,8|8,3:2|3:2,0:0:0:0:
106,227,19421,2,0,P|114:246|116:268,1,43.7500004172325,0|8,3:0|3:0,0:0:0:0:
71,223,19530,5,2,3:2:0:0:
256,192,19584,12,0,21160,0:0:0:0:
439,128,21269,22,0,L|364:133,1,75.0000028610231,4|2,0:0|0:0,0:0:0:0:
233,25,21704,2,0,B|242:60|242:60|233:97,1,75.0000028610231,8|0,0:3|0:0,0:0:0:0:
173,215,22030,1,8,0:3:0:0:
173,215,22139,2,0,L|210:217,1,37.5000014305115,8|0,0:3|0:0,0:0:0:0:
336,226,22356,2,0,L|410:230,1,75.0000028610231,2|8,0:0|0:3,0:0:0:0:
433,232,22682,1,0,0:0:0:0:
454,237,22790,1,0,0:0:0:0:
473,250,22899,1,0,0:0:0:0:
485,269,23008,38,0,L|493:156,1,112.500004291535,10|0,0:3|0:0,0:0:0:0:
359,101,23443,2,0,L|353:175,1,75.0000028610231,8|0,0:3|0:0,0:0:0:0:
225,256,23769,2,0,L|230:181,1,75.0000028610231,8|0,0:3|0:0,0:0:0:0:
145,116,24095,2,0,L|108:122,1,37.5000014305115,2|0,0:0|0:0,0:0:0:0:
230,181,24313,2,0,L|267:187,1,37.5000014305115,8|0,0:3|0:0,0:0:0:0:
242,83,24530,2,0,L|247:45,1,37.5000014305115,2|0,0:0|0:0,0:0:0:0:
132,217,24747,1,10,1:3:0:0:
245,308,24965,22,0,P|254:345|252:382,2,75.0000028610231,0|8|0,0:0|0:3|0:0,0:0:0:0:
132,217,25508,1,8,0:3:0:0:
132,217,25617,2,0,P|117:208|99:201,1,37.5000014305115,8|0,0:3|0:0,0:0:0:0:
0,104,25834,2,0,P|28:80|62:66,1,75.0000028610231,2|8,0:0|0:3,0:0:0:0:
86,62,26160,1,0,0:0:0:0:
108,60,26268,1,2,0:0:0:0:
130,63,26377,1,0,0:0:0:0:
152,67,26486,38,0,P|189:76|226:75,1,75.0000028610231,10|0,1:3|0:0,0:0:0:0:
382,55,26813,2,0,P|417:40|454:36,2,75.0000028610231
453,178,27356,38,0,L|442:237,1,59.9999981689454,8|0,1:3|0:0,0:0:0:0:
268,333,27573,2,0,L|257:273,1,59.9999981689454,2|0,0:0|0:0,0:0:0:0:
205,80,27791,5,10,1:3:0:0:
147,71,27899,1,0,0:0:0:0:
99,105,28008,1,2,0:0:0:0:
89,162,28117,1,0,3:0:0:0:
115,214,28226,6,0,P|141:255|139:304,1,100,4|2,0:0|3:2,0:0:0:0:
411,366,28660,2,0,P|385:325|387:276,1,100,8|0,3:0|0:0,0:0:0:0:
486,163,28986,1,8,0:3:0:0:
486,163,29095,2,0,P|504:145|509:121,1,50,8|0,3:3|0:0,0:0:0:0:
384,38,29313,2,0,L|284:30,1,100,2|8,0:0|0:3,0:0:0:0:
254,27,29639,1,0,0:0:0:0:
224,24,29747,1,2,3:2:0:0:
194,22,29856,1,0,3:0:0:0:
164,20,29965,22,0,P|172:69|164:118,1,100,10|2,0:3|3:2,0:0:0:0:
50,256,30291,1,0,0:0:0:0:
50,256,30399,2,0,P|42:207|50:158,1,100,8|0,0:3|0:0,0:0:0:0:
142,342,30726,1,8,0:3:0:0:
142,342,30834,2,0,P|167:337|192:340,1,50,10|0,0:3|0:0,0:0:0:0:
430,279,31052,2,0,L|381:272,1,50,2|0,3:2|0:0,0:0:0:0:
233,187,31269,2,0,L|282:180,1,50,8|0,0:3|0:0,0:0:0:0:
418,86,31486,2,0,L|369:79,1,50,2|0,3:2|3:3,0:0:0:0:
187,25,31704,21,12,3:2:0:0:
187,25,31921,1,10,3:2:0:0:
433,176,32139,21,8,3:2:0:0:
433,176,32356,1,8,3:2:0:0:
176,140,32573,37,10,3:2:0:0:
176,140,32790,1,8,3:2:0:0:
422,291,33008,21,8,3:2:0:0:
422,291,33225,1,10,3:2:0:0:
432,24,33443,21,14,3:2:0:0:
387,46,33552,1,0,1:0:0:0:
361,88,33660,1,10,3:2:0:0:
361,137,33769,1,0,1:0:0:0:
393,185,33878,5,10,1:3:0:0:
422,234,33986,1,8,3:2:0:0:
422,291,34095,1,2,1:2:0:0:
396,342,34204,1,10,3:2:0:0:
340,371,34313,53,8,1:3:0:0:
278,363,34421,1,0,1:0:0:0:
230,323,34530,1,2,1:2:0:0:
216,262,34639,1,2,1:2:0:0:
233,220,34747,6,0,P|246:237|265:247,1,43.7500004172325,0|0,1:0|1:0,1:0:0:0:
246,189,34856,2,0,P|267:198|288:196,1,43.7500004172325,0|0,1:0|1:0,0:0:0:0:
233,157,34965,2,0,P|255:154|273:142,1,43.7500004172325,0|0,1:0|1:0,0:0:0:0:
203,143,35073,2,0,P|220:129|231:109,1,43.7500004172325,0|0,1:0|1:0,0:0:0:0:
172,146,35182,6,0,B|139:131|101:150|101:150|63:167|26:151,1,150.000005722046,4|0,0:0|0:0,0:0:0:0:
301,64,35834,1,2,0:0:0:0:
301,64,36052,2,0,P|337:51|374:51,1,75.0000028610231,8|8,0:0|3:0,0:0:0:0:
479,157,36486,1,0,0:0:0:0:
479,157,36704,2,0,P|444:168|407:170,1,75.0000028610231,2|8,0:0|3:0,0:0:0:0:
309,248,37139,2,2,P|339:272|374:285,1,75.0000028610231,0|0,0:2|0:0,0:2:0:0:
175,107,37573,2,2,P|52:134|128:235,1,300.000011444092,0|2,0:2|0:0,0:0:0:0:
398,216,38660,22,0,L|248:228,1,150.000005722046,2|0,0:0|0:0,0:0:0:0:
95,306,39313,2,0,B|94:346|94:346|112:384,2,75.0000028610231,0|8|8,3:0|0:0|3:0,0:0:0:0:
0,191,39965,1,0,0:0:0:0:
139,117,40182,2,0,L|213:106,1,75.0000028610231,0|8,0:0|3:0,0:0:0:0:
99,208,40617,2,2,L|0:191,1,100,2|0,0:0|0:0,0:0:0:0:
89,33,41052,1,0,0:0:0:0:
210,172,41269,6,0,P|237:183|267:183,1,59.9999981689454,8|0,0:0|0:0,0:0:0:0:
452,18,41486,1,8,3:0:0:0:
452,18,41595,2,0,P|441:45|440:75,1,59.9999981689454,8|0,0:0|0:0,0:0:0:0:
468,314,41813,1,8,3:3:0:0:
468,314,41922,2,0,P|478:286|479:256,1,59.9999981689454,8|0,0:0|0:0,0:0:0:0:
440,76,42139,6,0,B|409:80|378:63|378:63|317:92|245:73,1,200,12|0,3:2|3:0,3:0:0:0:
123,27,42791,1,8,1:3:0:0:
40,127,43008,2,0,P|36:142|34:159,3,33.3333333333333,8|0|0|0,1:2|3:0|3:2|3:0,3:0:0:0:
63,255,43334,1,0,3:0:0:0:
63,255,43443,2,0,P|86:248|111:249,1,50,2|0,3:2|2:0,3:0:0:0:
269,319,43660,1,8,3:0:0:0:
282,325,43768,1,0,2:0:0:0:
296,331,43877,1,2,3:0:0:0:
310,335,43986,1,0,3:0:0:0:
325,338,44095,22,0,P|374:339|423:329,1,100,8|2,3:2|3:2,3:0:0:0:
485,126,44421,1,0,3:0:0:0:
464,140,44529,1,0,1:0:0:0:
448,159,44638,1,0,3:0:0:0:
437,182,44747,2,0,P|432:197|430:214,3,33.3333333333333,8|0|0|0,1:2|3:0|3:0|3:0,3:0:0:0:
325,338,45073,1,0,3:2:0:0:
297,317,45182,2,0,P|281:310|265:306,3,33.3333333333333,2|0|0|2,3:0|3:0|3:0|3:2,3:0:0:0:
86,322,45508,1,0,3:2:0:0:
49,355,45617,38,0,P|43:305|57:259,1,100,8|0,3:0|3:0,3:0:0:0:
258,225,45943,1,0,2:0:0:0:
258,225,46052,2,0,L|209:216,1,50,0|0,3:0|3:0,0:0:0:0:
82,79,46269,2,0,L|132:87,1,50,0|0,1:0|1:0,0:0:0:0:
263,8,46486,2,0,L|296:2,3,33.3333333333333,8|0|0|2,3:2|3:0|3:0|3:2,3:0:0:0:
131,87,46813,1,0,3:0:0:0:
125,121,46921,1,2,3:2:0:0:
127,156,47030,1,0,3:0:0:0:
136,190,47139,1,8,3:0:0:0:
153,220,47247,1,0,3:0:0:0:
175,247,47356,1,2,3:0:0:0:
203,269,47465,1,0,3:0:0:0:
234,284,47573,6,0,P|258:291|283:292,1,50,14|0,3:0|0:0,0:0:0:0:
444,197,47791,1,0,0:0:0:0:
444,197,47899,1,8,3:0:0:0:
464,151,48007,1,8,3:0:0:0:
456,91,48116,1,8,3:0:0:0:
407,41,48225,1,0,0:0:0:0:
332,34,48334,38,0,P|307:36|282:47,1,50,8|8,3:2|3:0,0:0:0:0:
124,237,48552,2,0,P|125:213|136:188,1,50,8|0,0:3|0:0,0:0:0:0:
378,119,48769,1,8,3:0:0:0:
361,187,48878,1,8,3:0:0:0:
311,138,48986,1,0,1:0:0:0:
336,61,49095,22,0,P|383:49|427:69,1,100,4|0,0:0|0:0,0:0:0:0:
136,307,49530,37,8,3:0:0:0:
98,244,49638,1,8,3:0:0:0:
112,172,49747,1,4,3:2:0:0:
428,70,50182,21,12,0:2:0:0:
176,335,50617,54,0,P|157:317|135:306,1,50,2|0,0:0|0:0,0:0:0:0:
176,335,50834,22,2,P|167:261|191:191,1,150.000005722046,4|0,0:0|3:0,0:0:0:0:
44,37,51160,1,0,3:0:0:0:
44,37,51269,2,0,P|60:72|64:109,1,75.0000028610231,8|0,3:2|0:0,0:0:0:0:
191,191,51486,2,0,P|225:174|262:170,1,75.0000028610231,2|0,0:0|0:0,0:0:0:0:
176,335,51704,2,0,P|139:330|106:314,1,75.0000028610231,2|0,1:2|0:0,0:0:0:0:
343,306,51921,2,0,P|415:290|490:294,1,150.000005722046,2|8,0:0|1:2,0:0:0:0:
414,145,52247,1,0,3:0:0:0:
414,145,52356,2,0,P|392:114|382:78,1,75.0000028610231,2|0,0:0|0:0,0:0:0:0:
87,80,52573,38,2,L|236:64,1,150.000005722046,2|0,1:2|3:0,0:0:0:0:
75,226,52899,1,0,3:0:0:0:
63,262,53008,2,0,P|70:299|92:329,1,75.0000028610231,8|0,0:0|0:0,0:0:0:0:
209,233,53226,2,2,P|211:195|229:163,1,75.0000028610231,2|0,0:0|0:0,0:0:0:0:
412,178,53443,2,0,P|378:190|352:217,1,75.0000028610231,0|0,1:0|3:0,0:0:0:0:
237,309,53660,2,2,P|199:312|164:300,1,75.0000028610231,2|0,0:0|0:0,0:0:0:0:
412,178,53878,2,0,P|449:174|484:186,1,75.0000028610231,8|0,0:0|0:0,0:0:0:0:
338,340,54095,1,2,0:0:0:0:
338,340,54313,22,0,B|357:284|323:237|323:237|289:185|314:126,1,225.000008583069,2|0,1:2|3:0,0:0:0:0:
391,67,54747,2,0,P|363:42|327:31,1,75.0000028610231,8|0,3:2|0:0,0:0:0:0:
141,145,54965,2,0,P|177:136|213:144,1,75.0000028610231,2|0,0:0|0:0,0:0:0:0:
460,143,55182,2,0,P|424:154|397:179,1,75.0000028610231,2|0,1:2|3:0,0:0:0:0:
224,278,55399,2,0,P|247:208|213:144,1,150.000005722046,2|8,0:0|0:0,0:0:0:0:
49,63,55726,1,0,3:0:0:0:
49,63,55834,2,0,L|42:137,1,75.0000028610231,2|0,0:0|0:0,0:0:0:0:
0,316,56052,38,0,P|74:318|148:332,1,150.000005722046,2|0,1:2|3:0,0:0:0:0:
308,254,56378,1,0,3:0:0:0:
308,254,56486,2,0,P|344:246|382:242,1,75.0000028610231,10|0,3:2|0:0,0:0:0:0:
196,94,56704,2,2,P|205:168|202:243,1,150.000005722046,2|0,0:2|1:0,0:0:0:0:
296,54,57030,1,8,1:2:0:0:
296,54,57138,2,0,P|332:62|370:66,1,75.0000028610231,2|0,0:0|3:0,0:0:0:0:
95,95,57356,1,8,0:0:0:0:
305,154,57573,1,2,3:2:0:0:
67,172,57791,22,0,B|55:22,1,150.000005722046,4|0,1:2|3:0,0:0:0:0:
221,62,58117,1,0,3:0:0:0:
221,62,58226,2,0,L|295:54,1,75.0000028610231,10|0,3:2|0:0,0:0:0:0:
142,164,58443,2,0,L|68:172,1,75.0000028610231,2|0,3:2|3:0,0:0:0:0:
232,259,58660,2,0,L|306:267,1,75.0000028610231,0|0,1:2|0:0,0:0:0:0:
53,340,58878,2,0,P|80:272|149:251,1,150.000005722046,2|8,3:0|0:0,0:0:0:0:
248,159,59204,1,0,0:0:0:0:
248,159,59313,38,0,B|322:159|322:159|396:141,1,150.000005722046,0|4,3:0|3:2,0:0:0:0:
510,17,59639,1,0,0:0:0:0:
510,17,59747,2,0,L|437:34,1,75.0000028610231,2|0,0:0|0:0,0:0:0:0:
396,141,59965,2,0,P|384:176|393:213,1,75.0000028610231,8|0,3:2|0:0,0:0:0:0:
236,337,60182,2,0,P|246:301|237:266,1,75.0000028610231
219,159,60399,2,0,P|253:169|290:161,1,75.0000028610231,0|0,1:0|0:0,0:0:0:0:
416,316,60617,2,0,P|379:304|344:314,1,75.0000028610231,2|0,0:0|0:0,0:0:0:0:
173,299,60834,22,0,P|126:244|125:170,1,150.000005722046,8|2,0:0|3:2,0:0:0:0:
34,86,61160,1,0,3:0:0:0:
55,56,61269,2,0,P|124:31|193:56,1,150.000005722046,6|0,1:2|3:0,0:0:0:0:
190,357,61704,38,0,L|198:207,1,150.000005722046,8|2,0:0|0:0,0:0:0:0:
410,38,62139,2,0,L|402:188,1,150.000005722046,0|0,1:0|0:0,0:0:0:0:
390,340,62465,1,0,3:0:0:0:
390,340,62573,2,0,P|392:302|379:267,1,75.0000028610231,10|0,0:0|0:0,0:0:0:0:
255,148,62791,2,0,P|224:129|187:124,1,75.0000028610231,2|0,3:0|0:0,0:0:0:0:
96,293,63008,5,6,1:1:0:0:
96,293,63117,1,0,1:0:0:0:
20,86,63334,37,2,1:1:0:0:
20,86,63443,1,0,1:0:0:0:
255,148,63660,21,2,1:1:0:0:
255,148,63769,1,0,1:0:0:0:
0,213,63986,37,0,1:0:0:0:
0,213,64095,1,4,1:0:0:0:
180,55,64313,1,2,1:0:0:0:
248,40,64421,1,0,1:0:0:0:
317,53,64530,2,0,P|346:68|370:95,1,69.9999978637696,2|0,1:2|0:0,0:0:0:0:
354,188,64747,54,2,P|358:114|317:53,1,150.000005722046,4|2,1:2|3:0,0:0:0:0:
483,16,65073,1,0,3:0:0:0:
483,16,65182,2,0,L|474:90,1,75.0000028610231,8|0,3:2|0:0,0:0:0:0:
463,199,65399,2,0,L|471:273,1,75.0000028610231,2|0,0:0|3:0,0:0:0:0:
306,263,65617,2,0,P|341:275|378:271,1,75.0000028610231,2|0,1:2|0:0,0:0:0:0:
190,206,65834,2,2,P|120:184|48:201,1,150.000005722046,2|8,0:0|0:0,0:0:0:0:
14,362,66160,1,0,3:0:0:0:
14,362,66269,2,0,P|41:338|50:302,1,75.0000028610231,2|0,3:2|0:0,0:0:0:0:
109,36,66486,38,2,P|42:34|43:101,1,150.000005722046,2|0,1:2|0:0,0:0:0:0:
190,206,66813,1,0,3:0:0:0:
218,180,66921,2,0,P|227:144|223:107,1,75.0000028610231,10|0,3:2|0:0,0:0:0:0:
47,201,67139,2,2,P|38:236|41:273,1,75.0000028610231,2|0,3:2|0:0,0:0:0:0:
149,120,67356,2,0,L|222:107,1,75.0000028610231,0|0,1:0|3:0,0:0:0:0:
396,0,67573,2,2,L|383:73,1,75.0000028610231,2|0,0:0|0:0,0:0:0:0:
408,225,67791,2,0,L|335:212,1,75.0000028610231,8|0,0:0|0:0,0:0:0:0:
229,318,68008,1,2,3:2:0:0:
229,318,68226,6,2,B|264:309|299:322|299:322|355:317|355:317|407:337|453:319,1,225.000008583069,2|2,1:2|3:2,0:0:0:0:
302,202,68660,2,0,P|302:164|284:133,1,75.0000028610231,8|0,3:2|0:0,0:0:0:0:
203,21,68878,2,0,P|170:39|152:71,1,75.0000028610231,2|0,3:2|0:0,0:0:0:0:
140,213,69095,2,0,P|172:195|190:162,1,75.0000028610231,2|0,1:2|0:0,0:0:0:0:
300,31,69313,2,2,P|355:80|428:74,1,150.000005722046,2|8,3:2|0:0,0:0:0:0:
509,153,69639,1,0,3:0:0:0:
509,153,69747,2,0,P|474:165|451:193,1,75.0000028610231,2|0,3:2|0:0,0:0:0:0:
363,308,69965,6,2,L|352:158,1,150.000005722046,2|0,1:0|0:0,0:0:0:0:
423,27,70291,1,0,3:0:0:0:
423,27,70399,2,0,L|502:19,1,75.0000028610231,10|0,0:0|0:0,0:0:0:0:
352,158,70617,2,2,P|292:114|270:44,1,150.000005722046,2|0,0:0|1:0,3:0:0:0:
251,277,70943,1,0,3:1:0:0:
251,277,71051,2,0,L|172:285,1,75.0000028610231,2|0,3:1|0:0,0:0:0:0:
6,105,71269,1,8,0:0:0:0:
49,298,71486,1,0,3:0:0:0:
33,63,71704,38,0,L|185:52,1,150.000005722046,4|2,1:2|0:0,0:0:0:0:
332,137,72030,1,0,0:0:0:0:
332,137,72139,2,0,L|406:131,1,75.0000028610231,8|0,0:0|3:0,0:0:0:0:
349,296,72356,2,0,L|274:290,1,75.0000028610231,2|0,3:2|0:0,0:0:0:0:
126,212,72573,2,0,L|51:206,1,75.0000028610231,0|0,1:0|0:0,0:0:0:0:
203,342,72791,2,2,P|193:269|236:210,1,150.000005722046,2|8,0:0|0:0,0:0:0:0:
337,62,73117,1,0,0:0:0:0:
337,62,73226,2,0,L|331:137,1,75.0000028610231,0|0,3:0|3:0,0:0:0:0:
425,262,73443,6,0,P|453:285|464:320,1,75.0000028610231,4|0,1:2|0:0,0:0:0:0:
307,205,73660,2,0,P|272:218|236:210,1,75.0000028610231,2|0,3:2|0:0,0:0:0:0:
415,131,73878,2,0,P|420:94|445:67,1,75.0000028610231,8|0,2:0|0:0,0:0:0:0:
252,22,74095,2,2,P|179:28|138:88,1,150.000005722046,2|0,0:0|1:0,0:0:0:0:
104,279,74421,1,0,3:0:0:0:
104,279,74530,2,0,L|115:204,1,75.0000028610231,2|0,3:2|0:0,0:0:0:0:
35,48,74747,2,0,L|23:122,1,75.0000028610231,8|0,0:0|0:0,0:0:0:0:
115,205,74965,2,0,L|190:217,1,75.0000028610231,2|0,0:0|0:0,0:0:0:0:
329,351,75182,6,0,P|304:280|316:207,1,150.000005722046,6|0,1:0|3:0,0:0:0:0:
401,85,75508,1,0,3:0:0:0:
401,85,75617,2,0,P|330:110|257:98,1,150.000005722046,8|2,3:2|0:0,0:0:0:0:
135,20,75943,1,0,0:0:0:0:
135,20,76052,1,0,1:0:0:0:
35,239,76269,1,0,0:0:0:0:
250,173,76486,2,0,L|258:98,1,75.0000028610231,2|0,1:0|0:0,0:0:0:0:
43,164,76704,2,0,L|35:239,1,75.0000028610231,2|0,0:0|0:0,0:0:0:0:
195,345,76921,5,4,1:2:0:0:
195,345,77030,1,0,1:0:0:0:
411,274,77247,21,2,1:2:0:0:
411,274,77356,1,0,1:0:0:0:
257,98,77573,37,2,1:2:0:0:
257,98,77682,1,0,1:0:0:0:
313,365,77899,21,0,1:0:0:0:
313,365,78008,1,0,1:0:0:0:
141,175,78226,37,2,1:2:0:0:
156,104,78334,1,0,1:0:0:0:
201,48,78443,2,0,P|231:28|268:24,1,75.0000028610231,2|0,1:2|0:0,0:0:0:0:
512,106,78660,53,8,3:2:0:0:
512,106,78878,1,8,3:2:0:0:
217,156,79095,37,8,3:2:0:0:
217,156,79313,1,8,3:2:0:0:
420,349,79530,21,10,3:2:0:0:
420,349,79748,1,8,3:2:0:0:
429,36,79965,37,8,3:2:0:0:
429,36,80182,1,8,3:2:0:0:
220,10,80399,37,2,1:0:0:0:
160,9,80507,1,8,3:2:0:0:
130,61,80616,1,0,1:0:0:0:
159,113,80725,1,8,3:2:0:0:
228,128,80834,21,2,1:2:0:0:
296,111,80942,1,2,1:3:0:0:
363,127,81051,1,0,1:0:0:0:
416,172,81160,1,2,1:3:0:0:
428,255,81268,37,2,1:0:0:0:
428,255,81378,1,8,1:3:0:0:
352,37,81595,21,2,1:0:0:0:
352,37,81704,1,8,1:3:0:0:
267,288,81921,37,2,1:0:0:0:
267,288,82030,1,2,1:2:0:0:
267,288,82139,1,0,1:0:0:0:
179,39,82573,5,0,0:0:0:0:
179,39,83008,2,2,P|242:125|136:126,1,262.500010013581,2|0,0:0|0:0,0:0:0:0:
99,68,83878,54,0,P|137:131|141:205,1,150.000005722046,6|0,1:0|0:0,0:0:0:0:
301,363,84204,2,0,P|263:300|259:226,1,150.000005722046,2|0,1:0|0:0,0:0:0:0:
341,57,84530,1,8,0:0:0:0:
397,267,84747,22,0,P|334:229|260:225,1,150.000005722046,6|0,1:0|0:0,0:0:0:0:
99,68,85073,2,0,P|162:106|236:110,1,150.000005722046,2|0,1:0|0:0,0:0:0:0:
439,9,85399,1,8,0:0:0:0:
405,230,85617,38,8,L|397:266,7,37.5000014305115,2|8|8|8|8|8|0|8,3:1|3:0|3:0|3:0|3:0|3:0|3:1|3:0,3:0:0:0:
454,333,86052,2,8,L|481:358,6,37.5000014305115,8|8|8|8|0|8|8,3:0|3:0|3:0|3:0|3:1|3:0|3:0,3:0:0:0:
271,298,86486,1,4,3:2:0:0:
256,192,87356,5,4,0:0:0:0:
256,192,87410,12,2,90834,0:0:0:0:
203,169,94313,70,0,L|189:217,1,50,2|0,3:2|3:0,0:0:0:0:
105,308,94530,2,0,L|118:259,1,50,0|0,3:0|0:0,0:0:0:0:
171,93,94747,2,0,L|74:66,1,100,8|0,0:0|3:0,0:0:0:0:
374,56,95073,1,0,0:0:0:0:
374,56,95182,2,0,P|379:106|365:154,1,100,2|0,0:0|0:0,0:0:0:0:
243,51,95508,1,0,0:0:0:0:
243,51,95617,2,2,L|291:40,1,50,8|0,3:2|0:0,0:0:0:0:
470,249,95834,54,2,B|413:235|413:235|351:235,1,119.999996337891,2|8,0:0|3:0,0:3:0:0:
130,225,96160,1,0,3:0:0:0:
130,225,96269,2,0,L|88:267,1,59.9999981689454,2|0,3:2|0:0,0:0:0:0:
207,81,96486,2,0,L|191:23,1,59.9999981689454,8|0,0:0|0:0,0:0:0:0:
293,219,96704,2,0,L|351:234,1,59.9999981689454,2|0,3:2|0:0,0:0:0:0:
89,59,96921,1,10,3:0:0:0:
52,105,97029,1,8,0:0:0:0:
41,164,97138,1,0,1:0:0:0:
41,164,97356,2,0,L|100:156,1,59.9999981689454,8|0,1:2|0:0,0:0:0:0:
172,287,97573,2,0,L|231:294,1,59.9999981689454,2|0,3:0|0:0,0:0:0:0:
461,195,97791,5,8,1:3:0:0:
475,147,97899,1,0,1:0:0:0:
464,99,98008,1,8,1:2:0:0:
430,63,98117,1,2,1:3:0:0:
374,51,98226,53,10,1:2:0:0:
321,76,98334,1,0,1:0:0:0:
298,129,98443,1,8,1:2:0:0:
317,184,98552,1,0,1:0:0:0:
304,245,98660,5,10,1:2:0:0:
257,285,98768,1,2,1:3:0:0:
194,289,98877,1,2,1:2:0:0:
142,254,98986,1,2,1:3:0:0:
144,210,99095,54,0,P|124:218|101:220,1,43.7500004172325,0|0,1:0|1:0,1:0:0:0:
151,176,99204,2,0,P|130:174|109:165,1,43.7500004172325,0|0,1:0|1:0,0:0:0:0:
174,150,99313,2,0,P|157:138|143:119,1,43.7500004172325,0|0,1:0|1:0,0:0:0:0:
206,136,99421,2,0,P|198:117|195:95,1,43.7500004172325,0|0,1:0|1:0,0:0:0:0:
239,141,99530,53,2,0:0:0:0:
245,267,99747,1,0,0:0:0:0:
365,134,99965,1,0,0:0:0:0:
372,261,100182,1,2,0:0:0:0:
186,207,100399,37,0,0:0:0:0:
424,195,100617,1,0,0:0:0:0:
183,78,100834,1,2,0:0:0:0:
311,320,101052,1,2,0:0:0:0:
378,38,101269,22,4,L|373:112,1,75.0000028610231,4|0,0:0|3:0,0:0:0:0:
219,130,101704,2,0,L|145:125,1,75.0000028610231,8|0,0:3|3:0,0:0:0:0:
33,226,102031,1,0,0:0:0:0:
33,226,102139,2,0,L|70:228,1,37.5000014305115,8|0,0:3|0:0,0:0:0:0:
193,266,102356,2,0,L|188:340,1,75.0000028610231,2|8,0:0|3:0,0:0:0:0:
168,352,102682,1,0,3:0:0:0:
146,360,102790,1,2,3:2:0:0:
124,363,102899,1,0,3:0:0:0:
102,362,103008,38,0,L|100:249,1,112.500004291535,8|2,0:3|0:0,0:0:0:0:
40,128,103443,2,0,L|2:125,1,37.5000014305115,8|0,0:3|3:0,0:0:0:0:
122,45,103660,2,0,P|152:91|156:147,1,112.500004291535,2|0,0:0|0:0,0:0:0:0:
245,47,104095,2,0,L|282:43,1,37.5000014305115,2|0,0:0|0:0,0:0:0:0:
288,180,104313,2,2,L|254:165,1,37.5000014305115,10|0,0:3|0:0,0:0:0:0:
182,258,104530,2,2,L|204:288,1,37.5000014305115,2|0,0:0|0:0,0:0:0:0:
374,325,104747,1,8,0:3:0:0:
470,188,104965,22,0,B|476:152|476:152|467:114,2,75.0000028610231,2|8|2,0:0|0:3|3:2,0:0:0:0:
341,231,105508,1,0,0:0:0:0:
341,231,105617,2,0,P|322:226|304:225,1,37.5000014305115,8|0,3:3|3:0,0:0:0:0:
217,129,105834,2,0,P|198:127|180:123,1,37.5000014305115,2|0,0:0|0:0,0:0:0:0:
57,39,106052,1,8,0:3:0:0:
57,39,106160,1,0,0:0:0:0:
57,39,106269,1,2,3:2:0:0:
57,39,106378,1,0,0:0:0:0:
57,39,106486,38,0,P|69:93|62:149,2,112.500004291535,8|0|2,3:0|3:0|3:0,0:0:0:0:
213,48,107247,1,0,0:0:0:0:
213,48,107356,2,0,L|328:40,1,112.500004291535,8|0,0:3|0:0,0:0:0:0:
351,40,107791,1,8,0:3:0:0:
377,43,107899,1,0,0:0:0:0:
401,53,108008,1,2,3:0:0:0:
422,69,108117,1,0,3:0:0:0:
437,91,108226,6,2,L|440:140,1,50,2|0,1:2|0:0,0:0:0:0:
395,264,108443,1,0,3:0:0:0:
395,264,108552,2,2,P|350:242|320:203,1,100,2|0,1:2|0:0,0:0:0:0:
510,302,108878,1,2,1:2:0:0:
510,302,108987,2,0,P|488:346|449:376,1,100,0|0,3:0|0:0,0:0:0:0:
290,329,109313,2,0,P|267:317|243:313,1,50,2|0,1:2|0:0,0:0:0:0:
30,239,109530,2,0,L|129:231,1,100,8|2,1:2|3:2,0:0:0:0:
270,155,109856,1,0,3:0:0:0:
313,126,109965,38,0,P|290:169|290:218,1,100,2|0,1:2|3:0,0:0:0:0:
410,351,110291,1,2,1:2:0:0:
410,351,110399,2,0,L|459:358,1,50,8|0,0:3|0:0,0:0:0:0:
290,219,110617,2,0,L|241:226,1,50,2|0,1:2|3:3,0:0:0:0:
486,212,110834,1,8,3:0:0:0:
325,53,111052,21,2,1:2:0:0:
325,53,111160,1,0,3:0:0:0:
325,53,111269,2,0,L|314:4,1,50,8|0,3:2|3:0,0:0:0:0:
279,170,111486,2,0,L|290:219,1,50,2|0,3:0|3:0,0:0:0:0:
324,365,111704,37,10,3:2:0:0:
324,365,111921,1,8,3:2:0:0:
123,223,112139,21,8,3:2:0:0:
123,223,112356,1,8,3:2:0:0:
355,126,112573,37,8,3:2:0:0:
355,126,112790,1,8,3:2:0:0:
205,326,113008,21,8,3:2:0:0:
205,326,113225,1,8,3:2:0:0:
168,108,113443,37,14,3:2:0:0:
212,85,113551,1,0,1:0:0:0:
261,79,113660,1,10,3:2:0:0:
309,91,113769,1,0,1:0:0:0:
355,126,113878,53,8,1:3:0:0:
401,159,113986,1,8,3:2:0:0:
457,148,114095,1,2,1:2:0:0:
485,98,114204,1,10,3:2:0:0:
460,40,114313,5,8,1:3:0:0:
400,23,114421,1,0,1:0:0:0:
343,49,114530,1,2,1:2:0:0:
316,106,114639,1,2,1:2:0:0:
316,149,114747,54,0,P|338:147|360:151,1,43.7500004172325,0|0,1:0|1:0,1:0:0:0:
311,182,114856,2,0,P|332:183|353:191,1,43.7500004172325,0|0,1:0|1:0,1:0:0:0:
296,211,114965,2,0,P|316:215|335:227,1,43.7500004172325,2|0,1:2|1:0,1:0:0:0:
272,233,115073,2,0,P|291:241|308:255,1,43.7500004172325,2|0,1:2|1:0,1:0:0:0:
243,242,115182,38,2,B|185:237|185:237|110:249|110:249|44:242,1,200,4|0,3:2|3:0,0:0:0:0:
214,144,115834,1,8,1:3:0:0:
152,53,116052,2,0,P|164:43|181:38,3,33.3333333333333,10|0|0|0,3:2|3:0|3:0|3:0,0:0:0:0:
289,65,116378,1,0,3:0:0:0:
289,65,116486,2,0,P|306:83|316:105,1,50,2|0,3:2|3:0,3:0:0:0:
217,259,116704,38,0,L|67:265,1,150,8|0,3:0|3:0,3:0:0:0:
215,362,117139,2,0,P|285:338|317:273,1,150,10|0,3:0|3:0,3:0:0:0:
458,177,117573,1,0,1:2:0:0:
458,177,117682,1,0,3:0:0:0:
458,177,117791,2,0,P|453:161|453:144,3,33.3333333333333,10|0|0|0,3:2|3:0|3:0|3:0,0:0:0:0:
416,272,118117,1,0,3:0:0:0:
416,272,118226,2,0,P|421:288|421:305,3,33.3333333333333,2|0|0|0,3:2|3:0|3:0|3:0,0:0:0:0:
348,172,118552,1,0,3:0:0:0:
348,172,118660,22,2,B|298:152|250:170|250:170|206:186|153:167,1,200,2|0,1:2|3:0,0:0:0:0:
36,66,119204,1,0,3:0:0:0:
36,66,119313,2,0,L|44:115,1,50,8|0,3:0|0:0,0:0:0:0:
77,260,119530,2,0,L|68:292,3,33.3333333333333,10|0|0|0,3:2|3:0|3:0|3:0,0:0:0:0:
212,340,119856,1,0,0:0:0:0:
212,340,119965,2,0,L|260:327,1,50,2|0,3:2|0:0,0:0:0:0:
419,359,120182,1,8,3:0:0:0:
419,359,120291,1,0,3:0:0:0:
419,359,120399,2,0,L|402:311,1,50,0|0,0:0|3:0,0:0:0:0:
313,108,120617,38,0,B|336:183|336:183|320:252,1,150,10|0,3:0|3:0,0:0:0:0:
56,126,121052,53,8,3:0:0:0:
93,79,121160,1,8,3:0:0:0:
149,55,121269,2,0,P|178:51|207:57,1,59.9999981689454,8|0,3:2|0:0,0:0:0:0:
481,150,121486,1,8,3:0:0:0:
481,150,121595,2,0,P|451:154|422:148,1,59.9999981689454,8|0,3:2|0:0,0:0:0:0:
163,157,121813,1,8,3:0:0:0:
163,157,121922,2,0,P|191:165|214:183,1,59.9999981689454,8|0,3:2|3:0,0:0:0:0:
412,342,122139,6,2,B|405:290|405:290|433:206|433:206|422:147,1,200,6|2,0:0|3:2,0:0:0:0:
353,37,122791,1,8,3:0:0:0:
479,66,123008,2,0,L|497:38,3,33.3333333333333,8|0|0|0,3:2|3:0|3:0|3:0,0:0:0:0:
424,148,123334,1,0,0:0:0:0:
423,148,123443,2,0,P|402:160|379:169,1,50,0|0,3:0|0:0,0:0:0:0:
209,141,123661,1,8,3:0:0:0:
194,137,123769,1,0,0:0:0:0:
179,134,123878,1,0,3:2:0:0:
164,133,123987,1,0,3:0:0:0:
148,134,124095,22,0,P|131:180|140:228,1,100,2|0,1:2|3:0,0:0:0:0:
325,330,124421,1,0,0:0:0:0:
300,323,124529,1,0,1:0:0:0:
275,324,124638,1,8,3:0:0:0:
251,331,124747,2,0,P|236:336|219:338,3,33.3333333333333,8|0|0|2,3:2|3:0|3:0|3:2,0:0:0:0:
65,290,125073,1,0,0:0:0:0:
50,258,125182,2,0,P|47:241|49:224,3,33.3333333333333,0|0|0|2,3:0|3:0|3:0|0:0,0:0:0:0:
201,127,125508,1,0,3:0:0:0:
221,173,125617,38,0,L|121:159,1,100,2|0,1:0|0:0,0:0:0:0:
347,99,125943,1,0,3:0:0:0:
347,99,126052,2,0,L|362:51,1,50,2|0,3:0|3:0,0:0:0:0:
429,219,126269,2,0,L|413:266,1,50,8|0,3:0|0:0,0:0:0:0:
241,333,126486,2,0,L|210:344,3,33.3333333333333,8|0|0|2,3:2|3:0|3:0|3:0,0:0:0:0:
426,335,126813,1,0,0:0:0:0:
422,300,126921,1,2,3:2:0:0:
413,266,127030,1,0,0:0:0:0:
396,235,127139,1,10,3:0:0:0:
374,209,127247,1,0,3:0:0:0:
346,187,127356,1,0,3:0:0:0:
315,171,127465,1,0,3:0:0:0:
281,161,127573,6,0,P|255:155|230:157,1,50,6|0,3:0|0:0,0:0:0:0:
55,198,127791,1,0,0:0:0:0:
55,198,127900,1,8,3:0:0:0:
15,168,128009,1,8,3:0:0:0:
1,110,128117,1,8,3:0:0:0:
40,51,128226,1,0,0:0:0:0:
115,45,128334,38,0,P|137:55|165:58,1,50,8|8,3:2|3:0,0:0:0:0:
413,34,128552,2,0,P|391:24|363:21,1,50,8|0,3:0|3:0,0:0:0:0:
165,175,128769,1,8,3:2:0:0:
215,224,128878,1,8,3:0:0:0:
232,156,128986,1,0,1:0:0:0:
171,105,129095,22,0,P|124:117|97:157,1,100,4|0,3:2|0:0,0:0:0:0:
456,37,129531,37,8,3:0:0:0:
490,102,129639,1,8,3:0:0:0:
470,173,129748,1,4,3:2:0:0:
173,361,130182,21,4,0:0:0:0:
121,124,130617,54,0,P|144:132|160:151,1,50,2|0,0:0|0:0,0:0:0:0:
121,124,130834,22,2,P|134:198|131:273,1,150.000005722046,6|0,1:2|3:0,0:0:0:0:
269,364,131160,1,0,3:0:0:0:
269,364,131269,2,0,P|274:327|286:292,1,75.0000028610231,8|0,3:2|0:0,0:0:0:0:
488,211,131486,2,0,P|451:212|415:222,1,75.0000028610231,2|0,0:0|0:0,0:0:0:0:
280,103,131704,2,0,P|317:100|353:90,1,75.0000028610231,2|0,1:2|0:0,0:0:0:0:
144,39,131921,2,2,B|139:89|139:89|154:149|154:149|154:187,1,150.000005722046,2|8,0:0|1:2,0:0:0:0:
84,296,132247,1,0,3:0:0:0:
84,296,132356,2,0,P|118:310|155:316,1,75.0000028610231,2|0,3:2|3:0,0:0:0:0:
415,222,132573,38,0,B|380:231|342:213|342:213|303:195|268:204,1,150.000005722046,2|0,1:2|3:0,0:0:0:0:
326,49,132899,1,0,3:0:0:0:
357,70,133008,2,0,P|391:79|433:71,1,75.0000028610231,10|0,3:2|0:0,0:0:0:0:
511,185,133226,2,2,P|482:209|446:219,1,75.0000028610231,2|0,0:0|0:0,0:0:0:0:
342,335,133443,2,0,P|313:313|296:280,1,75.0000028610231,0|0,1:0|3:2,0:0:0:0:
220,141,133660,2,2,P|241:110|247:73,1,75.0000028610231,2|0,0:0|0:0,0:0:0:0:
73,94,133878,2,0,P|52:125|46:162,1,75.0000028610231,8|0,1:2|3:0,0:0:0:0:
42,335,134095,1,2,3:2:0:0:
42,335,134313,22,2,B|108:322|108:322|209:330|209:330|265:320,1,225.000008583069,2|0,1:2|3:0,0:0:0:0:
417,355,134747,2,0,L|430:281,1,75.0000028610231,8|0,3:2|0:0,0:0:0:0:
326,211,134965,2,0,L|312:137,1,75.0000028610231,2|0,0:0|0:0,0:0:0:0:
449,73,135182,2,0,L|435:146,1,75.0000028610231,2|0,1:2|0:0,0:0:0:0:
330,22,135399,2,0,L|180:15,1,150.000005722046,2|8,0:0|3:2,0:0:0:0:
102,121,135726,1,0,3:0:0:0:
102,121,135834,2,0,L|176:126,1,75.0000028610231,2|0,3:2|0:0,0:0:0:0:
375,78,136052,38,0,P|331:138|326:211,1,150.000005722046,2|2,1:2|3:0,0:0:0:0:
467,290,136378,1,0,3:0:0:0:
467,290,136486,2,0,P|430:290|394:300,1,75.0000028610231,10|0,3:2|0:0,0:0:0:0:
231,342,136704,2,2,P|226:268|183:208,1,150.000005722046,2|0,0:0|1:2,0:0:0:0:
49,323,137030,1,8,3:2:0:0:
49,323,137138,2,0,P|86:322|122:312,1,75.0000028610231,2|0,1:2|0:0,0:0:0:0:
228,103,137356,1,8,0:2:0:0:
12,66,137573,1,2,3:2:0:0:
248,30,137791,22,0,B|265:98|265:98|259:177,1,150.000005722046,4|0,1:2|3:0,0:0:0:0:
100,250,138117,1,0,3:0:0:0:
100,250,138226,2,0,L|105:175,1,75.0000028610231,10|0,3:2|0:0,0:0:0:0:
173,25,138443,2,0,L|247:30,1,75.0000028610231,2|0,0:0|0:0,0:0:0:0:
334,184,138660,2,0,L|259:178,1,75.0000028610231,0|0,1:0|3:0,0:0:0:0:
482,74,138878,2,2,P|464:147|466:222,1,150.000005722046,2|8,0:0|0:0,0:0:0:0:
351,308,139204,1,0,0:0:0:0:
351,308,139313,38,0,P|277:317|210:286,1,150.000005722046,0|4,3:0|1:2,0:0:0:0:
83,222,139639,1,0,0:0:0:0:
83,222,139747,2,0,P|102:190|135:172,1,75.0000028610231,2|0,3:2|3:0,0:0:0:0:
199,84,139965,2,0,P|168:64|130:64,1,75.0000028610231,8|0,0:0|0:0,0:0:0:0:
290,24,140182,2,0,P|309:57|307:94,1,75.0000028610231,2|0,3:0|3:3,0:0:0:0:
352,193,140399,2,0,P|385:175|404:143,1,75.0000028610231,0|0,1:0|0:0,0:0:0:0:
502,0,140617,2,0,P|470:17|451:49,1,75.0000028610231,2|0,0:0|0:0,0:0:0:0:
411,235,140834,22,0,P|351:193|277:183,1,150.000005722046,10|2,0:0|3:0,0:0:0:0:
168,81,141160,1,0,3:0:0:0:
136,99,141269,2,0,P|111:169|136:238,1,150.000005722046,6|0,1:2|3:0,0:0:0:0:
454,325,141704,38,0,L|304:313,1,150.000005722046,8|2,0:0|0:0,0:0:0:0:
136,99,142139,2,0,L|285:110,1,150.000005722046,0|0,1:0|0:0,0:0:0:0:
425,50,142465,1,0,0:0:0:0:
425,50,142573,2,0,P|388:50|353:62,1,75.0000028610231,10|0,0:0|0:0,0:0:0:0:
249,185,142791,2,0,P|241:221|244:258,1,75.0000028610231,2|0,3:0|3:0,0:0:0:0:
398,377,143008,5,6,1:0:0:0:
398,377,143117,1,0,1:0:0:0:
190,307,143334,37,2,1:0:0:0:
190,307,143443,1,0,1:0:0:0:
362,141,143660,21,2,1:0:0:0:
362,141,143769,1,0,1:0:0:0:
107,83,143986,37,0,1:0:0:0:
107,83,144095,1,6,1:2:0:0:
347,73,144313,1,2,1:0:0:0:
362,141,144421,1,0,1:0:0:0:
349,210,144530,2,0,P|334:239|307:263,1,69.9999978637696,2|0,1:2|0:0,0:0:0:0:
205,232,144747,54,2,P|275:205|349:210,1,150.000005722046,6|0,1:2|3:0,0:0:0:0:
422,82,145073,1,0,3:0:0:0:
422,82,145182,2,0,L|347:73,1,75.0000028610231,8|0,3:2|0:0,0:0:0:0:
231,95,145399,2,0,L|156:103,1,75.0000028610231,2|0,0:0|0:0,0:0:0:0:
58,169,145617,2,0,L|50:244,1,75.0000028610231,2|0,1:2|0:0,0:0:0:0:
32,53,145834,2,2,P|106:52|157:104,1,150.000005722046,2|8,0:0|0:0,0:0:0:0:
155,285,146160,1,0,3:0:0:0:
155,285,146269,2,0,P|139:316|106:343,1,75.0000028610231,2|0,3:2|3:0,0:0:0:0:
260,184,146486,38,2,B|332:164|332:164|407:164,1,150.000005722046,2|0,1:2|3:0,0:0:0:0:
351,303,146813,1,0,3:0:0:0:
328,332,146921,2,0,L|253:328,1,75.0000028610231,10|0,1:2|0:0,0:0:0:0:
185,188,147139,2,2,L|259:184,1,75.0000028610231,2|0,0:0|0:0,0:0:0:0:
55,207,147356,2,0,L|48:282,1,75.0000028610231,0|0,1:0|3:0,0:0:0:0:
0,90,147573,2,2,L|7:15,1,75.0000028610231,2|0,0:0|0:0,0:0:0:0:
144,24,147791,2,0,L|219:31,1,75.0000028610231,8|0,0:0|3:0,0:0:0:0:
375,25,148008,1,2,3:2:0:0:
375,25,148226,6,2,B|345:79|373:132|373:132|398:180|373:241,1,225.000008583069,2|0,1:2|3:0,0:0:0:0:
280,311,148660,2,0,P|261:278|256:241,1,75.0000028610231,8|0,3:2|0:0,0:0:0:0:
129,95,148878,2,0,P|147:127|152:164,1,75.0000028610231,2|0,0:0|0:0,0:0:0:0:
89,330,149095,2,0,P|118:307|137:275,1,75.0000028610231,2|0,1:2|0:0,0:0:0:0:
256,124,149313,2,2,P|199:78|129:95,1,150.000005722046,2|8,0:0|0:0,0:0:0:0:
23,137,149639,1,0,3:2:0:0:
23,137,149747,2,0,P|40:169|45:207,1,75.0000028610231,2|0,3:2|0:0,0:0:0:0:
0,339,149965,6,0,L|149:324,1,150.000005722046,2|2,1:0|3:0,0:0:0:0:
255,241,150291,1,0,3:0:0:0:
255,241,150399,2,0,L|329:244,1,75.0000028610231,10|0,3:2|0:0,0:0:0:0:
468,184,150617,2,2,L|454:334,1,150.000005722046,2|0,0:0|1:0,0:3:0:0:
378,72,150943,1,8,3:2:0:0:
378,72,151051,2,0,L|304:75,1,75.0000028610231,2|0,1:0|0:0,0:0:0:0:
116,235,151269,1,8,3:2:0:0:
55,29,151486,1,2,3:2:0:0:
42,260,151704,38,0,P|112:235|186:237,1,150.000005722046,6|2,1:2|0:0,0:0:0:0:
330,279,152030,1,0,0:0:0:0:
330,279,152139,2,0,P|366:288|403:289,1,75.0000028610231,8|0,0:0|3:0,0:0:0:0:
294,134,152356,2,0,P|283:98|266:65,1,75.0000028610231,2|0,3:2|0:0,0:0:0:0:
187,237,152573,2,0,P|161:263|141:295,1,75.0000028610231,0|0,1:0|0:0,0:0:0:0:
294,134,152791,2,2,L|444:119,1,150.000005722046,2|8,0:0|0:0,0:0:0:0:
205,23,153117,1,0,0:0:0:0:
205,23,153226,2,0,L|130:31,1,75.0000028610231,0|0,3:0|3:0,0:0:0:0:
43,140,153443,6,0,P|44:178|59:212,1,75.0000028610231,6|0,1:2|0:0,0:0:0:0:
202,263,153660,2,0,P|239:262|273:247,1,75.0000028610231,2|0,0:0|0:0,0:0:0:0:
443,119,153878,2,0,P|406:120|373:135,1,75.0000028610231,10|0,3:2|0:0,0:0:0:0:
202,263,154095,2,2,P|182:192|208:123,1,150.000005722046,2|0,0:0|0:0,0:0:0:0:
361,61,154421,1,0,3:0:0:0:
361,61,154530,2,0,L|372:135,1,75.0000028610231,2|0,3:2|0:0,0:0:0:0:
478,278,154747,2,0,L|489:203,1,75.0000028610231,8|0,0:0|0:0,0:0:0:0:
358,348,154965,2,0,L|283:336,1,75.0000028610231,0|0,3:0|3:0,0:0:0:0:
96,351,155182,6,0,P|143:295|149:221,1,150.000005722046,6|0,1:0|3:0,0:0:0:0:
195,80,155508,1,0,3:0:0:0:
195,80,155617,2,2,P|122:68|56:101,1,150.000005722046,8|0,3:2|3:0,0:0:0:0:
23,251,155943,1,0,3:0:0:0:
23,251,156052,1,2,1:2:0:0:
249,172,156269,1,2,3:0:0:0:
56,101,156486,2,0,L|66:26,1,75.0000028610231,2|0,1:0|0:0,0:0:0:0:
249,172,156704,2,0,L|238:246,1,75.0000028610231,2|0,3:0|3:0,0:0:0:0:
419,116,156921,5,4,1:2:0:0:
419,116,157030,1,0,1:0:0:0:
237,246,157247,21,2,1:2:0:0:
237,246,157356,1,0,1:0:0:0:
346,35,157573,37,2,1:2:0:0:
346,35,157682,1,0,1:0:0:0:
338,294,157899,21,0,1:0:0:0:
338,294,158008,1,0,1:0:0:0:
212,70,158226,37,2,1:2:0:0:
141,85,158334,1,0,1:0:0:0:
85,130,158443,2,0,P|65:160|61:197,1,75.0000028610231,2|0,1:2|0:0,0:0:0:0:
100,379,158660,53,12,3:2:0:0:
100,379,158878,1,8,3:2:0:0:
141,85,159095,37,8,3:2:0:0:
141,85,159313,1,8,3:2:0:0:
365,230,159530,21,10,3:2:0:0:
365,230,159747,1,8,3:2:0:0:
61,198,159965,37,8,3:2:0:0:
61,198,160183,1,8,3:2:0:0:
258,99,160398,37,2,1:0:0:0:
316,82,160508,1,8,3:2:0:0:
370,109,160616,1,0,1:0:0:0:
392,166,160726,1,8,3:2:0:0:
365,230,160834,21,2,1:2:0:0:
336,291,160942,1,2,1:3:0:0:
367,350,161051,1,0,1:0:0:0:
434,360,161160,1,2,1:3:0:0:
488,302,161268,37,2,1:0:0:0:
488,302,161378,1,8,1:3:0:0:
308,173,161595,21,2,1:0:0:0:
308,173,161705,1,8,1:3:0:0:
504,19,161921,37,2,1:0:0:0:
504,19,162030,1,2,1:2:0:0:
504,19,162139,1,4,1:2:0:0:
250,40,162573,5,0,0:0:0:0:
250,40,163008,2,2,B|286:97|252:161|252:161|217:222|258:289,1,262.500010013581,2|0,0:0|0:0,0:0:0:0:
392,334,163878,54,0,P|318:332|258:289,1,150.000005722046,6|0,1:0|0:0,0:0:0:0:
25,312,164204,2,0,P|99:314|159:357,1,150.000005722046,2|0,1:0|0:0,0:0:0:0:
353,220,164530,1,8,1:2:0:0:
313,0,164747,22,0,P|269:59|268:133,1,150.000005722046,6|0,1:0|0:0,0:0:0:0:
309,354,165073,2,0,P|352:293|353:219,1,150.000005722046,2|0,1:0|0:0,0:0:0:0:
164,79,165399,1,8,1:2:0:0:
121,301,165617,38,8,L|114:337,7,37.5000014305115,2|8|8|8|8|8|0|8,3:1|3:0|3:0|3:0|3:0|3:0|3:1|3:0,3:0:0:0:
201,348,166052,2,8,L|228:373,6,37.5000014305115,8|8|8|8|0|8|8,3:0|3:0|3:0|3:0|3:1|3:0|3:0,3:0:0:0:
145,170,166486,1,4,0:0:0:0:
472,95,167356,21,4,0:0:0:0:
114,49,167791,21,2,0:0:0:0:
472,95,168226,38,0,B|409:84|409:84|300:91|300:91|214:75,1,259.999988098145,6|0,1:0|0:0,0:0:0:0:
215,75,168878,22,0,L|221:139,1,64.9999970245363,4|0,0:0|0:0,0:0:0:0:
304,291,169095,1,2,0:0:0:0:
473,95,169313,1,0,1:0:0:0:
240,228,169530,1,2,1:2:0:0:
501,280,169747,1,4,0:0:0:0:
501,280,170182,37,0,1:0:0:0:
382,6,170399,1,2,1:2:0:0:
241,271,170617,1,2,1:2:0:0:
509,133,170834,22,0,P|445:127|380:131,1,129.999994049073,4|0,0:0|0:0,0:0:0:0:
130,167,171269,37,2,0:0:0:0:
130,167,171704,22,0,B|163:203|162:248|162:248|127:289|135:346,1,194.999991073609,6|0,1:0|0:0,0:0:0:0:
58,235,172139,1,0,1:2:0:0:
276,333,172356,1,0,1:2:0:0:
383,120,172573,2,0,P|387:184|364:244,1,129.999994049073,6|0,1:2|0:0,0:0:0:0:
70,58,173008,37,0,1:3:0:0:
70,58,173226,2,0,B|139:49|139:49|264:56,1,194.999991073609,2|0,0:0|0:0,0:0:0:0:
428,82,173660,22,0,L|413:145,1,64.9999970245363,2|0,1:0|0:0,0:0:0:0:
295,264,173878,2,0,L|280:200,1,64.9999970245363,2|0,3:2|0:0,0:0:0:0:
433,313,174095,2,0,L|418:376,1,64.9999970245363,2|0,1:0|0:0,0:0:0:0:
413,145,174313,38,4,B|367:166|314:147|314:147|261:163|261:163|215:137|166:160,1,255.000004863739,4|0,1:0|3:0,0:0:0:0:
38,356,174747,22,0,B|49:322|49:322|48:282,1,75,2|0,3:1|3:0,0:0:0:0:
98,106,175182,38,2,P|213:81|251:191,1,255.000004863739,4|0,0:0|0:0,0:3:0:0:
227,301,175617,1,0,3:0:0:0:
227,301,175726,1,0,3:0:0:0:
227,301,175834,2,0,B|264:295|264:295|277:298|277:298|310:293,1,85.0000016212464,2|0,0:0|0:0,0:0:0:0:
502,145,176052,21,2,1:2:0:0:
464,91,176160,1,0,0:0:0:0:
398,85,176269,2,0,B|379:124|379:124|375:166,1,85.0000016212464,2|0,3:0|3:0,0:0:0:0:
391,316,176486,2,0,B|352:297|352:297|310:293,1,85.0000016212464,2|0,3:2|0:0,0:0:0:0:
160,355,176704,38,2,B|129:327|123:277|145:232|184:206|199:167|172:138|172:138|157:150,1,255.000004863739,2|0,3:1|0:0,0:3:0:0:
324,77,177139,22,0,B|355:76|355:76|398:85,1,75.0000028610231,2|0,0:1|0:0,0:0:0:0:
157,150,177356,2,0,B|126:149|126:149|82:158,1,75.0000028610231,2|0,3:2|3:0,0:0:0:0:
260,253,177573,2,0,B|259:222|259:222|268:178,1,75.0000028610231,2|0,1:1|0:0,0:0:0:0:
84,34,177791,38,0,B|156:29|205:77|205:77|268:52|322:76,1,255.000004863739,10|0,3:0|0:0,0:3:0:0:
495,238,178226,22,0,B|486:273|486:273|487:312,1,75,2|0,3:2|3:0,0:0:0:0:
309,311,178660,38,2,B|323:265|293:227|293:227|333:175|333:175|313:129|324:75,1,255.000004863739,10|0,1:2|0:0,0:3:0:0:
84,34,179095,22,0,B|96:68|96:68|118:80|128:103,1,85.0000016212464,2|0,3:0|0:0,0:0:0:0:
70,249,179313,2,0,B|58:283|58:283|36:295|26:318,1,85.0000016212464,2|0,3:2|0:0,0:0:0:0:
128,104,179530,2,0,B|174:55|174:55|221:78|274:64,1,170.000003242493,8|0,3:0|3:0,0:0:0:0:
323,344,179964,37,2,3:0:0:0:
276,297,180073,1,2,3:0:0:0:
269,231,180182,2,2,B|280:186|280:186|299:152,1,85.0000016212464,2|0,0:0|0:0,3:0:0:0:
411,60,180399,1,8,2:0:0:0:
462,321,180617,22,2,L|377:312,1,85.0000016212464,2|0,1:0|3:0,1:0:0:0:
29,288,180834,38,0,L|129:269,1,100,10|0,1:2|0:0,0:0:0:0:
307,118,181052,21,2,1:0:0:0:
246,178,181160,1,8,3:0:0:0:
238,262,181269,22,2,B|247:344|155:385|155:385|94:275|164:172,1,385.000011749268,4|0,0:0|0:0,0:3:0:0:
185,158,182139,1,10,1:2:0:0:
360,62,182356,22,0,B|362:106|362:106|345:153|345:153|348:208,2,150.000005722046,2|0|8,3:1|0:0|3:0,0:0:0:0:
196,85,183008,38,0,L|271:97,1,75.0000028610231,6|0,1:0|3:0,0:0:0:0:
478,200,183334,2,0,L|349:209,1,129.999994049073,2|8,1:0|0:0,0:0:0:0:
156,28,183660,2,0,P|204:113|192:211,1,200,8|8,3:0|1:2,0:0:0:0:
192,211,184095,2,2,P|181:217|173:227,10,25
192,211,184747,22,2,B|279:163|414:198|414:198|344:206|305:247,1,350,8|0,1:3|3:3,0:3:0:0:
292,270,185617,1,8,1:2:0:0:
161,56,185834,38,0,B|101:58|101:58|90:53|90:53|12:56,2,150.000005722046,2|2|2,3:1|3:2|3:1,0:0:0:0:
395,120,186486,22,0,L|399:201,1,75.0000028610231,6|0,1:0|3:0,0:0:0:0:
250,374,186813,2,0,L|258:244,1,129.999994049073,2|0,1:0|3:0,3:0:0:0:
361,51,187139,37,8,1:3:0:0:
424,49,187247,1,0,1:0:0:0:
467,95,187356,2,0,P|472:110|472:126,2,32.4999985122681,12|0|0,1:2|0:0|0:0,0:0:0:0:
135,220,187573,21,8,1:3:0:0:
135,220,187682,1,12,1:2:0:0:
404,330,187899,37,0,1:0:0:0:
404,330,188008,1,8,1:2:0:0:
67,189,188226,22,2,P|208:207|87:277,1,350,8|0,3:3|3:1,0:3:0:0:
85,269,189095,1,8,1:2:0:0:
200,85,189313,38,0,L|170:72,2,32.4999985122681,2|2|2,3:0|0:0|0:0,0:0:0:0:
284,198,189530,2,0,L|310:178,2,32.4999985122681,2|2|2,3:0|0:0|0:0,0:0:0:0:
144,214,189747,2,0,L|147:246,2,32.4999985122681,2|2|2,3:0|0:0|0:0,0:0:0:0:
312,23,189965,22,0,L|288:94,1,75.0000028610231,6|0,1:0|0:0,0:0:0:0:
438,269,190291,2,0,L|392:147,1,129.999994049073,2|0,1:0|0:0,0:0:0:0:
207,335,190617,2,0,L|402:376,1,200,8|8,1:3|1:2,0:0:0:0:
65,214,191052,38,2,L|68:246,2,32.4999985122681,2|2|2,0:3|0:0|0:0,0:0:0:0:
218,156,191269,2,2,L|221:123,2,32.4999985122681,0|2|0,0:0|0:0|0:0,0:0:0:0:
77,45,191486,2,2,L|80:77,2,32.4999985122681,0|2|2,0:0|0:0|0:0,0:0:0:0:
171,252,191704,5,8,1:2:0:0:
171,252,191921,1,8,1:2:0:0:
423,305,192139,37,10,1:2:0:0:
423,305,192356,1,8,1:2:0:0:
251,135,192573,21,8,2:0:0:0:
251,135,192790,1,8,1:2:0:0:
215,384,193008,37,8,1:2:0:0:
215,384,193225,1,8,1:2:0:0:
7,227,193443,21,6,1:0:0:0:
7,227,193552,2,0,L|71:233,1,64.9999970245363,0|8,0:0|1:3,0:0:0:0:
251,135,193769,1,2,1:1:0:0:
251,135,193878,2,0,L|186:141,1,64.9999970245363
306,8,194095,1,8,1:3:0:0:
306,8,194204,1,0,1:0:0:0:
306,8,194313,38,0,P|299:22|297:38,1,32.4999985122681,8|0,1:2|0:0,0:0:0:0:
331,19,194421,2,0,P|321:31|315:46,1,32.4999985122681
353,35,194530,2,2,P|339:43|329:56,1,32.4999985122681,2|2,1:2|0:0,0:0:0:0:
370,55,194639,2,2,P|354:60|341:70,1,32.4999985122681,10|2,1:2|0:0,0:0:0:0:
383,79,194747,2,2,P|366:80|351:86,1,32.4999985122681,0|0,0:0|0:0,0:0:0:0:
391,104,194856,2,2,P|375:100|359:102,1,32.4999985122681,2|2,1:2|0:0,0:0:0:0:
392,130,194965,2,2,P|377:122|361:120,1,32.4999985122681,10|2,1:2|0:0,0:0:0:0:
386,155,195073,2,2,P|373:144|358:138,1,32.4999985122681,0|0,0:0|0:0,0:0:0:0:
373,177,195182,21,4,1:2:0:0:
157,148,195399,1,2,1:0:0:0:
181,347,195617,1,0,1:0:0:0:
177,320,195726,1,10,1:2:0:0:
324,308,195943,1,8,1:2:0:0:
293,278,196052,1,8,1:3:0:0:
503,350,196269,37,2,1:0:0:0:
293,278,196486,1,0,1:0:0:0:
335,272,196595,1,10,1:2:0:0:
168,55,196922,21,8,1:2:0:0:
235,79,197030,1,10,1:2:0:0:
10,119,197247,37,8,1:2:0:0:
32,46,197355,1,10,1:2:0:0:
181,222,197573,21,8,1:2:0:0:
106,244,197681,1,8,1:2:0:0:
295,20,197899,37,8,1:2:0:0:
317,97,198007,1,8,1:2:0:0:
10,119,198226,21,10,1:2:0:0:
235,79,198443,1,12,1:2:0:0:
148,366,198660,53,2,0:0:0:0:
448,157,206704,70,2,B|408:165|365:142|365:142|323:179|323:179|276:154|218:168,1,250,2|0,0:0|3:0,0:0:0:0:
63,107,207356,38,0,L|137:95,1,75.0000028610231,4|0,0:0|3:0,0:0:0:0:
115,275,207791,2,0,L|126:200,1,75.0000028610231,2|0,0:0|3:0,0:0:0:0:
282,322,208226,2,0,L|208:334,1,75.0000028610231,2|0,0:0|3:0,0:0:0:0:
391,351,208660,1,0,0:0:0:0:
391,351,208878,1,2,3:2:0:0:
511,205,209095,38,0,L|437:197,1,75.0000028610231,4|0,0:0|3:0,0:0:0:0:
315,105,209530,2,0,L|389:97,1,75.0000028610231,2|0,0:0|3:0,0:0:0:0:
249,198,209965,2,0,L|175:190,1,75.0000028610231,2|2,0:0|3:2,0:0:0:0:
320,280,210399,1,8,3:2:0:0:
320,280,210617,1,2,3:2:0:0:
390,96,210834,22,2,P|389:171|419:239,1,150,6|0,1:2|3:0,0:0:0:0:
320,280,211269,2,0,P|245:286|172:272,1,150,2|0,1:2|0:0,0:0:0:0:
71,299,211704,2,0,P|92:227|81:153,1,150,2|0,1:2|3:0,0:0:0:0:
183,60,212139,2,0,P|176:84|177:109,1,50,4|0,3:2|0:0,0:0:0:0:
271,167,212356,2,0,P|277:142|276:117,1,50,2|0,3:2|3:0,0:0:0:0:
20,50,212573,37,12,1:2:0:0:
134,333,212899,1,6,1:0:0:0:
256,50,213226,2,0,L|271:30,6,25,6|0|0|0|8|8|8,1:0|0:0|0:0|0:0|3:0|3:0|3:3,0:0:0:0:
197,152,213660,38,0,L|270:166,1,75.0000028610231,4|0,0:0|0:0,0:0:0:0:
462,245,213878,2,0,L|388:259,1,75.0000028610231,0|0,1:0|0:0,0:0:0:0:
399,55,214095,2,0,L|385:129,1,75.0000028610231,2|0,1:2|0:0,0:0:0:0:
399,55,214747,54,0,P|329:28|254:30,1,150.000005722046,4|2,0:0|0:0,0:0:0:0:
130,130,215073,1,0,3:0:0:0:
130,130,215182,2,0,P|173:140|222:138,1,75.0000028610231,2|0,1:2|0:0,0:0:0:0:
319,213,215399,2,0,P|282:277|279:352,1,150.000005722046,2|10,0:0|0:0,0:0:0:0:
476,324,215726,1,0,3:0:0:0:
476,324,215835,2,0,P|440:315|403:314,1,75.0000028610231,2|0,3:2|3:0,0:0:0:0:
173,230,216052,38,2,B|216:239|252:221|252:221|284:204|319:213,1,150.000005722046,2|0,1:2|3:0,0:0:0:0:
497,117,216378,1,0,3:0:0:0:
506,153,216486,2,0,B|511:185|511:185|506:227,1,75.0000028610231,10|0,3:2|0:0,0:0:0:0:
319,287,216704,2,2,B|314:255|314:255|319:213,1,75.0000028610231,2|0,0:0|0:0,0:0:0:0:
446,39,216921,2,0,B|404:34|404:34|372:39,1,75.0000028610231,0|0,1:0|3:0,0:0:0:0:
210,109,217139,2,2,B|252:114|252:114|284:109,1,75.0000028610231,2|0,0:2|0:0,0:0:0:0:
506,153,217356,2,0,B|464:148|464:148|432:153,1,75.0000028610231,8|0,0:0|3:0,0:0:0:0:
319,287,217573,1,2,3:2:0:0:
319,287,217791,6,2,B|223:280|223:280|166:291|166:291|95:284,1,225.000008583069,2|0,1:2|3:0,0:0:0:0:
141,89,218226,2,0,L|152:163,1,75.0000028610231,8|0,3:2|0:0,0:0:0:0:
284,108,218443,2,0,L|295:33,1,75.0000028610231,2|0,0:0|3:0,0:0:0:0:
141,89,218660,2,0,L|66:77,1,75.0000028610231,2|0,1:2|0:0,0:0:0:0:
256,199,218878,2,2,P|328:192|371:134,1,150.000005722046,2|8,0:0|0:0,0:0:0:0:
418,250,219204,1,0,3:0:0:0:
418,250,219313,2,0,L|430:325,1,75.0000028610231,2|0,3:2|3:0,0:0:0:0:
256,199,219530,6,2,B|179:178|179:178|108:173,1,150.000005722046,2|0,1:2|0:0,0:0:0:0:
233,60,219856,1,0,3:0:0:0:
233,60,219965,2,0,L|307:66,1,75.0000028610231,10|0,0:0|0:0,0:0:0:0:
82,29,220182,2,0,P|109:98|109:172,1,150.000005722046,2|0,0:0|1:0,0:0:0:0:
176,348,220508,1,10,0:2:0:0:
176,348,220617,2,0,L|183:274,1,75.0000028610231,0|0,0:0|3:0,0:0:0:0:
394,149,220834,1,8,3:2:0:0:
181,107,221052,1,2,3:2:0:0:
435,88,221269,38,0,P|393:149|396:222,1,150.000005722046,4|2,1:2|0:0,0:0:0:0:
356,359,221595,1,0,0:0:0:0:
356,359,221704,2,0,P|327:334|292:321,1,75.0000028610231,8|0,0:0|3:0,0:0:0:0:
122,315,221921,2,0,P|84:321|52:340,1,75.0000028610231,2|0,3:2|0:0,0:0:0:0:
221,216,222139,2,0,P|227:178|246:146,1,75.0000028610231,2|0,1:2|0:0,0:0:0:0:
83,181,222356,2,2,P|125:242|122:315,1,150.000005722046,2|8,0:0|0:0,0:0:0:0:
292,321,222682,1,0,0:0:0:0:
292,321,222791,2,0,P|329:314|361:295,1,75.0000028610231,0|2,3:0|3:0,0:0:0:0:
434,158,223008,6,0,L|399:91,1,75.0000028610231,4|0,1:2|0:0,0:0:0:0:
361,295,223226,2,0,L|436:298,1,75.0000028610231,0|0,3:0|3:0,0:0:0:0:
280,163,223443,2,0,L|240:226,1,75.0000028610231,8|0,0:0|0:0,0:0:0:0:
63,138,223660,1,2,0:0:0:0:
63,138,223878,2,0,L|139:143,1,75.0000028610231,0|0,1:0|0:0,0:0:0:0:
283,41,224095,2,0,L|207:36,1,75.0000028610231,2|0,3:2|0:0,0:0:0:0:
240,226,224313,2,0,L|316:231,1,75.0000028610231,8|0,3:2|0:0,0:0:0:0:
153,322,224530,2,0,L|77:317,1,75.0000028610231,0|2,3:0|3:0,0:0:0:0:
138,143,224747,6,0,P|211:128|286:132,1,150.000005722046,4|0,1:0|3:0,0:0:0:0:
410,45,225073,1,0,3:0:0:0:
410,45,225182,2,0,P|405:119|421:192,1,150.000005722046,8|2,3:2|3:0,0:0:0:0:
491,332,225508,1,0,0:0:0:0:
491,332,225617,1,0,1:0:0:0:
250,326,225834,1,0,3:0:0:0:
421,193,226052,2,0,L|495:186,1,75.0000028610231,2|0,1:1|3:3,0:0:0:0:
325,320,226269,2,0,L|250:326,1,75.0000028610231,2|0,3:2|3:0,0:0:0:0:
110,209,226486,5,4,1:0:0:0:
110,209,226595,1,0,1:0:0:0:
335,168,226813,21,2,1:2:0:0:
335,168,226922,1,0,1:0:0:0:
117,81,227139,37,2,1:2:0:0:
117,81,227248,1,0,1:0:0:0:
368,22,227465,21,0,1:0:0:0:
368,22,227574,1,0,1:0:0:0:
117,81,227791,37,2,1:2:0:0:
132,152,227899,1,0,1:0:0:0:
177,208,228008,2,0,P|207:228|244:232,1,75.0000028610231,2|0,1:2|0:0,0:0:0:0:
462,179,228226,53,8,3:2:0:0:
462,179,228443,1,8,3:2:0:0:
300,374,228660,37,8,3:2:0:0:
300,374,228877,1,8,3:2:0:0:
260,91,229095,21,10,3:2:0:0:
260,91,229312,1,8,3:2:0:0:
82,310,229530,37,8,3:2:0:0:
82,310,229747,1,8,3:2:0:0:
48,90,229965,37,2,1:0:0:0:
67,34,230073,1,8,3:2:0:0:
122,13,230182,1,0,1:0:0:0:
173,43,230291,1,8,3:2:0:0:
194,110,230399,21,2,1:2:0:0:
159,171,230507,1,2,1:3:0:0:
91,190,230617,1,0,1:0:0:0:
37,235,230726,1,2,1:3:0:0:
21,316,230834,37,2,1:0:0:0:
21,316,230943,1,8,1:3:0:0:
48,90,231160,21,2,1:0:0:0:
48,90,231269,1,0,1:3:0:0:
161,311,231486,37,2,1:0:0:0:
161,311,231595,1,2,1:2:0:0:
161,311,231704,1,4,1:0:0:0:
328,133,232139,5,0,0:0:0:0:
328,133,232573,2,2,P|226:87|223:198,1,262.500010013581,2|0,0:0|0:0,0:0:0:0:
297,208,233443,54,0,P|224:198|160:235,1,150.000005722046,6|0,1:0|0:0,0:0:0:0:
31,372,233769,2,0,P|40:299|3:235,1,150.000005722046,2|0,1:0|0:0,0:0:0:0:
246,313,234095,1,8,1:2:0:0:
133,98,234313,22,0,P|123:170|160:234,1,150.000005722046,6|0,1:0|0:0,0:0:0:0:
377,119,234639,2,0,P|304:109|241:146,1,150.000005722046,2|0,1:0|0:0,0:0:0:0:
464,34,234965,1,8,1:2:0:0:
225,33,235182,38,8,L|222:69,7,37.5000014305115,2|8|8|8|8|8|0|8,3:1|3:0|3:0|3:0|3:0|3:0|3:1|3:0,3:0:0:0:
156,128,235617,2,8,L|133:98,6,37.5000014305115,8|8|8|8|0|8|8,3:0|3:0|3:0|3:0|3:1|3:0|3:0,3:0:0:0:
338,171,236052,1,4,0:0:0:0:
72,326,236921,22,0,P|130:316|190:319,1,119.999996337891,6|0,0:0|3:0,0:0:0:0:
390,246,237247,1,0,3:0:0:0:
390,246,237356,2,0,P|330:249|272:238,1,119.999996337891,2|0,1:0|0:0,0:0:0:0:
118,173,237791,1,2,1:2:0:0:
190,319,238008,1,2,0:0:0:0:
179,85,238226,1,8,1:3:0:0:
20,231,238443,21,0,3:0:0:0:
20,231,238552,1,0,3:0:0:0:
20,231,238660,2,0,P|19:142|76:76,1,179.999994506836,2|0,1:0|3:0,0:0:0:0:
280,287,239095,1,2,1:2:0:0:
228,108,239313,1,2,3:0:0:0:
228,108,239421,1,0,3:0:0:0:
228,108,239530,1,2,1:2:0:0:
466,219,239747,1,0,3:0:0:0:
470,16,239965,2,0,P|412:32|372:75,1,119.999996337891,10|0,1:2|3:0,0:0:0:0:
318,374,240399,22,0,B|329:318|329:318|330:256,1,119.999996337891,4|2,1:2|0:0,0:0:0:0:
264,15,240834,2,0,B|254:72|254:72|253:134,1,119.999996337891,2|0,1:0|3:0,0:0:0:0:
213,295,241269,1,2,1:2:0:0:
372,75,241486,1,2,0:0:0:0:
434,326,241704,1,2,1:2:0:0:
155,310,241921,21,2,3:2:0:0:
155,310,242030,1,0,3:2:0:0:
155,310,242139,2,2,B|226:292|226:292|287:294|287:294|329:277,1,179.999994506836,2|0,1:0|0:0,0:0:0:0:
477,94,242573,2,0,L|357:90,1,119.999996337891,2|2,1:2|3:2,0:0:0:0:
116,155,243008,1,0,3:2:0:0:
116,155,243117,2,8,P|145:150|175:149,1,59.9999981689454,8|10,0:0|0:0,0:0:0:0:
498,275,243443,1,8,1:2:0:0:
357,90,243660,1,0,3:0:0:0:
295,371,243878,53,12,3:2:0:0:
295,371,244095,1,10,3:2:0:0:
240,92,244313,21,10,3:2:0:0:
240,92,244530,1,8,3:2:0:0:
63,320,244747,37,10,3:2:0:0:
63,320,244964,1,10,3:2:0:0:
336,219,245182,21,10,3:2:0:0:
336,219,245399,1,10,3:2:0:0:
139,110,245617,38,0,L|90:104,1,50,12|0,3:2|3:2,3:2:0:0:
154,232,245834,2,0,L|204:237,1,50,8|0,3:2|3:2,3:2:0:0:
131,87,246051,22,0,L|82:81,1,50,10|0,3:2|3:2,3:2:0:0:
162,255,246269,2,0,L|212:260,1,50,10|0,3:2|3:2,3:2:0:0:
210,149,246486,38,0,L|216:100,1,50,10|0,3:2|0:0,0:0:0:0:
88,164,246704,2,0,L|83:214,1,50,8|0,3:2|3:2,3:2:0:0:
233,141,246921,22,0,L|239:92,1,50,10|0,3:2|3:2,3:2:0:0:
65,172,247138,2,0,L|60:222,1,50,8|0,3:2|3:2,3:2:0:0:
248,346,247356,21,12,3:2:0:0:
297,345,247464,1,8,3:2:0:0:
342,324,247573,1,8,3:0:0:0:
375,287,247682,1,8,3:0:0:0:
391,232,247791,53,10,3:2:0:0:
369,178,247899,1,8,3:2:0:0:
404,133,248008,1,8,3:3:0:0:
461,142,248117,1,8,3:3:0:0:
483,202,248226,5,10,3:2:0:0:
445,252,248334,1,2,3:0:0:0:
386,276,248443,1,8,3:2:0:0:
323,266,248552,1,2,3:0:0:0:
286,244,248660,54,8,P|306:236|323:222,1,43.7500004172325,8|8,3:0|3:0,3:0:0:0:
257,226,248769,2,0,P|270:209|278:189,1,43.7500004172325,8|8,3:0|3:0,0:0:0:0:
222,222,248878,2,0,P|225:201|222:179,1,43.7500004172325,8|8,3:0|3:0,0:0:0:0:
190,236,248986,2,0,P|182:216|168:199,1,43.7500004172325,8|8,3:0|3:0,0:0:0:0:
169,264,249095,21,4,0:0:0:0:
256,192,249149,12,0,250726,0:0:0:0:
57,61,250834,54,0,L|131:51,1,75.0000028610231,6|0,0:0|0:0,0:0:0:0:
359,183,251269,2,0,L|284:173,1,75.0000028610231,2|0,0:0|0:0,0:0:0:0:
140,280,251704,1,10,0:0:0:0:
449,24,252139,22,0,B|456:124,1,100.000003814697
455,123,252573,1,8,0:3:0:0:
315,345,253008,2,0,L|336:273,1,75.0000028610231,2|0,0:0|0:0,0:0:0:0:
191,92,253443,2,0,L|212:163,1,75.0000028610231,10|0,0:0|0:0,0:0:0:0:
22,63,253878,1,2,0:0:0:0:
85,300,254313,37,2,0:0:0:0:
85,300,254747,1,0,0:0:0:0:
389,199,255182,1,10,0:0:0:0:
44,96,255617,2,0,P|28:149|31:203,1,100.000003814697
29,193,256052,1,2,0:0:0:0:
337,273,256486,21,2,0:0:0:0:
265,22,256921,1,10,0:0:0:0:
254,297,257356,1,2,0:0:0:0:
