osu file format v14

[General]
AudioFilename: audio.mp3
AudioLeadIn: 0
PreviewTime: 115132
Countdown: 0
SampleSet: Soft
StackLeniency: 0.7
Mode: 0
LetterboxInBreaks: 0
WidescreenStoryboard: 1

[Editor]
Bookmarks: 400,7356,21269,35182,49095,50834,87356,90834,94313,101269,115182,130834,167356,174313,181269,192139,200399,206704,209965,212573,214095,214747,217356,236921,250834,257356
DistanceSpacing: 1.2
BeatDivisor: 8
GridSize: 4
TimelineZoom: 1.8

[Metadata]
Title:I believe what you said
TitleUnicode:I believe what you said
Artist:Asaka
ArtistUnicode:亜咲花
Creator:Okoratu
Version:Intermediate
Source:ひぐらしのなく頃に 業
Tags:Higurashi no Naku Koro ni Gou 2020 When the Cicadas Cry anime opening op 07th Expansion Passione Maebara Keiichi Sonozaki Mion Shion Ryuugu Rena Houjou Satoko Satoshi Furude Rika Hanyuu Okorin Electronic Japanese Pop Spkz Yudragen Anime
BeatmapID:2869812
BeatmapSetID:1294563

[Difficulty]
HPDrainRate:5
CircleSize:4
OverallDifficulty:5
ApproachRate:7
SliderMultiplier:1.4
SliderTickRate:2

[Events]
//Background and Video events
0,0,"behgeh3.jpg",0,0
//Break Periods
2,87556,93413
2,200599,205804
//Storyboard Layer 0 (Background)
//Storyboard Layer 1 (Fail)
//Storyboard Layer 2 (Pass)
//Storyboard Layer 3 (Foreground)
//Storyboard Layer 4 (Overlay)
//Storyboard Sound Samples

[TimingPoints]
400,434.782608695652,4,2,1,50,1,0
400,-100,4,2,1,50,0,0
1160,-100,4,2,2,50,0,0
1378,-100,4,2,1,50,0,0
2899,-100,4,2,2,50,0,0
3117,-100,4,2,1,50,0,0
3443,-100,4,2,1,40,0,0
3878,-100,4,2,1,50,0,0
4639,-100,4,2,2,50,0,0
4856,-100,4,2,1,50,0,0
5617,-200,4,2,1,50,0,0
6378,-200,4,2,2,50,0,0
6595,-200,4,2,1,60,0,0
7356,-100,4,2,1,60,0,0
11269,-100,4,2,1,60,0,0
14313,-100,4,2,1,70,0,0
19095,-57.1428571428571,4,2,1,70,0,0
21160,-57.1428571428571,4,2,1,5,0,0
21269,-133.333333333333,4,2,1,55,0,0
27356,-83.3333333333333,4,2,1,55,0,0
28226,-100,4,2,1,55,0,0
31704,-100,4,2,1,70,0,0
34747,-57.1428571428571,4,2,1,70,0,0
35182,-133.333333333333,4,2,1,80,0,0
35291,-133.333333333333,4,2,1,50,0,0
35943,-133.333333333333,4,2,2,50,0,0
36160,-133.333333333333,4,2,1,50,0,0
37139,-83.3333333333333,4,2,1,50,0,0
37736,-83.3333333333333,4,2,2,50,0,0
37845,-83.3333333333333,4,2,1,50,0,0
38660,-133.333333333333,4,2,1,50,0,0
38932,-133.333333333333,4,2,1,5,0,0
39041,-133.333333333333,4,2,1,50,0,0
39476,-133.333333333333,4,2,2,50,0,0
39584,-133.333333333333,4,2,1,50,0,0
40617,-100,4,2,1,50,0,0
41269,-83.3333333333333,4,2,1,70,0,0
42139,-100,4,2,1,60,0,0
47139,-100,4,2,1,70,0,0
49204,-100,4,2,1,60,0,0
50834,-83.3333333333333,4,2,1,80,0,1
64313,-83.3333333333333,4,2,1,80,0,0
64747,-83.3333333333333,4,2,1,80,0,1
80345,-83.3333333333333,4,2,1,70,0,1
80399,-83.3333333333333,4,2,1,70,0,1
82247,-133.333333333333,4,2,1,50,0,0
83878,-66.6666666666667,4,2,1,80,0,0
85563,-66.6666666666667,4,2,1,50,0,0
86486,-66.6666666666667,4,2,1,80,0,0
90834,-100,4,2,1,60,0,0
94313,-100,4,2,1,50,0,0
95834,-83.3333333333333,4,2,1,50,0,0
97791,-100,4,2,1,50,0,0
99095,-57.1428571428571,4,2,1,50,0,0
99476,-57.1428571428571,4,2,1,30,0,0
99530,-100,4,2,1,30,0,0
99639,-100,4,2,1,40,0,0
99856,-100,4,2,1,50,0,0
100073,-100,4,2,1,55,0,0
100291,-100,4,2,1,60,0,0
100508,-100,4,2,1,65,0,0
100726,-100,4,2,1,70,0,0
100943,-100,4,2,1,75,0,0
101269,-133.333333333333,4,2,1,70,0,0
101378,-133.333333333333,4,2,1,50,0,0
108226,-100,4,2,1,60,0,0
111649,-100,4,2,1,70,0,0
114747,-57.1428571428571,4,2,1,70,0,0
115182,-133.333333333333,4,2,1,70,0,0
115617,-133.333333333333,4,2,1,60,0,0
115834,-100,4,2,1,60,0,0
118660,-133.333333333333,4,2,1,60,0,0
119313,-100,4,2,1,60,0,0
121269,-83.3333333333333,4,2,1,70,0,0
122139,-133.333333333333,4,2,1,60,0,0
122682,-100,4,2,1,60,0,0
130834,-83.3333333333333,4,2,1,80,0,1
144313,-83.3333333333333,4,2,1,80,0,0
144747,-83.3333333333333,4,2,1,80,0,1
160345,-83.3333333333333,4,2,1,70,0,1
160399,-83.3333333333333,4,2,1,70,0,1
162247,-133.333333333333,4,2,1,50,0,0
163878,-83.3333333333333,4,2,1,80,0,0
165563,-83.3333333333333,4,2,1,50,0,0
166486,-83.3333333333333,4,2,1,80,0,0
167302,-100,4,2,1,80,0,0
173660,-100,4,2,1,70,0,0
175073,-76.9230769230769,4,2,1,70,0,0
175182,-76.9230769230769,4,2,1,60,0,0
175399,-76.9230769230769,4,2,2,30,0,0
175726,-100,4,2,2,30,0,0
175834,-100,4,2,1,70,0,0
176595,-76.9230769230769,4,2,1,70,0,0
177791,-100,4,2,1,70,0,0
178552,-76.9230769230769,4,2,1,70,0,0
179095,-100,4,2,1,70,0,0
180182,-100,4,2,1,60,0,0
180508,-76.9230769230769,4,2,1,60,0,0
181269,-133.333333333333,4,2,1,60,0,0
181323,-133.333333333333,4,2,2,40,0,0
182030,-133.333333333333,4,2,1,60,0,0
184149,-133.333333333333,4,2,1,30,0,0
184204,-133.333333333333,4,2,1,60,0,0
184258,-133.333333333333,4,2,1,30,0,0
184313,-133.333333333333,4,2,1,60,0,0
184367,-133.333333333333,4,2,1,30,0,0
184422,-133.333333333333,4,2,1,60,0,0
184476,-133.333333333333,4,2,1,30,0,0
184531,-133.333333333333,4,2,1,60,0,0
184584,-133.333333333333,4,2,1,30,0,0
184639,-133.333333333333,4,2,1,60,0,0
184693,-133.333333333333,4,2,1,30,0,0
184747,-133.333333333333,4,2,1,60,0,0
185508,-76.9230769230769,4,2,1,60,0,0
188226,-133.333333333333,4,2,1,60,0,0
189313,-76.9230769230769,4,2,1,60,0,0
191106,-76.9230769230769,4,2,1,30,0,0
191161,-76.9230769230769,4,2,1,60,0,0
191215,-76.9230769230769,4,2,1,30,0,0
191270,-76.9230769230769,4,2,1,60,0,0
191323,-76.9230769230769,4,2,1,30,0,0
191378,-76.9230769230769,4,2,1,60,0,0
191432,-76.9230769230769,4,2,1,30,0,0
191487,-76.9230769230769,4,2,1,60,0,0
191541,-76.9230769230769,4,2,1,30,0,0
191596,-76.9230769230769,4,2,1,60,0,0
191649,-76.9230769230769,4,2,1,30,0,0
191704,-76.9230769230769,4,2,1,70,0,0
194584,-76.9230769230769,4,2,1,20,0,0
194639,-76.9230769230769,4,2,1,70,0,0
194693,-76.9230769230769,4,2,1,20,0,0
194748,-76.9230769230769,4,2,1,70,0,0
194802,-76.9230769230769,4,2,1,20,0,0
194857,-76.9230769230769,4,2,1,70,0,0
194910,-76.9230769230769,4,2,1,20,0,0
194965,-76.9230769230769,4,2,1,70,0,0
195019,-76.9230769230769,4,2,1,20,0,0
195074,-76.9230769230769,4,2,1,70,0,0
195128,-76.9230769230769,4,2,1,20,0,0
195182,-76.9230769230769,4,2,1,60,0,0
206704,-100,4,2,1,60,0,0
210834,-100,4,2,1,70,0,0
212573,-100,4,2,1,70,0,1
213280,-100,4,2,1,70,0,1
213443,-100,4,2,1,70,0,1
213660,-66.6666666666667,4,2,1,70,0,1
214313,-66.6666666666667,4,2,1,50,0,0
214747,-83.3333333333333,4,2,1,80,0,1
229910,-83.3333333333333,4,2,1,70,0,1
229965,-83.3333333333333,4,2,1,70,0,1
231813,-133.333333333333,4,2,1,50,0,0
233443,-76.9230769230769,4,2,1,80,0,0
235073,-76.9230769230769,4,2,1,50,0,0
236052,-76.9230769230769,4,2,1,80,0,0
236921,-100,4,2,1,60,0,0
243878,-100,4,2,1,70,0,0
245617,-100,4,2,1,70,0,0
248660,-57.1428571428571,4,2,1,70,0,0
250780,-57.1428571428571,4,2,1,5,0,0
250834,-133.333333333333,4,2,1,30,0,0
251649,-133.333333333333,4,2,2,30,0,0
251758,-133.333333333333,4,2,1,30,0,0
253389,-133.333333333333,4,2,2,30,0,0
253497,-133.333333333333,4,2,1,30,0,0
255128,-133.333333333333,4,2,2,30,0,0
255236,-133.333333333333,4,2,1,30,0,0
256867,-133.333333333333,4,2,2,30,0,0
256976,-133.333333333333,4,2,1,30,0,0

[Colours]
Combo1 : 255,21,28
Combo2 : 255,153,51
Combo3 : 53,72,244
Combo4 : 199,36,177
Combo5 : 107,231,237

[HitObjects]
54,110,400,22,0,P|103:105|140:94,1,70,0|0,1:0|0:0,0:0:0:0:
196,64,834,1,2,0:0:0:0:
196,64,1269,1,8,0:0:0:0:
266,97,1486,2,0,B|319:96|304:112|355:117|401:99,1,105,8|8,3:3|3:0,0:0:0:0:
500,62,2139,54,0,L|495:152,1,70,2|2,1:1|0:0,0:0:0:0:
488,223,2573,1,2,3:2:0:0:
488,223,2791,1,2,0:0:0:0:
412,181,3008,2,0,P|366:176|326:184,1,70,8|8,0:0|1:3,0:0:0:0:
263,144,3443,53,2,0:1:0:0:
269,224,3660,1,2,0:1:0:0:
263,144,3878,54,0,P|270:83|250:31,1,105,0|0,1:0|0:0,0:0:0:0:
241,57,4313,2,0,L|154:61,1,70
86,33,4747,1,8,0:0:0:0:
100,121,4965,2,0,B|110:180|70:171|79:242,1,105,8|8,3:3|3:0,0:0:0:0:
32,355,5617,22,2,B|60:329|109:334|105:360|169:349,1,140,2|8,0:0|0:0,0:0:0:0:
249,368,6704,53,8,1:3:0:0:
219,176,7030,1,8,1:3:0:0:
365,62,7356,38,0,L|456:69,1,70,4|0,0:0|3:0,0:0:0:0:
385,167,7791,2,0,P|375:217|387:266,1,70,2|0,0:0|3:0,0:0:0:0:
444,318,8226,1,2,0:0:0:0:
351,361,8443,2,0,P|313:361|254:317,1,105,2|0,0:0|0:0,0:0:0:0:
233,331,8878,1,2,0:0:0:0:
248,228,9095,54,0,P|253:190|254:67,1,140,6|2,1:3|0:0,0:0:0:0:
179,6,9747,2,0,P|174:44|173:167,1,140,2|0,0:0|0:0,0:0:0:0:
103,224,10399,1,2,0:0:0:0:
103,224,10508,1,2,0:0:0:0:
103,224,10617,1,2,3:0:0:0:
151,313,10834,22,0,L|240:310,1,70,4|0,0:0|3:0,0:0:0:0:
324,349,11269,2,0,P|317:307|327:259,1,70,2|2,0:0|3:0,0:0:0:0:
277,193,11704,1,2,0:0:0:0:
277,193,11921,2,0,L|374:190,1,70,2|2,3:2|1:2,0:0:0:0:
442,240,12356,1,2,3:0:0:0:
442,240,12465,1,0,3:0:0:0:
442,240,12573,54,0,P|437:174|449:85,1,140,4|2,1:3|0:0,0:0:0:0:
346,194,13226,2,0,P|304:199|184:194,1,140,2|2,3:2|3:2,0:0:0:0:
142,58,13878,2,0,L|147:158,1,70,2|0,1:2|3:0,0:0:0:0:
127,163,14204,1,0,3:0:0:0:
127,163,14313,54,0,L|35:158,1,70,12|8,3:2|3:2,3:2:0:0:
115,277,14747,2,0,L|207:282,1,70,10|8,3:2|3:2,3:2:0:0:
397,277,15182,2,0,L|327:280,1,70,10|10,3:2|3:2,3:2:0:0:
385,163,15617,2,0,L|454:159,1,70,10|10,1:2|3:2,3:2:0:0:
448,32,16052,21,14,3:2:0:0:
351,76,16269,1,8,3:2:0:0:
242,37,16486,1,10,3:2:0:0:
145,81,16703,1,10,3:2:0:0:
39,47,16921,2,0,L|34:16,3,23.3333333333333,10|2|0|8,3:2|3:2|3:2|3:2,0:0:0:0:
64,158,17356,1,10,3:2:0:0:
18,266,17573,1,8,3:2:0:0:
123,316,17791,6,0,L|166:309,3,35,12|8|8|8,3:2|3:2|3:0|3:0,0:0:0:0:
168,283,18226,2,0,L|211:276,3,35,10|8|8|8,3:2|3:2|3:0|3:0,0:0:0:0:
213,249,18660,2,0,L|256:242,3,35,8|2|8|2,3:2|3:0|3:2|3:0,0:0:0:0:
251,214,19095,2,0,L|294:207,8,30.6250002920628,2|8|8|8|8|8|0|0|2,1:2|3:2|3:2|3:3|3:2|3:2|3:0|0:0|3:2,3:0:0:0:
256,192,19639,12,4,21269,0:0:0:0:
260,190,21704,22,0,P|263:135|263:104,1,78.7500030040742,8|8,0:3|0:3,0:0:0:0:
250,94,22139,2,0,L|193:102,1,52.5000020027161,8|2,0:3|0:0,0:0:0:0:
119,67,22573,2,0,L|62:75,1,52.5000020027161,8|0,0:3|0:0,0:0:0:0:
20,148,23008,21,10,0:3:0:0:
33,229,23226,1,2,0:0:0:0:
46,310,23443,2,0,L|139:302,1,78.7500030040742,8|8,0:3|0:3,0:0:0:0:
158,279,23878,2,0,L|229:273,1,52.5000020027161,8|2,0:3|0:0,0:0:0:0:
290,233,24313,2,0,L|286:306,1,52.5000020027161,8|2,0:3|0:0,0:0:0:0:
356,344,24747,37,10,1:3:0:0:
356,344,24965,1,0,0:0:0:0:
433,294,25182,2,0,P|439:258|433:205,1,78.7500030040742,8|8,0:3|0:3,0:0:0:0:
408,198,25617,2,0,L|412:138,1,52.5000020027161,8|2,0:3|0:0,0:0:0:0:
472,66,26052,2,0,L|405:59,1,52.5000020027161,8|2,0:3|0:0,0:0:0:0:
337,26,26486,22,0,P|309:64|302:113,1,78.7500030040742,10|0,1:3|0:0,0:0:0:0:
319,120,26921,2,0,L|324:188,1,52.5000020027161,8|2,0:3|0:0,0:0:0:0:
280,237,27356,5,8,1:3:0:0:
216,192,27573,1,2,0:0:0:0:
173,262,27791,1,10,1:3:0:0:
135,168,28008,1,2,0:0:0:0:
93,291,28226,22,0,L|99:368,1,70,4|2,0:0|3:2,0:0:0:0:
15,256,28660,2,0,L|23:179,1,70,8|0,3:0|0:0,0:0:0:0:
57,160,28986,1,8,0:3:0:0:
57,160,29095,2,0,L|65:83,1,70,8|2,3:3|0:0,0:0:0:0:
135,20,29530,1,8,0:3:0:0:
164,111,29747,1,2,3:2:0:0:
233,49,29965,22,0,P|273:50|317:48,1,70,10|2,0:3|3:2,0:0:0:0:
404,124,30399,2,0,P|364:123|320:125,1,70,8|0,0:3|0:0,0:0:0:0:
306,157,30726,1,8,0:3:0:0:
306,157,30834,2,0,L|311:243,1,70,10|2,0:3|3:2,0:0:0:0:
299,337,31269,1,8,0:3:0:0:
380,280,31486,1,2,3:2:0:0:
427,347,31704,22,0,P|469:360|495:356,1,70,12|10,3:2|3:2,3:2:0:0:
512,235,32139,2,0,P|470:222|444:226,1,70,8|8,3:2|3:2,3:2:0:0:
274,320,32573,22,0,P|232:333|206:329,1,70,10|8,3:2|3:2,3:2:0:0:
189,208,33008,2,0,P|231:195|257:199,1,70,8|10,3:2|3:2,3:2:0:0:
256,192,33443,12,4,35182,0:0:0:0:
199,113,36052,53,8,0:0:0:0:
199,113,36269,2,0,P|201:79|198:25,2,78.7500030040742,8|8|8,3:0|3:0|3:0,0:0:0:0:
169,197,37139,38,2,B|260:216|251:144|351:177,1,167.999994873047,0|0,0:2|0:2,0:2:0:0:
410,134,37791,1,8,0:0:0:0:
410,134,38008,1,8,0:3:0:0:
438,218,38226,2,0,L|427:262,2,41.9999987182618,0|8|2,3:0|0:3|0:0,0:0:0:0:
491,146,38660,22,0,P|490:108|379:57,1,157.500006008148,2|0,0:0|3:0,0:0:0:0:
334,127,39530,1,8,0:0:0:0:
334,127,39747,2,0,B|295:134|288:114|246:121,2,78.7500030040742,8|0|8,3:0|3:0|3:0,0:0:0:0:
302,38,40617,38,2,P|254:43|144:42,1,140,2|0,0:0|0:0,0:0:0:0:
87,100,41269,2,0,B|76:40|76:40|2:36,2,125.999996154785,8|8|8,0:0|0:0|0:0,0:0:0:0:
165,149,42139,38,0,P|152:203|142:299,1,140,12|0,3:2|3:0,3:0:0:0:
60,351,42791,1,8,1:3:0:0:
60,351,42899,1,0,3:0:0:0:
60,351,43008,2,0,P|56:309|46:271,1,70,8|0,1:2|3:0,3:0:0:0:
154,378,43443,1,2,3:2:0:0:
154,378,43660,38,0,P|195:371|234:368,1,70,8|2,3:0|3:0,3:0:0:0:
330,378,44095,2,0,P|330:346|341:290,1,70,8|2,3:2|3:2,3:0:0:0:
407,240,44530,1,0,1:0:0:0:
407,240,44639,1,0,3:0:0:0:
407,240,44747,2,0,L|445:244,3,23.3333333333333,8|0|0|0,1:2|3:0|3:0|3:0,3:0:0:0:
322,175,45182,2,0,L|284:179,3,23.3333333333333,2|0|0|2,3:0|3:0|3:0|3:2,3:0:0:0:
435,146,45617,22,0,B|459:72|406:76|427:-7,1,140,8|0,3:0|3:0,3:0:0:0:
338,70,46269,1,0,1:0:0:0:
338,70,46378,1,0,1:0:0:0:
338,70,46486,2,0,L|256:77,1,70,8|2,3:2|3:2,3:0:0:0:
175,39,46921,1,2,3:2:0:0:
202,150,47139,54,0,P|206:217|204:267,1,105,8|0,3:0|3:0,0:0:0:0:
252,311,47573,2,0,B|200:302|191:324|114:314,1,105,14|8,3:0|3:0,0:0:0:0:
97,336,48008,1,8,3:0:0:0:
97,336,48117,2,0,L|91:248,1,70,8|8,3:0|3:2,0:0:0:0:
82,186,48552,1,8,0:3:0:0:
74,106,48769,2,0,L|67:53,3,35,8|8|0|4,3:0|3:0|1:0|0:0,0:0:0:0:
240,195,49530,37,8,3:0:0:0:
240,195,49639,1,8,3:0:0:0:
240,195,49747,1,4,3:2:0:0:
421,77,50182,1,12,0:2:0:0:
406,281,50617,5,2,0:0:0:0:
406,281,50834,2,2,P|357:275|226:281,1,167.999994873047,4|8,0:0|3:2,0:0:0:0:
152,322,51486,1,2,0:0:0:0:
96,261,51704,1,2,1:2:0:0:
154,197,51921,2,0,P|163:147|161:91,1,83.9999974365235,2|8,0:0|1:2,0:0:0:0:
88,32,52356,1,2,0:0:0:0:
88,32,52465,1,0,0:0:0:0:
88,32,52573,22,2,P|143:35|264:33,1,167.999994873047,2|8,1:2|0:0,0:0:0:0:
353,17,53226,1,2,0:0:0:0:
243,229,53660,1,2,0:0:0:0:
453,346,54095,1,2,0:0:0:0:
486,259,54313,38,0,P|444:235|386:238,1,83.9999974365235,2|0,1:2|3:0,0:0:0:0:
383,244,54639,1,0,3:0:0:0:
383,244,54747,1,8,3:2:0:0:
318,333,54965,2,0,P|260:342|208:339,1,83.9999974365235,2|2,0:0|1:2,0:0:0:0:
179,255,55399,2,0,L|185:155,1,83.9999974365235,2|8,0:0|0:0,0:0:0:0:
261,91,55834,1,2,0:0:0:0:
261,91,55943,1,0,0:0:0:0:
261,91,56052,22,2,B|169:113|190:50|68:83,1,167.999994873047,2|10,1:2|3:2,0:0:0:0:
24,159,56704,2,2,P|28:217|29:257,1,83.9999974365235,2|0,0:2|1:0,0:0:0:0:
16,286,57030,1,8,1:2:0:0:
16,286,57139,2,0,P|68:282|119:284,1,83.9999974365235,2|8,0:0|0:0,0:0:0:0:
189,328,57573,1,2,3:2:0:0:
184,237,57791,38,0,P|180:188|181:143,1,83.9999974365235,4|0,1:2|3:0,0:0:0:0:
244,97,58226,1,10,3:2:0:0:
321,139,58443,2,0,P|368:146|418:143,1,83.9999974365235,2|0,3:2|1:2,0:0:0:0:
498,58,58878,2,0,P|451:51|401:54,1,83.9999974365235,2|8,3:0|0:0,0:0:0:0:
484,190,59313,1,0,3:0:0:0:
484,190,59421,1,0,3:0:0:0:
484,190,59530,22,0,L|478:276,1,83.9999974365235,4|2,3:2|0:0,0:0:0:0:
411,355,59965,1,8,3:2:0:0:
351,270,60182,1,0,0:0:0:0:
287,352,60399,2,0,P|235:361|191:344,1,83.9999974365235,0|2,1:0|0:0,0:0:0:0:
106,374,60834,2,0,B|96:319|127:303|115:240,1,125.999996154785,8|0,0:0|3:0,0:0:0:0:
81,224,61269,38,0,P|75:178|85:133,1,83.9999974365235,6|0,1:2|3:0,0:0:0:0:
192,183,61704,1,8,0:0:0:0:
192,183,61921,2,2,P|254:184|317:177,2,125.999996154785,2|2|10,0:0|0:0|0:0,0:0:0:0:
271,86,62791,1,2,3:0:0:0:
271,86,63008,54,0,L|323:95,1,41.9999987182618,6|0,1:1|1:0,0:0:0:0:
438,86,63334,2,0,L|490:77,1,41.9999987182618,2|0,1:1|1:0,0:0:0:0:
390,203,63660,2,0,L|400:352,1,125.999996154785,2|0,1:1|1:0,0:0:0:0:
370,359,64095,21,4,1:0:0:0:
293,292,64313,1,2,1:0:0:0:
207,344,64530,1,2,1:2:0:0:
209,234,64747,54,2,P|212:153|208:53,1,167.999994873047,4|8,1:2|3:2,0:0:0:0:
140,10,65399,1,2,0:0:0:0:
50,32,65617,1,2,1:2:0:0:
105,105,65834,2,2,P|111:158|106:208,1,83.9999974365235,2|8,0:0|0:0,0:0:0:0:
72,289,66269,1,2,3:2:0:0:
72,289,66378,1,0,0:0:0:0:
72,289,66486,22,2,B|165:263|147:316|251:300,1,167.999994873047,2|10,1:2|3:2,0:0:0:0:
327,323,67139,1,2,3:2:0:0:
234,119,67573,1,2,0:0:0:0:
450,35,68008,1,2,3:2:0:0:
418,129,68226,6,0,B|431:172|391:199|415:273,2,125.999996154785,2|2|2,1:2|3:2|3:2,0:0:0:0:
372,39,69095,2,0,B|374:38|367:40|287:67|190:43,1,167.999994873047,2|8,1:2|0:0,0:0:0:0:
105,36,69747,1,2,3:2:0:0:
134,133,69965,22,2,B|119:183|145:234|125:308,1,167.999994873047,2|10,1:0|0:0,0:0:0:0:
38,369,70617,2,2,P|22:318|34:263,1,83.9999974365235,2|0,0:0|1:0,3:0:0:0:
46,258,70943,1,0,3:1:0:0:
46,258,71052,2,0,L|51:154,1,83.9999974365235,2|8,3:1|0:0,0:0:0:0:
35,77,71486,1,0,3:0:0:0:
35,77,71595,1,0,3:0:0:0:
35,77,71704,53,4,1:2:0:0:
124,108,71921,38,2,P|171:112|242:102,1,83.9999974365235,2|8,0:0|0:0,0:0:0:0:
290,55,72356,1,2,3:2:0:0:
350,129,72573,1,0,1:0:0:0:
283,199,72791,2,2,P|273:250|277:295,1,83.9999974365235,2|8,0:0|0:0,0:0:0:0:
370,343,73226,1,0,3:0:0:0:
370,343,73334,1,0,3:0:0:0:
370,343,73443,6,0,L|468:340,2,83.9999974365235,4|2|8,1:2|3:2|2:0,0:0:0:0:
260,365,74095,2,2,P|214:327|125:337,1,125.999996154785,2|0,0:0|3:0,0:0:0:0:
112,344,74530,2,0,L|112:246,1,83.9999974365235,2|8,3:2|0:0,0:0:0:0:
169,182,74965,1,2,0:0:0:0:
87,139,75182,22,0,P|91:73|191:36,1,167.999994873047,6|8,1:0|3:2,0:0:0:0:
240,99,75834,1,2,0:0:0:0:
240,99,75943,1,0,0:0:0:0:
240,99,76052,2,0,L|347:91,1,83.9999974365235,0|0,1:0|0:0,0:0:0:0:
441,51,76486,2,0,P|428:114|426:147,1,83.9999974365235,2|2,1:0|0:0,0:0:0:0:
398,274,76921,54,0,L|340:261,1,41.9999987182618,4|0,1:2|1:0,0:0:0:0:
256,286,77247,2,0,L|256:340,1,41.9999987182618,2|0,1:2|1:0,0:0:0:0:
114,274,77573,2,0,L|172:261,1,41.9999987182618,2|0,1:2|1:0,0:0:0:0:
256,185,77899,2,0,L|256:136,1,41.9999987182618,0|0,1:0|1:0,0:0:0:0:
256,13,78226,2,0,L|256:65,2,41.9999987182618,2|0|2,1:2|1:0|1:2,0:0:0:0:
162,86,78660,6,0,P|100:89|53:102,1,83.9999974365235,8|8,3:2|3:2,3:2:0:0:
129,191,79095,2,0,P|120:235|111:287,1,83.9999974365235,8|8,3:2|3:2,3:2:0:0:
135,309,79421,1,2,3:0:0:0:
135,309,79530,2,0,P|174:305|237:304,1,83.9999974365235,10|8,3:2|3:2,3:2:0:0:
314,354,79965,1,8,3:2:0:0:
388,282,80182,1,8,3:2:0:0:
297,235,80399,54,0,L|288:178,3,41.9999987182618,2|8|0|8,1:0|3:2|1:0|3:2,0:0:0:0:
309,168,80834,2,0,L|300:111,3,41.9999987182618,2|2|0|2,1:2|1:3|1:0|1:3,0:0:0:0:
323,100,81269,2,0,L|314:43,1,41.9999987182618,2|8,1:0|1:3,0:0:0:0:
152,64,81595,2,0,L|143:7,1,41.9999987182618,2|8,1:0|1:3,0:0:0:0:
210,183,81921,2,0,L|202:245,2,41.9999987182618,2|2|0,1:0|1:2|1:0,0:0:0:0:
205,344,83008,6,0,P|234:336|314:351,1,105.000004005432,2|0,0:0|0:0,0:0:0:0:
450,359,83878,6,0,B|429:322|429:322|444:190,2,157.500006008148,6|2|8,1:0|1:0|0:0,0:0:0:0:
319,357,84747,38,0,B|340:320|340:320|325:188,2,157.500006008148,6|2|8,1:0|1:0|0:0,0:0:0:0:
246,291,85617,22,8,L|215:293,16,26.2500010013581,2|8|8|8|8|8|2|8|8|8|8|8|2|8|8|8|4,3:1|3:0|3:0|3:0|3:0|3:0|3:1|3:0|3:0|3:0|3:0|3:0|3:1|3:0|3:0|3:0|3:2,3:0:0:0:
125,116,87356,1,4,0:0:0:0:
94,112,94313,54,0,L|179:109,1,70,2|0,3:2|3:0,0:0:0:0:
276,64,94747,2,0,B|251:84|251:84|258:160,1,105,8|0,0:0|0:0,0:0:0:0:
260,192,95182,1,2,0:0:0:0:
344,147,95399,2,0,L|433:142,1,70,0|8,0:0|3:2,0:0:0:0:
494,240,95834,54,2,B|447:228|447:228|396:256|396:256|331:243,2,167.999994873047,2|2|2,0:0|3:2|3:2,0:3:0:0:
466,352,96921,1,10,3:0:0:0:
466,352,97030,1,8,0:0:0:0:
466,352,97139,1,0,1:0:0:0:
362,337,97356,2,0,L|271:329,1,83.9999974365235,8|2,1:2|3:0,0:0:0:0:
163,359,97791,2,0,L|171:309,3,35,8|0|8|2,1:3|1:0|1:2|1:3,0:0:0:0:
134,296,98226,2,0,L|142:246,3,35,10|0|8|0,1:2|1:0|1:2|1:0,0:0:0:0:
106,232,98660,2,0,L|114:182,3,35,10|2|2|2,1:2|1:3|1:2|1:3,0:0:0:0:
72,170,99095,2,0,L|79:133,6,30.6250002920628,0|0|0|0|0|0|0,1:0|1:0|1:0|1:0|1:0|1:0|1:0,1:0:0:0:
32,107,99530,22,0,L|26:26,2,70,2|2|0,0:0|0:0|0:0,0:0:0:0:
105,62,100182,1,2,0:0:0:0:
169,110,100399,1,0,0:0:0:0:
229,55,100617,1,0,0:0:0:0:
269,133,100834,1,2,0:0:0:0:
336,59,101052,1,2,0:0:0:0:
363,161,101269,22,4,P|398:163|457:161,2,78.7500030040742,0|2|0,0:0|0:0|3:0,0:0:0:0:
320,222,102139,2,0,P|285:223|257:222,1,52.5000020027161,8|2,0:3|0:0,0:0:0:0:
194,212,102573,2,0,L|192:175,2,26.2500010013581,8|0|2,3:0|3:0|3:2,0:0:0:0:
120,273,103008,38,0,P|116:223|112:175,2,78.7500030040742,8|2|2,0:3|0:0|0:0,0:0:0:0:
167,351,103878,1,8,0:3:0:0:
167,351,104095,1,2,0:0:0:0:
232,306,104313,2,2,P|261:302|301:305,1,52.5000020027161,10|2,0:3|0:0,0:0:0:0:
350,352,104747,22,0,L|438:357,2,78.7500030040742,8|2|2,0:3|0:0|3:2,0:0:0:0:
395,280,105617,2,0,P|399:246|400:225,1,52.5000020027161,8|2,3:3|0:0,0:0:0:0:
381,150,106052,2,0,L|385:119,2,26.2500010013581,8|0|2,0:3|0:0|3:2,0:0:0:0:
308,116,106486,37,8,3:0:0:0:
298,193,106704,1,2,3:2:0:0:
287,268,106921,1,8,3:0:0:0:
88,96,107356,2,0,L|165:92,1,52.5000020027161,8|2,0:3|3:0,0:0:0:0:
116,169,107791,2,0,L|106:231,1,52.5000020027161,8|2,0:3|3:0,0:0:0:0:
63,310,108226,6,0,P|120:296|194:301,1,105,2|2,1:2|1:2,0:0:0:0:
319,364,108878,2,0,P|279:351|243:322,1,70,2|8,1:2|3:3,0:0:0:0:
249,234,109313,1,2,1:2:0:0:
347,274,109530,2,0,L|446:266,1,70,8|2,1:2|3:2,0:0:0:0:
489,327,109965,6,0,P|489:276|496:212,1,105,2|2,1:2|1:2,0:0:0:0:
479,64,110617,2,0,P|481:103|476:136,1,70,2|8,1:2|3:0,0:0:0:0:
400,195,111052,1,2,1:2:0:0:
337,116,111269,2,0,L|259:108,1,70,8|2,3:2|3:0,0:0:0:0:
174,74,111704,6,0,L|183:160,1,70,10|8,3:2|3:2,3:2:0:0:
125,247,112139,2,0,L|134:333,1,70,8|8,3:2|3:2,3:2:0:0:
231,356,112573,5,8,3:2:0:0:
231,356,112791,1,8,3:2:0:0:
257,255,113008,1,8,3:2:0:0:
257,255,113226,1,8,3:2:0:0:
322,347,113443,54,0,L|372:348,3,35,14|0|10|0,3:2|1:0|3:2|1:0,0:0:0:0:
383,315,113878,2,0,L|433:316,3,35,8|8|2|10,1:3|3:2|1:2|3:2,0:0:0:0:
438,275,114313,2,0,L|488:276,3,35,8|0|2|2,1:3|1:0|1:2|1:2,0:0:0:0:
477,230,114747,2,0,L|527:231,6,30.6250002920628,0|0|0|0|2|0|2,1:0|1:0|1:0|1:0|1:2|1:0|1:2,1:0:0:0:
452,191,115182,38,0,P|441:119|442:81,1,105.000004005432,4|0,3:2|3:0,0:0:0:0:
368,29,115834,53,8,1:3:0:0:
313,106,116052,2,0,P|281:115|239:116,1,70,10|0,3:2|3:0,0:0:0:0:
164,92,116486,1,2,3:2:0:0:
122,170,116704,21,8,3:0:0:0:
256,290,117139,1,10,3:0:0:0:
390,170,117573,1,0,1:2:0:0:
424,258,117791,2,0,L|505:272,1,70,10|0,3:2|3:0,0:0:0:0:
409,343,118226,2,0,L|329:330,1,70,2|0,3:2|3:0,0:0:0:0:
249,359,118660,54,0,P|252:319|254:231,1,105.000004005432,2|0,1:2|3:0,0:0:0:0:
281,165,119313,53,8,3:0:0:0:
197,200,119530,2,0,P|158:205|116:198,1,70,10|0,3:2|3:0,0:0:0:0:
50,199,119965,1,2,3:2:0:0:
62,119,120182,21,8,3:0:0:0:
256,31,120617,1,10,3:0:0:0:
450,119,121052,1,8,3:0:0:0:
412,200,121269,6,0,B|399:246|399:246|407:270|407:270|386:329,2,125.999996154785,8|8|8,3:2|3:2|3:2,0:0:0:0:
366,117,122139,6,0,B|316:128|316:102|242:120,1,105.000004005432,6|2,0:0|3:2,0:0:0:0:
172,123,122791,21,8,3:0:0:0:
218,203,123008,2,0,P|225:250|222:290,1,70,8|0,3:2|3:0,0:0:0:0:
179,358,123443,1,0,3:0:0:0:
106,294,123660,6,0,P|52:288|19:294,1,70,8|0,3:0|3:2,0:0:0:0:
89,197,124095,2,0,L|102:111,1,70,2|0,1:2|3:0,0:0:0:0:
62,31,124530,1,0,1:0:0:0:
62,31,124639,1,8,3:0:0:0:
62,31,124747,2,0,L|149:40,1,70,8|2,3:2|3:2,0:0:0:0:
196,125,125182,2,0,L|283:134,1,70,0|2,3:0|0:0,0:0:0:0:
362,94,125617,22,0,P|338:140|328:237,1,140,2|2,1:0|3:0,0:0:0:0:
389,304,126269,1,8,3:0:0:0:
466,245,126486,2,0,P|466:202|455:147,1,70,8|2,3:2|3:0,0:0:0:0:
495,69,126921,1,2,3:2:0:0:
412,113,127139,5,10,3:0:0:0:
344,41,127356,1,0,3:0:0:0:
277,106,127573,2,0,P|239:116|146:109,1,105,6|8,3:0|3:0,0:0:0:0:
139,84,128008,1,8,3:0:0:0:
139,84,128117,2,0,L|54:92,1,70,12|8,3:0|3:2,0:0:0:0:
5,156,128552,1,8,3:0:0:0:
68,236,128769,2,0,L|76:276,3,35,8|8|0|4,3:0|3:0|1:0|3:2,0:0:0:0:
254,146,129530,37,8,3:0:0:0:
254,146,129639,1,8,3:0:0:0:
254,146,129747,1,4,3:2:0:0:
193,355,130182,1,4,0:0:0:0:
392,236,130617,5,2,0:0:0:0:
305,223,130834,2,2,B|243:215|252:259|167:251,1,125.999996154785,6|0,1:2|3:0,0:0:0:0:
142,266,131269,2,0,P|146:213|136:160,1,83.9999974365235,8|2,3:2|0:0,0:0:0:0:
65,107,131704,1,2,1:2:0:0:
23,211,131921,2,2,P|19:264|29:317,1,83.9999974365235,2|8,0:0|1:2,0:0:0:0:
108,360,132356,1,2,3:2:0:0:
108,360,132465,1,0,3:0:0:0:
108,360,132573,22,0,B|177:326|190:382|276:364,1,167.999994873047,2|10,1:2|3:2,0:0:0:0:
368,332,133226,1,2,0:0:0:0:
189,170,133660,1,2,0:0:0:0:
373,17,134095,1,2,3:2:0:0:
304,86,134313,38,2,P|249:93|191:75,1,83.9999974365235,2|0,1:2|0:0,0:0:0:0:
122,31,134747,2,0,P|121:104|117:139,1,83.9999974365235,8|2,3:2|0:0,0:0:0:0:
43,183,135182,1,2,1:2:0:0:
116,268,135399,2,0,P|169:256|216:261,1,83.9999974365235,2|8,0:0|3:2,0:0:0:0:
261,177,135834,1,2,3:2:0:0:
325,265,136052,22,0,B|404:260|402:306|474:293,1,125.999996154785,2|0,1:2|3:0,0:0:0:0:
493,310,136486,1,10,3:2:0:0:
428,200,136704,2,2,P|420:146|428:101,1,83.9999974365235,2|0,0:0|1:2,0:0:0:0:
439,73,137030,1,8,3:2:0:0:
439,73,137139,2,0,L|332:77,1,83.9999974365235,2|8,1:2|0:2,0:0:0:0:
270,40,137573,1,2,3:2:0:0:
256,132,137791,38,0,P|264:184|254:274,1,125.999996154785,4|0,1:2|3:0,0:0:0:0:
264,293,138226,2,0,L|163:288,1,83.9999974365235,10|2,3:2|0:0,0:0:0:0:
79,358,138660,1,0,1:0:0:0:
18,262,138878,2,2,P|10:210|20:120,1,125.999996154785,2|0,0:0|0:0,0:0:0:0:
14,87,139313,1,0,3:0:0:0:
109,123,139530,21,4,1:2:0:0:
172,51,139747,2,0,P|218:40|268:41,1,83.9999974365235,2|8,3:2|0:0,0:0:0:0:
328,82,140182,1,2,3:0:0:0:
291,164,140399,1,0,1:0:0:0:
261,243,140617,1,2,0:0:0:0:
369,302,140834,2,0,P|374:233|367:169,1,125.999996154785,10|0,0:0|3:0,0:0:0:0:
368,176,141269,38,0,L|458:169,1,83.9999974365235,6|0,1:2|3:0,0:0:0:0:
498,86,141704,1,8,0:0:0:0:
405,54,141921,2,0,B|349:62|347:30|272:39,2,125.999996154785,2|2|10,0:0|0:0|0:0,0:0:0:0:
498,86,142791,1,2,3:0:0:0:
437,179,143008,54,0,L|427:231,1,41.9999987182618,6|0,1:0|1:0,0:0:0:0:
256,122,143334,2,0,L|256:173,1,41.9999987182618,2|0,1:0|1:0,0:0:0:0:
74,179,143660,2,0,L|99:308,1,125.999996154785,2|0,1:0|1:0,0:0:0:0:
103,341,144095,21,6,1:2:0:0:
190,266,144313,1,2,1:0:0:0:
257,354,144530,1,2,1:2:0:0:
327,270,144747,54,2,P|331:210|344:97,1,167.999994873047,6|8,1:2|3:2,0:0:0:0:
290,23,145399,1,2,0:0:0:0:
221,88,145617,1,2,1:2:0:0:
142,28,145834,2,2,P|96:23|51:35,1,83.9999974365235,2|8,0:0|0:0,0:0:0:0:
104,123,146269,1,2,3:2:0:0:
104,123,146378,1,0,3:0:0:0:
104,123,146486,22,2,P|114:191|108:266,1,125.999996154785,2|0,1:2|3:0,0:0:0:0:
85,291,146921,1,10,1:2:0:0:
165,346,147139,1,2,0:0:0:0:
252,118,147573,1,2,0:0:0:0:
347,346,148008,1,2,3:2:0:0:
343,252,148226,6,2,P|357:208|439:191,1,125.999996154785,2|0,1:2|3:0,0:0:0:0:
443,194,148660,2,0,L|453:92,1,83.9999974365235,8|2,3:2|0:0,0:0:0:0:
464,14,149095,1,2,1:2:0:0:
378,52,149313,2,2,B|322:69|294:40|229:53,1,125.999996154785,2|0,0:0|3:2,0:0:0:0:
206,69,149747,1,2,3:2:0:0:
275,154,149965,22,0,P|282:201|270:337,1,167.999994873047,2|10,1:0|3:2,0:0:0:0:
179,367,150617,2,2,P|99:353|73:355,1,83.9999974365235,2|0,0:0|1:0,0:3:0:0:
73,357,150943,1,8,3:2:0:0:
73,357,151052,2,0,L|80:263,1,83.9999974365235,2|8,1:0|3:2,0:0:0:0:
98,174,151486,1,2,3:2:0:0:
164,236,151704,53,6,1:2:0:0:
196,153,151921,38,2,P|234:146|286:163,1,83.9999974365235,2|8,0:0|0:0,0:0:0:0:
350,223,152356,1,2,3:2:0:0:
375,137,152573,1,0,1:0:0:0:
447,209,152791,2,2,P|437:272|435:342,1,125.999996154785,2|0,0:0|0:0,0:0:0:0:
455,372,153226,1,0,3:0:0:0:
363,337,153443,53,6,1:2:0:0:
270,364,153660,2,0,L|158:369,1,83.9999974365235,2|10,0:0|3:2,0:0:0:0:
90,368,154095,2,2,P|91:301|82:176,1,167.999994873047,2|2,0:0|3:2,0:0:0:0:
179,160,154747,2,0,P|180:217|184:263,1,83.9999974365235,8|0,0:0|3:0,0:0:0:0:
267,194,155182,54,0,P|345:190|459:207,1,167.999994873047,6|8,1:0|3:2,0:0:0:0:
477,81,155834,1,0,3:0:0:0:
477,81,156052,2,0,P|428:88|375:79,1,83.9999974365235,2|2,1:2|3:0,0:0:0:0:
283,35,156486,2,0,P|255:26|197:28,1,83.9999974365235,2|2,1:0|3:0,0:0:0:0:
136,106,156921,54,0,L|173:144,1,41.9999987182618,4|0,1:2|1:0,0:0:0:0:
168,279,157247,2,0,L|208:237,1,41.9999987182618,2|0,1:2|1:0,0:0:0:0:
344,279,157573,2,0,L|304:237,1,41.9999987182618,2|0,1:2|1:0,0:0:0:0:
376,106,157899,2,0,L|339:144,1,41.9999987182618,0|0,1:0|1:0,0:0:0:0:
256,191,158226,2,0,L|256:141,2,41.9999987182618,2|0|2,1:2|1:0|1:2,0:0:0:0:
239,320,158660,6,0,L|152:324,1,83.9999974365235,12|8,3:2|3:2,3:0:0:0:
36,357,159095,2,0,P|42:308|41:237,1,83.9999974365235,8|8,3:2|3:2,3:2:0:0:
25,152,159530,1,10,3:2:0:0:
25,152,159747,1,8,3:2:0:0:
133,178,159965,1,8,3:2:0:0:
133,178,160182,1,8,3:2:0:0:
211,94,160399,54,0,L|266:88,3,41.9999987182618,2|8|0|8,1:0|3:2|1:0|3:2,0:0:0:0:
284,115,160834,2,0,L|339:109,3,41.9999987182618,2|2|0|2,1:2|1:3|1:0|1:3,0:0:0:0:
352,137,161269,2,0,L|407:131,1,41.9999987182618,2|8,1:0|1:3,0:0:0:0:
411,8,161595,2,0,L|466:2,1,41.9999987182618,2|8,1:0|1:3,0:0:0:0:
509,149,161921,2,0,L|502:202,2,41.9999987182618,2|2|4,1:0|1:2|1:2,0:0:0:0:
250,347,163008,6,0,P|254:284|253:219,1,105.000004005432,2|0,0:0|0:0,0:0:0:0:
204,69,163878,6,0,B|161:89|123:50|66:88,2,125.999996154785,6|2|8,1:0|1:0|1:2,0:0:0:0:
308,69,164747,38,0,B|351:89|389:50|446:88,2,125.999996154785,6|2|8,1:0|1:0|1:2,0:0:0:0:
256,143,165617,22,8,L|256:171,16,20.9999993591309,2|8|8|8|8|8|2|8|8|8|8|8|2|8|8|8|4,3:1|3:0|3:0|3:0|3:0|3:0|1:0|3:0|3:0|3:0|3:0|3:0|1:0|3:0|3:0|3:0|0:0,3:0:0:0:
255,362,167356,37,4,0:0:0:0:
255,22,168226,1,6,1:0:0:0:
255,362,168878,1,4,0:0:0:0:
88,130,169313,1,0,1:0:0:0:
135,192,169530,1,2,1:2:0:0:
88,254,169747,1,4,0:0:0:0:
257,191,170182,5,0,1:0:0:0:
323,241,170399,1,2,1:2:0:0:
399,212,170617,1,2,1:2:0:0:
465,262,170834,1,4,0:0:0:0:
47,122,171704,1,6,1:0:0:0:
256,10,172139,53,0,1:2:0:0:
256,91,172356,1,0,1:2:0:0:
256,172,172573,1,6,1:2:0:0:
465,122,173008,5,0,1:3:0:0:
450,224,173226,1,2,0:0:0:0:
450,224,173660,54,0,P|400:224|379:229,2,70,2|2|2,1:0|3:2|1:0,0:0:0:0:
414,316,174313,22,4,L|299:308,1,105,4|0,1:0|3:0,0:0:0:0:
281,338,174747,2,0,L|201:332,1,70,2|0,3:1|3:0,0:0:0:0:
112,367,175182,38,2,B|122:319|122:319|111:275|111:275|130:189,1,181.999991668702,4|0,0:0|0:0,0:3:0:0:
101,103,175834,53,2,0:0:0:0:
101,103,176052,2,0,L|170:101,1,70,2|2,1:2|3:0,0:0:0:0:
256,44,176486,1,2,3:2:0:0:
256,44,176704,6,2,B|246:92|246:92|257:136|257:136|238:222,1,181.999991668702,2|2,3:1|0:1,0:3:0:0:
308,292,177356,21,2,3:2:0:0:
308,292,177573,1,2,1:1:0:0:
395,237,177791,54,0,L|409:128,1,105,10|0,3:0|0:0,0:3:0:0:
441,116,178226,2,0,L|451:33,1,70,2|0,3:2|3:0,0:0:0:0:
334,77,178660,54,2,B|266:78|266:78|232:109|232:109|140:112|140:112,1,181.999991668702,10|2,1:2|3:0,0:3:0:0:
79,82,179313,21,2,3:2:0:0:
98,174,179530,1,8,3:0:0:0:
260,323,179965,2,0,L|307:318,2,35,2|2|2,3:0|3:0|0:1,0:0:0:0:
160,282,180399,1,8,0:0:0:0:
211,217,180617,1,2,1:0:0:0:
290,247,180834,1,10,1:2:0:0:
344,159,181052,1,2,1:0:0:0:
344,159,181160,1,8,3:0:0:0:
344,159,181269,38,2,L|507:168,1,157.500006008148,4|0,0:0|0:0,0:3:0:0:
472,65,182139,22,0,B|436:77|407:57|367:64,1,105.000004005432,10|0,1:2|0:0,0:0:0:0:
294,101,182791,1,8,3:0:0:0:
236,37,183008,54,0,P|204:19|148:28,2,78.7500030040742,6|2|8,1:0|1:0|3:0,0:0:0:0:
294,101,183878,1,8,1:2:0:0:
239,173,184095,2,2,B|231:206|250:232|250:232|238:286,1,105.000004005432,2|0,0:0|0:0,0:0:0:0:
297,365,184747,54,2,L|136:354,1,157.500006008148,8|0,1:3|0:0,0:3:0:0:
43,363,185617,53,8,1:2:0:0:
85,284,185834,2,0,P|87:224|78:188,1,90.9999958343508,2|2,3:1|3:2,0:0:0:0:
37,110,186269,1,2,3:1:0:0:
37,110,186378,1,0,3:0:0:0:
37,110,186486,22,0,B|90:121|90:121|127:108|178:108,2,136.499993751526,6|2|8,1:0|1:0|1:3,0:0:0:0:
133,33,187356,22,0,P|183:28|242:41,1,90.9999958343508,12|8,1:2|1:3,0:0:0:0:
236,54,187682,2,0,L|372:50,1,136.499993751526,12|8,1:2|1:2,0:0:0:0:
479,124,188226,22,2,B|387:111|428:164|316:150,1,157.500006008148,8|0,3:3|0:0,0:3:0:0:
245,182,189095,53,8,1:2:0:0:
320,250,189313,2,0,B|426:264|378:203|507:220,1,181.999991668702,2|2,3:0|3:0,0:0:0:0:
476,320,189965,22,0,B|396:308|428:360|345:348,2,136.499993751526,6|2|8,1:0|1:0|1:3,0:0:0:0:
361,265,190834,1,8,1:2:0:0:
361,265,191052,2,2,L|256:275,1,90.9999958343508,2|0,0:3|0:0,0:0:0:0:
200,333,191486,1,0,0:0:0:0:
128,267,191704,6,0,P|118:212|143:147,1,90.9999958343508,8|8,1:2|1:2,0:0:0:0:
223,106,192139,2,0,P|233:161|208:226,1,90.9999958343508,10|8,1:2|1:2,0:0:0:0:
132,85,192573,1,8,0:0:0:0:
132,85,192791,2,0,L|31:92,2,90.9999958343508,8|8|8,1:2|1:2|1:2,0:0:0:0:
206,19,193443,6,0,B|258:14|258:14|285:27|285:27|362:22,2,136.499993751526,6|2|8,1:0|1:1|1:3,0:0:0:0:
276,109,194313,2,0,L|372:101,1,90.9999958343508,8|2,1:2|1:2,0:0:0:0:
402,98,194639,2,2,P|383:142|385:249,1,136.499993751526,10|10,1:2|1:2,0:0:0:0:
417,311,195182,37,4,1:2:0:0:
329,301,195399,1,2,1:0:0:0:
262,357,195617,1,0,1:0:0:0:
262,357,195726,2,2,L|114:344,1,136.499993751526,10|8,1:2|1:3,0:3:0:0:
33,369,196269,1,2,1:0:0:0:
74,272,196486,2,0,B|79:212|79:212|73:118,1,136.499993751526,0|0,1:0|0:0,0:0:0:0:
59,89,196921,6,0,L|123:82,1,45.4999979171754,8|10,1:2|1:2,0:0:0:0:
177,164,197247,2,0,L|241:157,1,45.4999979171754,8|10,1:2|1:2,0:0:0:0:
283,48,197573,2,0,L|347:41,1,45.4999979171754,8|8,1:2|1:2,0:0:0:0:
367,178,197899,2,0,L|431:171,1,45.4999979171754,8|8,1:2|1:2,0:0:0:0:
467,20,198226,2,0,L|531:13,2,45.4999979171754,10|0|12,1:2|1:0|1:2,0:0:0:0:
256,192,198552,12,0,200399,0:0:0:0:
353,197,206704,6,2,P|361:162|270:180,1,175,2|0,0:0|3:0,0:0:0:0:
257,211,207356,6,0,L|178:217,1,70,4|0,0:0|3:0,0:0:0:0:
155,323,207791,2,0,L|76:329,1,70,2|0,0:0|3:0,0:0:0:0:
277,353,208226,2,0,L|356:347,1,70,2|0,0:0|3:0,0:0:0:0:
413,248,208660,2,0,L|492:242,1,70,0|2,0:0|3:2,0:0:0:0:
502,140,209095,37,4,0:0:0:0:
502,140,209313,1,0,3:0:0:0:
400,160,209530,2,0,P|373:126|365:96,1,70,2|0,0:0|3:0,0:0:0:0:
317,6,209965,2,0,P|305:38|282:65,1,70,2|2,0:0|3:2,0:0:0:0:
227,138,210399,2,0,P|176:134|120:137,1,105,8|0,3:2|3:0,0:0:0:0:
73,113,210834,6,2,P|83:173|82:261,1,140,6|2,1:2|1:2,0:0:0:0:
22,355,211486,2,2,P|82:345|170:346,1,140,6|0,1:2|1:2,0:2:0:0:
253,286,212139,2,0,P|310:292|338:293,1,70,4|2,3:2|3:2,0:0:0:0:
469,231,212573,21,12,1:2:0:0:
365,55,212899,1,6,1:0:0:0:
201,160,213226,1,6,1:0:0:0:
383,355,213660,21,4,0:0:0:0:
324,258,213878,1,0,1:0:0:0:
235,315,214095,1,2,1:2:0:0:
18,127,214747,54,0,P|36:102|88:93,1,83.9999974365235,4|2,0:0|0:0,0:0:0:0:
118,121,215073,1,0,3:0:0:0:
118,121,215182,2,0,L|207:126,1,83.9999974365235,2|2,1:2|0:0,0:0:0:0:
277,75,215617,1,10,0:0:0:0:
287,184,215834,1,2,3:2:0:0:
363,134,216052,6,2,P|420:133|501:149,1,125.999996154785,2|0,1:2|3:0,0:0:0:0:
511,129,216486,1,10,3:2:0:0:
462,54,216704,1,2,0:0:0:0:
310,257,217139,1,2,0:2:0:0:
129,96,217573,1,2,3:2:0:0:
54,162,217791,6,0,L|61:265,1,83.9999974365235,2|2,1:2|3:0,0:0:0:0:
31,349,218226,2,0,P|84:336|127:339,1,83.9999974365235,8|2,3:2|0:0,0:0:0:0:
213,369,218660,1,2,1:2:0:0:
178,260,218878,2,2,P|177:209|179:158,1,83.9999974365235,2|8,0:0|0:0,0:0:0:0:
147,69,219313,1,2,3:2:0:0:
236,99,219530,6,2,B|293:89|307:119|376:107,1,125.999996154785,2|0,1:2|3:0,0:0:0:0:
401,82,219965,1,10,0:0:0:0:
454,169,220182,2,0,P|465:212|463:253,1,83.9999974365235,2|0,0:0|1:0,0:0:0:0:
447,298,220508,1,10,0:2:0:0:
447,298,220617,2,0,L|341:294,1,83.9999974365235,0|8,0:0|3:2,0:0:0:0:
277,333,221052,1,2,3:2:0:0:
251,241,221269,5,4,1:2:0:0:
184,308,221486,6,0,P|146:329|43:317,1,125.999996154785,2|0,0:0|3:0,0:0:0:0:
37,320,221921,2,0,L|46:228,1,83.9999974365235,2|2,3:2|1:2,0:0:0:0:
128,136,222356,2,2,L|136:239,1,83.9999974365235,2|8,0:0|0:0,0:0:0:0:
227,283,222791,1,0,3:0:0:0:
227,283,222899,1,2,3:0:0:0:
227,283,223008,6,0,P|229:242|234:190,1,83.9999974365235,4|0,1:2|3:0,0:0:0:0:
293,125,223443,1,8,0:0:0:0:
224,58,223660,2,2,P|173:51|127:56,1,83.9999974365235,2|0,0:0|1:0,0:0:0:0:
40,44,224095,1,2,3:2:0:0:
85,126,224313,1,8,3:2:0:0:
38,212,224530,1,0,3:0:0:0:
115,276,224747,6,0,P|165:267|254:270,1,125.999996154785,4|0,1:0|3:0,0:0:0:0:
270,308,225182,2,0,L|371:311,1,83.9999974365235,8|2,3:2|3:0,0:0:0:0:
464,353,225617,2,0,L|455:260,1,83.9999974365235,0|0,1:0|3:0,0:0:0:0:
460,174,226052,1,2,1:1:0:0:
378,212,226269,1,2,3:2:0:0:
312,134,226486,22,0,L|337:76,1,41.9999987182618,4|0,1:0|1:0,0:0:0:0:
200,250,226813,2,0,L|175:308,1,41.9999987182618,2|0,1:2|1:0,0:0:0:0:
200,134,227139,2,0,L|175:76,1,41.9999987182618,2|0,1:2|1:0,0:0:0:0:
312,250,227466,2,0,L|337:308,1,41.9999987182618,0|0,1:0|1:0,0:0:0:0:
254,376,227791,2,0,L|254:326,2,41.9999987182618,2|0|2,1:2|1:0|1:2,0:0:0:0:
149,365,228226,6,0,P|111:350|53:367,1,83.9999974365235,8|8,3:2|3:2,3:2:0:0:
29,244,228660,2,0,L|38:139,1,83.9999974365235,8|8,3:2|3:2,3:2:0:0:
118,81,229095,1,10,3:2:0:0:
118,81,229313,1,8,3:2:0:0:
175,174,229530,1,8,3:2:0:0:
175,174,229748,1,8,3:2:0:0:
248,87,229965,54,0,L|300:82,3,41.9999987182618,2|8|0|8,1:0|3:2|1:0|3:2,0:0:0:0:
317,112,230399,2,0,L|369:107,3,41.9999987182618,2|2|0|2,1:2|1:3|1:0|1:3,0:0:0:0:
384,134,230834,2,0,L|436:129,1,41.9999987182618,2|8,1:0|1:3,0:0:0:0:
471,293,231160,2,0,L|523:288,1,41.9999987182618,2|0,1:0|1:3,0:0:0:0:
315,246,231486,2,0,L|263:251,2,41.9999987182618,2|2|4,1:0|1:2|1:0,0:0:0:0:
114,46,232573,6,2,P|123:110|119:175,1,105.000004005432,2|0,0:0|0:0,0:0:0:0:
183,358,233443,6,0,P|150:309|54:304,2,136.499993751526,6|2|8,1:0|1:0|1:2,0:0:0:0:
329,358,234313,38,0,P|362:309|458:304,2,136.499993751526,6|2|8,1:0|1:0|1:2,0:0:0:0:
255,287,235182,22,8,L|255:253,16,22.7499989585877,2|8|8|8|8|8|2|8|8|8|8|8|2|8|8|8|4,3:1|3:0|3:0|3:0|3:0|3:0|3:1|3:0|3:0|3:0|3:0|3:0|3:1|3:0|3:0|3:0|0:0,3:0:0:0:
182,75,236921,6,0,L|100:84,1,70,6|0,0:0|3:0,0:0:0:0:
45,184,237356,2,0,P|91:178|122:179,1,70,2|0,1:0|0:0,0:0:0:0:
199,231,237791,1,2,1:2:0:0:
112,305,238008,2,0,P|104:346|107:380,1,70,2|8,0:0|1:3,0:0:0:0:
201,348,238443,1,0,3:0:0:0:
201,348,238552,1,0,3:0:0:0:
201,348,238660,54,0,P|292:339|353:342,1,140,2|2,1:0|1:2,0:0:0:0:
426,245,239313,2,0,P|335:236|274:239,1,140,2|0,3:0|3:0,0:0:0:0:
188,270,239965,2,0,L|192:184,1,70,10|0,1:2|3:0,0:0:0:0:
170,93,240399,21,4,1:2:0:0:
273,128,240617,1,2,0:0:0:0:
329,37,240834,2,0,P|376:26|459:51,1,105,2|0,1:0|3:0,0:0:0:0:
461,65,241269,1,2,1:2:0:0:
381,124,241486,2,0,L|376:204,1,70,2|2,0:0|1:2,0:0:0:0:
412,297,241921,1,2,3:2:0:0:
412,297,242030,1,0,3:2:0:0:
412,297,242139,22,2,P|361:283|303:288,1,105,2|0,1:0|0:0,0:0:0:0:
277,312,242573,1,2,1:2:0:0:
177,264,242791,2,0,P|164:224|169:157,1,105,2|0,3:2|0:0,0:0:0:0:
191,139,243226,2,0,L|197:41,1,70,2|8,3:2|1:2,0:0:0:0:
109,18,243660,1,0,3:0:0:0:
73,130,243878,6,0,P|67:176|74:224,1,70,12|10,3:2|3:2,3:2:0:0:
39,321,244313,2,0,P|100:309|135:306,1,70,10|8,3:2|3:2,3:2:0:0:
227,238,244747,2,0,P|288:250|323:253,1,70,10|10,3:2|3:2,3:2:0:0:
422,327,245182,2,0,P|416:281|423:233,1,70,10|10,3:2|3:2,3:2:0:0:
467,122,245617,22,0,L|374:134,1,70,12|8,3:2|3:2,3:2:0:0:
299,180,246052,1,10,3:2:0:0:
264,68,246269,2,0,P|227:42|186:43,1,70,10|10,3:2|3:2,3:2:0:0:
72,44,246704,1,8,3:2:0:0:
148,135,246921,2,0,P|155:186|153:221,1,70,10|8,3:2|3:2,3:2:0:0:
117,322,247356,6,0,L|161:313,3,35,12|8|8|8,3:2|3:2|3:0|3:0,0:0:0:0:
184,332,247791,2,0,L|228:323,3,35,10|8|8|8,3:2|3:2|3:3|3:3,0:0:0:0:
245,341,248226,2,0,L|289:332,3,35,10|2|8|2,3:2|3:0|3:2|3:0,0:0:0:0:
291,355,248660,2,8,L|335:346,8,30.6250002920628,8|8|8|8|8|8|8|0|4,3:0|3:0|3:0|3:0|3:0|3:0|3:0|0:0|0:0,3:0:0:0:
256,192,249149,12,6,250834,0:0:0:0:
256,42,251704,5,10,0:0:0:0:
121,327,252573,1,8,0:3:0:0:
90,208,253008,1,2,0:0:0:0:
220,173,253443,1,10,0:0:0:0:
255,303,253878,1,2,0:0:0:0:
346,206,254313,21,2,0:0:0:0:
42,33,255182,1,10,0:0:0:0:
84,283,256052,1,2,0:0:0:0:
28,142,256486,1,2,0:0:0:0:
189,96,256921,1,10,0:0:0:0:
377,42,257356,1,2,0:0:0:0:
