osu file format v14

[General]
AudioFilename: audio.mp3
AudioLeadIn: 0
PreviewTime: 115132
Countdown: 0
SampleSet: Soft
StackLeniency: 0.7
Mode: 0
LetterboxInBreaks: 0
WidescreenStoryboard: 1

[Editor]
Bookmarks: 400,7356,21269,35182,49095,50834,87356,90834,94313,101269,115182,130834,167356,174313,181269,200399,206704,212573,214095,214747,217356,236921,250834,257356
DistanceSpacing: 1
BeatDivisor: 8
GridSize: 4
TimelineZoom: 1.8

[Metadata]
Title:I believe what you said
TitleUnicode:I believe what you said
Artist:Asaka
ArtistUnicode:亜咲花
Creator:Okoratu
Version:Insane
Source:ひぐらしのなく頃に 業
Tags:Higurashi no Naku Koro ni Gou 2020 When the Cicadas Cry anime opening op 07th Expansion Passione Maebara Keiichi Sonozaki Mion Shion Ryuugu Rena Houjou Satoko Satoshi Furude Rika Hanyuu Okorin Electronic Japanese Pop Spkz Yudragen Anime
BeatmapID:2844169
BeatmapSetID:1294563

[Difficulty]
HPDrainRate:6
CircleSize:4
OverallDifficulty:7.5
ApproachRate:8.4
SliderMultiplier:1.7
SliderTickRate:2

[Events]
//Background and Video events
0,0,"behgeh3.jpg",0,0
//Break Periods
2,91034,93563
2,200599,205954
//Storyboard Layer 0 (Background)
//Storyboard Layer 1 (Fail)
//Storyboard Layer 2 (Pass)
//Storyboard Layer 3 (Foreground)
//Storyboard Layer 4 (Overlay)
//Storyboard Sound Samples

[TimingPoints]
400,434.782608695652,4,2,1,50,1,0
400,-100,4,2,1,50,0,0
1160,-100,4,2,2,50,0,0
1378,-100,4,2,1,50,0,0
2899,-100,4,2,2,50,0,0
3117,-100,4,2,1,50,0,0
3443,-100,4,2,1,40,0,0
3878,-100,4,2,1,50,0,0
4639,-100,4,2,2,50,0,0
4856,-100,4,2,1,50,0,0
5617,-200,4,2,1,50,0,0
6378,-200,4,2,2,50,0,0
6595,-200,4,2,1,60,0,0
7356,-100,4,2,1,60,0,0
11269,-100,4,2,1,60,0,0
14313,-100,4,2,1,70,0,0
19095,-57.1428571428571,4,2,1,70,0,0
21160,-57.1428571428571,4,2,1,5,0,0
21269,-133.333333333333,4,2,1,55,0,0
27356,-83.3333333333333,4,2,1,55,0,0
28226,-100,4,2,1,55,0,0
31704,-100,4,2,1,70,0,0
34747,-57.1428571428571,4,2,1,70,0,0
35182,-133.333333333333,4,2,1,80,0,0
35291,-133.333333333333,4,2,1,50,0,0
35943,-133.333333333333,4,2,2,50,0,0
36160,-133.333333333333,4,2,1,50,0,0
37139,-83.3333333333333,4,2,1,50,0,0
37736,-83.3333333333333,4,2,2,50,0,0
37845,-83.3333333333333,4,2,1,50,0,0
38660,-133.333333333333,4,2,1,50,0,0
38932,-133.333333333333,4,2,1,5,0,0
39041,-133.333333333333,4,2,1,50,0,0
39476,-133.333333333333,4,2,2,50,0,0
39584,-133.333333333333,4,2,1,50,0,0
40617,-100,4,2,1,50,0,0
41269,-83.3333333333333,4,2,1,70,0,0
42139,-100,4,2,1,60,0,0
47139,-100,4,2,1,70,0,0
49204,-100,4,2,1,60,0,0
50834,-83.3333333333333,4,2,1,80,0,1
64313,-83.3333333333333,4,2,1,80,0,0
64747,-83.3333333333333,4,2,1,80,0,1
80345,-83.3333333333333,4,2,1,70,0,1
80399,-83.3333333333333,4,2,1,70,0,1
82247,-133.333333333333,4,2,1,50,0,0
83878,-66.6666666666667,4,2,1,80,0,0
85563,-66.6666666666667,4,2,1,50,0,0
86486,-66.6666666666667,4,2,1,80,0,0
90834,-100,4,2,1,60,0,0
94313,-100,4,2,1,50,0,0
95834,-83.3333333333333,4,2,1,50,0,0
97791,-100,4,2,1,50,0,0
99095,-57.1428571428571,4,2,1,50,0,0
99476,-57.1428571428571,4,2,1,30,0,0
99639,-57.1428571428571,4,2,1,40,0,0
99856,-57.1428571428571,4,2,1,50,0,0
100073,-57.1428571428571,4,2,1,55,0,0
100291,-57.1428571428571,4,2,1,60,0,0
100508,-57.1428571428571,4,2,1,65,0,0
100726,-57.1428571428571,4,2,1,70,0,0
100943,-57.1428571428571,4,2,1,75,0,0
101269,-133.333333333333,4,2,1,70,0,0
101378,-133.333333333333,4,2,1,50,0,0
108226,-100,4,2,1,60,0,0
111649,-100,4,2,1,70,0,0
114747,-57.1428571428571,4,2,1,70,0,0
115182,-133.333333333333,4,2,1,70,0,0
115617,-133.333333333333,4,2,1,60,0,0
115834,-100,4,2,1,60,0,0
118660,-133.333333333333,4,2,1,60,0,0
119313,-100,4,2,1,60,0,0
121269,-83.3333333333333,4,2,1,70,0,0
122139,-133.333333333333,4,2,1,60,0,0
122682,-100,4,2,1,60,0,0
130834,-83.3333333333333,4,2,1,80,0,1
144313,-83.3333333333333,4,2,1,80,0,0
144747,-83.3333333333333,4,2,1,80,0,1
160345,-83.3333333333333,4,2,1,70,0,1
160399,-83.3333333333333,4,2,1,70,0,1
162247,-133.333333333333,4,2,1,50,0,0
163878,-83.3333333333333,4,2,1,80,0,0
165563,-83.3333333333333,4,2,1,50,0,0
166486,-83.3333333333333,4,2,1,80,0,0
167302,-100,4,2,1,80,0,0
173660,-100,4,2,1,70,0,0
175073,-76.9230769230769,4,2,1,70,0,0
175182,-76.9230769230769,4,2,1,60,0,0
175399,-76.9230769230769,4,2,2,30,0,0
175726,-100,4,2,2,30,0,0
175834,-100,4,2,1,70,0,0
176595,-76.9230769230769,4,2,1,70,0,0
177791,-100,4,2,1,70,0,0
178552,-76.9230769230769,4,2,1,70,0,0
179095,-100,4,2,1,70,0,0
180182,-100,4,2,1,60,0,0
180508,-76.9230769230769,4,2,1,60,0,0
181269,-333.333333333333,4,2,1,60,0,0
181323,-333.333333333333,4,2,2,40,0,0
182030,-76.9230769230769,4,2,1,60,0,0
184149,-76.9230769230769,4,2,1,30,0,0
184204,-76.9230769230769,4,2,1,60,0,0
184258,-76.9230769230769,4,2,1,30,0,0
184313,-76.9230769230769,4,2,1,60,0,0
184367,-76.9230769230769,4,2,1,30,0,0
184422,-76.9230769230769,4,2,1,60,0,0
184476,-76.9230769230769,4,2,1,30,0,0
184531,-76.9230769230769,4,2,1,60,0,0
184584,-76.9230769230769,4,2,1,30,0,0
184639,-76.9230769230769,4,2,1,60,0,0
184693,-76.9230769230769,4,2,1,30,0,0
184747,-333.333333333333,4,2,1,60,0,0
185508,-76.9230769230769,4,2,1,60,0,0
188226,-333.333333333333,4,2,1,60,0,0
189313,-76.9230769230769,4,2,1,60,0,0
191106,-76.9230769230769,4,2,1,30,0,0
191161,-76.9230769230769,4,2,1,60,0,0
191215,-76.9230769230769,4,2,1,30,0,0
191270,-76.9230769230769,4,2,1,60,0,0
191323,-76.9230769230769,4,2,1,30,0,0
191378,-76.9230769230769,4,2,1,60,0,0
191432,-76.9230769230769,4,2,1,30,0,0
191487,-76.9230769230769,4,2,1,60,0,0
191541,-76.9230769230769,4,2,1,30,0,0
191596,-76.9230769230769,4,2,1,60,0,0
191649,-76.9230769230769,4,2,1,30,0,0
191704,-76.9230769230769,4,2,1,70,0,0
194584,-76.9230769230769,4,2,1,20,0,0
194639,-76.9230769230769,4,2,1,70,0,0
194693,-76.9230769230769,4,2,1,20,0,0
194748,-76.9230769230769,4,2,1,70,0,0
194802,-76.9230769230769,4,2,1,20,0,0
194857,-76.9230769230769,4,2,1,70,0,0
194910,-76.9230769230769,4,2,1,20,0,0
194965,-76.9230769230769,4,2,1,70,0,0
195019,-76.9230769230769,4,2,1,20,0,0
195074,-76.9230769230769,4,2,1,70,0,0
195128,-76.9230769230769,4,2,1,20,0,0
195182,-76.9230769230769,4,2,1,60,0,0
206704,-100,4,2,1,60,0,0
210834,-100,4,2,1,70,0,0
212573,-100,4,2,1,70,0,1
213280,-100,4,2,1,5,0,1
213443,-100,4,2,1,70,0,1
213660,-66.6666666666667,4,2,1,70,0,1
214313,-66.6666666666667,4,2,1,50,0,0
214747,-83.3333333333333,4,2,1,80,0,1
229910,-83.3333333333333,4,2,1,70,0,1
229965,-83.3333333333333,4,2,1,70,0,1
231813,-133.333333333333,4,2,1,50,0,0
233443,-76.9230769230769,4,2,1,80,0,0
235073,-76.9230769230769,4,2,1,50,0,0
236052,-76.9230769230769,4,2,1,80,0,0
236921,-100,4,2,1,60,0,0
243878,-100,4,2,1,70,0,0
245617,-100,4,2,1,70,0,0
248660,-57.1428571428571,4,2,1,70,0,0
250780,-57.1428571428571,4,2,1,5,0,0
250834,-133.333333333333,4,2,1,30,0,0
251649,-133.333333333333,4,2,2,30,0,0
251758,-133.333333333333,4,2,1,30,0,0
253389,-133.333333333333,4,2,2,30,0,0
253497,-133.333333333333,4,2,1,30,0,0
255128,-133.333333333333,4,2,2,30,0,0
255236,-133.333333333333,4,2,1,30,0,0
256867,-133.333333333333,4,2,2,30,0,0
256976,-133.333333333333,4,2,1,30,0,0

[Colours]
Combo1 : 255,21,28
Combo2 : 255,153,51
Combo3 : 53,72,244
Combo4 : 199,36,177
Combo5 : 107,231,237

[HitObjects]
134,139,400,22,0,P|141:195|142:256,2,85,0|0|2,1:0|0:0|0:0,0:0:0:0:
56,208,1052,1,0,0:0:0:0:
56,208,1269,1,8,0:0:0:0:
117,309,1486,2,0,P|158:257|233:253,1,127.5,8|8,3:3|3:0,0:0:0:0:
427,348,2139,54,0,L|438:278,1,42.5,2|0,1:1|0:0,0:0:0:0:
417,165,2356,2,0,L|423:206,1,42.5,2|2,0:0|0:0,0:0:0:0:
356,269,2573,2,0,L|284:276,1,42.5,2|0,3:2|0:0,0:0:0:0:
281,349,2791,2,0,L|157:362,1,85,2|8,0:0|0:0,0:0:0:0:
27,215,3226,53,8,1:3:0:0:
144,219,3443,1,2,0:1:0:0:
84,112,3660,1,2,0:1:0:0:
150,303,3878,54,0,P|155:240|159:119,1,170,0|0,1:0|0:0,0:0:0:0:
55,37,4530,1,0,0:0:0:0:
55,37,4639,1,0,0:0:0:0:
55,37,4747,1,8,0:0:0:0:
158,127,4965,2,0,P|217:121|305:127,1,127.5,8|8,3:3|3:0,0:0:0:0:
432,287,5617,22,2,B|438:232|342:268|390:358|436:374|436:375,1,170,2|8,0:0|0:0,0:0:0:0:
257,354,6704,53,8,1:3:0:0:
258,56,7030,1,8,1:3:0:0:
37,198,7356,38,0,P|89:193|134:192,1,85,4|0,0:0|3:0,0:0:0:0:
151,170,7682,1,0,3:3:0:0:
151,170,7791,2,0,P|203:165|248:164,1,85,2|0,0:0|3:0,0:0:0:0:
421,156,8226,1,2,0:0:0:0:
420,276,8443,1,2,0:0:0:0:
399,141,8660,1,2,3:0:0:0:
436,295,8878,1,2,0:0:0:0:
436,295,8986,1,0,0:0:0:0:
436,295,9095,54,0,P|365:290|303:290,1,127.5,6|0,1:3|3:0,0:0:0:0:
287,316,9530,1,2,0:0:0:0:
145,67,9747,2,0,P|147:127|145:212,1,127.5,2|0,0:0|0:0,0:0:0:0:
122,225,10182,1,0,0:0:0:0:
270,96,10399,1,2,0:0:0:0:
270,96,10617,1,2,3:0:0:0:
242,318,10834,22,0,L|136:313,1,85,4|0,0:0|3:0,0:0:0:0:
157,313,11160,1,0,0:0:0:0:
157,313,11269,1,2,0:0:0:0:
53,307,11486,1,2,3:0:0:0:
218,226,11704,1,2,0:0:0:0:
64,102,11921,1,2,3:2:0:0:
64,102,12139,2,0,L|81:167,1,42.5,2|0,1:2|0:0,0:0:0:0:
133,227,12356,1,2,3:0:0:0:
133,227,12465,1,0,3:0:0:0:
133,227,12573,54,0,L|149:134,1,85,4|0,1:3|3:0,0:0:0:0:
139,341,13008,1,2,0:0:0:0:
279,152,13226,2,0,L|263:245,1,85,2|0,3:2|0:0,0:0:0:0:
303,32,13660,1,2,3:2:0:0:
168,59,13878,1,2,1:2:0:0:
151,50,13986,1,0,0:0:0:0:
119,60,14095,1,0,3:0:0:0:
102,51,14203,1,0,3:0:0:0:
66,41,14313,53,12,3:2:0:0:
152,153,14530,1,8,3:2:0:0:
30,192,14747,1,10,3:2:0:0:
111,307,14965,1,8,3:2:0:0:
277,142,15182,21,10,3:2:0:0:
276,315,15399,1,10,3:2:0:0:
394,172,15616,1,10,1:2:0:0:
234,229,15834,1,10,3:2:0:0:
318,56,16052,37,14,3:2:0:0:
335,250,16269,1,8,3:2:0:0:
92,105,16486,1,10,3:2:0:0:
274,162,16704,1,10,3:2:0:0:
175,178,16921,21,10,3:2:0:0:
335,250,17138,1,8,3:2:0:0:
211,98,17355,1,10,3:2:0:0:
166,296,17573,1,8,3:2:0:0:
340,89,17791,5,12,3:2:0:0:
357,81,17899,1,8,3:2:0:0:
399,86,18008,1,8,3:0:0:0:
416,78,18116,1,8,3:0:0:0:
411,31,18226,5,10,3:2:0:0:
428,23,18334,1,8,3:2:0:0:
470,28,18443,1,8,3:0:0:0:
487,20,18551,1,8,3:0:0:0:
510,44,18660,53,8,3:2:0:0:
502,83,18769,1,2,3:0:0:0:
469,116,18878,1,8,3:2:0:0:
461,155,18987,1,2,3:0:0:0:
493,196,19095,6,0,L|485:241,8,37.1875003546476,2|8|8|8|8|8|0|0|2,1:2|3:2|3:2|3:3|3:2|3:2|3:0|0:0|3:2,3:0:0:0:
256,192,19584,12,4,21269,0:0:0:0:
258,190,21486,5,2,0:0:0:0:
258,190,21704,1,8,0:3:0:0:
38,114,22030,1,8,0:3:0:0:
38,114,22139,1,8,0:3:0:0:
154,65,22356,1,2,0:0:0:0:
131,188,22573,1,8,0:3:0:0:
131,188,22791,1,0,0:0:0:0:
169,302,23008,21,10,0:3:0:0:
169,302,23226,1,2,0:0:0:0:
373,191,23443,1,8,0:3:0:0:
373,191,23769,1,8,0:3:0:0:
373,191,23878,1,8,0:3:0:0:
492,215,24095,1,2,0:0:0:0:
442,118,24313,1,8,0:3:0:0:
466,0,24530,1,2,0:0:0:0:
337,37,24747,37,10,1:3:0:0:
337,37,24856,2,0,L|262:25,1,63.7500024318696,0|2,0:3|0:0,0:0:0:0:
252,22,25182,1,8,0:3:0:0:
49,211,25508,1,8,0:3:0:0:
49,211,25617,1,8,0:3:0:0:
138,160,25834,1,2,0:0:0:0:
237,118,26052,1,8,0:3:0:0:
237,118,26160,1,0,0:0:0:0:
237,118,26269,1,2,0:0:0:0:
138,57,26486,22,0,P|80:81|36:96,2,95.6250036478044,10|0|2,1:3|0:0|0:0,0:0:0:0:
128,173,27356,6,0,L|123:231,1,50.9999984436036,8|0,1:3|0:0,0:0:0:0:
222,308,27573,2,0,L|217:366,1,50.9999984436036,2|0,0:0|0:0,0:0:0:0:
114,355,27791,2,0,L|119:297,1,50.9999984436036,10|0,1:3|0:0,0:0:0:0:
213,232,28008,2,0,L|281:227,1,50.9999984436036,2|0,0:0|3:0,0:0:0:0:
408,326,28226,22,0,L|323:332,1,85,4|2,0:0|3:2,0:0:0:0:
323,332,28552,1,0,3:0:0:0:
323,332,28660,2,0,L|340:246,1,85,8|0,3:0|0:0,0:0:0:0:
353,197,28986,1,8,0:3:0:0:
353,197,29095,1,8,3:3:0:0:
283,70,29313,1,2,0:0:0:0:
401,4,29530,1,8,0:3:0:0:
471,131,29748,1,2,3:2:0:0:
471,131,29856,1,0,3:0:0:0:
471,131,29965,21,10,0:3:0:0:
371,90,30182,1,2,3:2:0:0:
372,330,30399,2,0,L|380:240,1,85,8|0,0:3|0:0,0:0:0:0:
379,245,30726,1,8,0:3:0:0:
379,245,30834,1,10,0:3:0:0:
256,174,31052,1,2,3:2:0:0:
194,303,31269,2,0,L|142:323,1,42.5,8|0,0:3|0:0,0:0:0:0:
55,303,31486,2,0,L|3:323,1,42.5,2|0,3:2|3:3,0:0:0:0:
96,373,31704,21,12,3:2:0:0:
113,240,31921,1,10,3:2:0:0:
29,57,32139,1,8,3:2:0:0:
12,190,32356,1,8,3:2:0:0:
165,124,32573,21,10,3:2:0:0:
314,164,32791,1,8,3:2:0:0:
436,74,33008,1,8,3:2:0:0:
287,34,33226,1,10,3:2:0:0:
249,230,33443,21,14,3:2:0:0:
246,253,33552,1,0,1:0:0:0:
249,278,33660,1,10,3:2:0:0:
260,301,33769,1,0,1:0:0:0:
298,334,33878,5,10,1:3:0:0:
307,307,33987,1,8,3:2:0:0:
325,283,34095,1,2,1:2:0:0:
352,266,34204,1,10,3:2:0:0:
394,251,34313,53,8,1:3:0:0:
386,283,34422,1,0,1:0:0:0:
390,319,34530,1,2,1:2:0:0:
408,353,34639,1,2,1:2:0:0:
453,364,34747,6,0,L|495:349,6,37.1875003546476,0|0|0|0|0|0|0,1:0|1:0|1:0|1:0|1:0|1:0|1:0,1:0:0:0:
455,344,35182,6,0,P|454:279|487:150,1,191.250007295609,4|2,0:0|0:0,0:0:0:0:
352,45,36052,1,8,0:0:0:0:
352,45,36269,2,0,P|358:78|383:136,2,95.6250036478044,8|8|8,3:0|3:0|3:0,0:0:0:0:
366,211,37139,38,2,B|344:208|327:191|327:191|299:216|264:197|264:197|230:239|184:238,1,203.999993774414,0|0,0:2|0:2,0:2:0:0:
67,222,37791,1,8,0:0:0:0:
67,222,38008,1,8,0:3:0:0:
115,316,38226,2,0,L|110:368,2,50.9999984436036,0|8|2,3:0|0:3|0:0,0:0:0:0:
177,141,38660,22,0,P|204:183|225:322,1,191.250007295609,2|0,0:0|3:0,0:0:0:0:
133,254,39530,1,8,0:0:0:0:
133,254,39747,1,8,3:0:0:0:
318,212,40073,1,0,3:0:0:0:
511,175,40399,1,8,3:0:0:0:
511,175,40617,38,2,B|485:129|446:125|446:125|431:153|354:144,1,170,2|0,0:0|0:0,0:0:0:0:
141,42,41269,2,0,P|159:82|169:145,1,101.999996887207,8|8,0:0|3:0,0:0:0:0:
180,220,41595,2,0,P|197:180|248:150,1,101.999996887207,8|8,0:0|3:3,0:0:0:0:
309,200,41921,1,8,0:0:0:0:
226,334,42139,38,0,L|165:326,3,42.5,12|0|2|0,3:2|2:2|3:2|2:2,3:0:0:0:
94,340,42573,1,0,3:0:0:0:
94,340,42682,1,0,3:0:0:0:
94,340,42791,2,0,L|102:289,1,42.5,8|0,1:3|3:0,0:0:0:0:
71,215,43008,2,0,L|42:221,3,28.3333333333333,8|0|0|0,1:2|3:0|3:2|3:0,3:0:0:0:
114,149,43334,1,0,3:0:0:0:
114,149,43443,2,0,L|185:137,1,42.5,2|0,3:2|2:0,3:0:0:0:
249,70,43660,38,0,P|238:124|224:168,1,85,8|2,3:0|3:0,3:0:0:0:
348,350,44095,2,0,P|337:303|337:253,1,85,8|2,3:2|3:2,3:0:0:0:
476,129,44530,1,0,1:0:0:0:
476,129,44639,1,0,3:0:0:0:
476,129,44747,2,0,L|510:133,3,28.3333333333333,8|0|0|0,1:2|3:0|3:0|3:0,3:0:0:0:
399,78,45073,1,0,3:2:0:0:
399,78,45182,2,0,L|365:74,3,28.3333333333333,2|0|0|2,3:0|3:0|3:0|3:2,3:0:0:0:
398,165,45508,1,0,3:2:0:0:
398,165,45617,22,0,L|405:264,1,85,8|0,3:0|3:0,3:0:0:0:
297,363,46052,1,0,3:0:0:0:
303,202,46269,1,0,1:0:0:0:
303,202,46378,1,0,1:0:0:0:
303,202,46486,2,0,L|212:213,1,85,8|2,3:2|3:2,3:0:0:0:
61,112,46921,1,2,3:2:0:0:
90,115,47030,1,0,3:0:0:0:
108,141,47139,54,0,L|101:205,1,42.5,8|0,3:0|3:0,0:0:0:0:
156,269,47356,2,0,L|149:333,1,42.5,2|0,3:0|3:0,0:0:0:0:
51,360,47573,2,0,P|48:300|36:224,1,127.5,14|8,3:0|3:0,0:0:0:0:
103,183,48008,1,8,3:0:0:0:
103,183,48117,2,0,P|110:127|122:89,1,85,8|8,3:0|3:2,0:0:0:0:
77,32,48443,1,8,3:0:0:0:
33,56,48552,1,8,0:3:0:0:
236,51,48769,2,0,L|296:45,1,42.5,8|8,3:0|3:0,0:0:0:0:
354,34,48986,1,0,1:0:0:0:
346,81,49095,37,4,0:0:0:0:
0,203,49530,1,8,3:0:0:0:
49,185,49639,1,8,3:0:0:0:
99,170,49747,1,4,3:2:0:0:
410,76,50182,1,12,0:2:0:0:
51,109,50617,5,2,0:0:0:0:
181,358,50834,2,2,P|201:308|233:267,1,101.999996887207,4|0,0:0|3:0,0:0:0:0:
230,269,51160,1,0,3:0:0:0:
230,269,51269,1,8,3:2:0:0:
94,314,51486,1,2,0:0:0:0:
311,364,51704,1,2,1:2:0:0:
145,217,51921,2,0,P|79:223|15:221,1,101.999996887207,2|8,0:0|1:2,0:0:0:0:
235,77,52356,1,2,0:0:0:0:
235,77,52465,1,0,0:0:0:0:
235,77,52573,22,2,B|314:77|304:116|412:104,1,152.999995330811,2|0,1:2|3:0,0:0:0:0:
425,78,53008,1,8,0:0:0:0:
280,352,53226,2,2,P|286:299|315:238,1,101.999996887207,2|0,0:0|1:0,0:0:0:0:
91,54,53660,2,2,P|110:103|113:171,1,101.999996887207,2|8,0:0|0:0,0:0:0:0:
104,319,54095,37,2,0:0:0:0:
261,77,54313,1,2,1:2:0:0:
220,86,54421,1,0,0:0:0:0:
195,120,54530,1,0,3:0:0:0:
190,167,54639,1,0,3:0:0:0:
216,207,54747,1,8,3:2:0:0:
424,320,54965,1,2,0:0:0:0:
331,106,55182,1,2,1:2:0:0:
314,343,55399,2,0,P|306:281|291:218,1,101.999996887207,2|8,0:0|0:0,0:0:0:0:
485,35,55834,21,2,0:0:0:0:
419,173,56052,1,2,1:2:0:0:
419,173,56160,1,0,3:0:0:0:
419,173,56269,2,0,L|430:105,1,50.9999984436036,0|0,3:0|3:0,0:0:0:0:
387,34,56486,1,10,3:2:0:0:
254,243,56704,1,2,0:2:0:0:
74,116,56921,1,0,1:0:0:0:
74,116,57030,2,0,P|141:105|201:109,1,101.999996887207,8|0,1:2|3:0,0:0:0:0:
242,151,57356,2,0,L|360:147,1,101.999996887207,8|2,0:0|3:2,0:0:0:0:
33,24,57791,37,4,1:2:0:0:
216,45,58008,1,0,3:0:0:0:
216,45,58117,1,0,3:0:0:0:
216,45,58226,1,10,3:2:0:0:
106,215,58443,1,2,3:2:0:0:
114,84,58660,1,0,1:2:0:0:
205,340,58878,2,0,P|197:270|195:220,1,101.999996887207,2|8,3:0|0:0,0:0:0:0:
462,153,59313,21,0,3:0:0:0:
446,211,59421,1,0,3:0:0:0:
428,266,59530,1,4,3:2:0:0:
350,123,59747,1,2,0:0:0:0:
304,326,59965,1,8,3:2:0:0:
113,163,60182,1,0,0:0:0:0:
132,358,60399,1,0,1:0:0:0:
296,188,60617,1,2,0:0:0:0:
231,346,60834,2,0,P|288:331|399:331,1,152.999995330811,8|0,0:0|3:0,0:0:0:0:
464,347,61269,38,0,B|453:290|453:290|461:227,1,101.999996887207,6|0,1:2|3:0,0:0:0:0:
501,163,61595,2,0,L|383:169,1,101.999996887207,2|0,0:0|3:0,0:0:0:0:
317,173,61921,1,2,0:0:0:0:
191,48,62139,1,0,1:0:0:0:
191,48,62247,2,0,L|312:41,1,101.999996887207,2|0,0:0|3:0,0:0:0:0:
375,40,62573,1,10,0:0:0:0:
207,185,62791,1,2,3:0:0:0:
258,357,63008,53,6,1:1:0:0:
258,357,63117,1,0,1:0:0:0:
448,194,63334,21,2,1:1:0:0:
448,194,63443,1,0,1:0:0:0:
258,27,63660,37,2,1:1:0:0:
258,27,63769,2,0,B|263:73|263:73|252:89|252:89|257:145,1,101.999996887207,0|0,1:0|1:0,0:0:0:0:
241,204,64095,22,0,L|163:192,1,50.9999984436036,4|0,1:0|0:0,0:0:0:0:
60,223,64313,2,0,L|135:238,1,50.9999984436036,2|0,1:0|1:0,0:0:0:0:
299,294,64530,2,0,L|237:305,1,50.9999984436036,2|0,1:2|0:0,0:0:0:0:
34,317,64747,54,2,B|83:293|82:339|162:319,1,101.999996887207,4|2,1:2|3:0,0:0:0:0:
132,323,65073,1,0,3:0:0:0:
132,323,65182,1,8,3:2:0:0:
314,176,65399,1,2,0:0:0:0:
230,262,65617,1,2,1:2:0:0:
202,52,65834,2,2,P|257:54|328:51,1,101.999996887207,2|8,0:0|0:0,0:0:0:0:
498,238,66269,21,2,3:2:0:0:
498,238,66378,1,0,0:0:0:0:
498,238,66486,2,2,L|416:217,1,50.9999984436036,2|0,1:2|0:0,0:0:0:0:
382,161,66704,2,0,L|359:207,1,50.9999984436036,0|0,0:0|3:0,0:0:0:0:
310,318,66921,1,10,3:2:0:0:
256,88,67139,2,2,P|261:158|261:211,1,101.999996887207,2|0,3:2|1:0,0:0:0:0:
115,343,67573,2,2,P|169:336|239:341,1,101.999996887207,2|8,0:0|0:0,0:0:0:0:
425,358,68008,1,2,3:2:0:0:
425,358,68117,1,0,3:0:0:0:
425,358,68226,6,0,P|417:282|324:243,1,152.999995330811,2|2,1:2|3:2,0:0:0:0:
297,178,68660,1,8,3:2:0:0:
284,319,68878,1,2,3:2:0:0:
393,159,69095,1,2,1:2:0:0:
209,221,69313,2,2,P|162:225|101:220,1,101.999996887207,2|8,3:2|0:0,0:0:0:0:
50,39,69747,1,2,3:2:0:0:
263,95,69965,21,2,1:0:0:0:
224,127,70073,1,0,0:0:0:0:
173,125,70182,1,0,0:0:0:0:
135,90,70291,1,0,3:0:0:0:
131,43,70399,1,10,0:0:0:0:
296,21,70617,1,2,0:0:0:0:
278,198,70834,1,0,1:0:0:0:
278,198,70943,2,0,P|350:187|425:204,1,101.999996887207,0|0,3:1|0:0,0:0:0:0:
456,186,71269,2,0,L|449:247,1,50.9999984436036,8|0,0:0|0:0,0:0:0:0:
345,325,71486,2,0,L|352:264,1,50.9999984436036,0|0,3:0|3:0,0:0:0:0:
263,112,71704,53,4,1:2:0:0:
173,306,71921,37,2,0:0:0:0:
173,306,72030,1,0,0:0:0:0:
173,306,72139,1,8,0:0:0:0:
250,195,72356,1,2,3:2:0:0:
269,327,72573,1,0,1:0:0:0:
190,72,72791,2,2,P|187:125|172:180,1,101.999996887207,2|8,0:0|0:0,0:0:0:0:
42,351,73226,5,0,3:0:0:0:
73,312,73334,1,0,3:0:0:0:
104,271,73443,1,4,1:2:0:0:
106,57,73660,1,2,3:2:0:0:
285,232,73878,1,8,2:0:0:0:
59,193,74095,2,2,B|139:155|147:221|253:177,1,152.999995330811,2|0,0:0|3:0,0:0:0:0:
281,131,74530,2,0,P|329:139|407:139,1,101.999996887207,2|8,3:2|0:0,0:0:0:0:
491,355,74965,1,2,0:0:0:0:
491,355,75073,1,0,0:0:0:0:
491,355,75182,22,0,P|477:295|483:230,1,101.999996887207,6|0,1:0|3:0,0:0:0:0:
283,329,75617,2,0,L|160:326,1,101.999996887207,8|2,3:2|0:0,0:0:0:0:
84,377,75943,1,0,0:0:0:0:
84,377,76052,2,0,P|100:319|93:238,1,101.999996887207,0|0,1:0|0:0,0:0:0:0:
378,52,76486,1,2,1:0:0:0:
134,52,76704,1,2,0:0:0:0:
376,270,76921,53,4,1:2:0:0:
386,289,77030,1,0,1:0:0:0:
136,270,77247,21,2,1:2:0:0:
126,289,77356,1,0,1:0:0:0:
256,50,77573,37,2,1:2:0:0:
256,68,77682,1,0,1:0:0:0:
260,330,77899,21,0,1:0:0:0:
260,330,78008,1,0,1:0:0:0:
155,64,78226,37,2,1:2:0:0:
167,114,78334,1,0,1:0:0:0:
180,164,78443,1,2,1:2:0:0:
495,175,78660,5,8,3:2:0:0:
429,238,78878,1,8,3:2:0:0:
359,125,79095,1,8,3:2:0:0:
277,253,79313,1,8,3:2:0:0:
231,94,79530,1,10,3:2:0:0:
140,265,79747,1,8,3:2:0:0:
57,25,79965,1,8,3:2:0:0:
4,276,80182,1,8,3:2:0:0:
40,166,80399,53,2,1:0:0:0:
80,178,80508,1,8,3:2:0:0:
107,216,80617,1,0,1:0:0:0:
147,204,80726,1,8,3:2:0:0:
181,172,80834,5,2,1:2:0:0:
223,183,80943,1,2,1:3:0:0:
258,209,81052,1,0,1:0:0:0:
300,198,81161,1,2,1:3:0:0:
342,182,81269,53,2,1:0:0:0:
332,230,81378,1,8,1:3:0:0:
475,70,81595,1,2,1:0:0:0:
465,118,81704,1,8,1:3:0:0:
452,362,81921,1,2,1:0:0:0:
436,293,82030,1,2,1:2:0:0:
416,222,82139,1,0,1:0:0:0:
239,26,83008,6,0,P|251:92|247:178,1,127.500004863739,2|0,0:0|0:0,0:0:0:0:
96,362,83878,6,0,P|68:293|62:226,1,127.500004863739,6|0,1:0|0:0,0:0:0:0:
148,217,84204,2,0,P|176:286|182:353,1,127.500004863739,2|0,1:0|0:0,0:0:0:0:
257,374,84530,1,8,0:0:0:0:
416,362,84747,38,0,P|444:293|450:226,1,127.500004863739,6|0,1:0|0:0,0:0:0:0:
364,217,85073,2,0,P|336:286|330:353,1,127.500004863739,2|0,1:0|0:0,0:0:0:0:
257,374,85399,1,8,0:0:0:0:
257,143,85617,22,8,L|257:103,16,31.8750012159348,2|8|8|8|8|8|2|8|8|8|8|8|2|8|8|8|4,3:1|3:0|3:0|3:0|3:0|3:0|3:1|3:0|3:0|3:0|3:0|3:0|3:1|3:0|3:0|3:0|3:2,3:0:0:0:
257,374,87356,1,4,0:0:0:0:
256,192,87410,12,2,90834,0:0:0:0:
97,129,94313,54,0,L|148:125,1,42.5,2|0,3:2|3:0,0:0:0:0:
208,82,94530,2,0,L|259:78,1,42.5,0|0,3:0|0:0,0:0:0:0:
334,24,94747,2,0,B|327:65|327:65|333:119,1,85,8|0,0:0|3:0,0:0:0:0:
462,229,95182,2,0,L|460:183,1,42.5,2|0,0:0|3:0,0:0:0:0:
459,103,95399,1,0,0:0:0:0:
459,103,95508,1,0,0:0:0:0:
459,103,95617,1,8,3:2:0:0:
386,302,95834,54,2,B|344:288|344:288|283:317,1,101.999996887207,2|8,0:0|3:0,0:3:0:0:
214,347,96160,1,0,3:0:0:0:
214,347,96269,2,0,L|222:242,1,101.999996887207,2|8,3:2|0:0,0:0:0:0:
236,51,96704,1,2,3:2:0:0:
136,227,96921,1,10,3:0:0:0:
136,227,97030,1,8,0:0:0:0:
136,227,97139,2,0,L|70:215,1,50.9999984436036,0|0,1:0|0:0,0:0:0:0:
116,114,97356,2,0,L|231:133,1,101.999996887207,8|2,1:2|3:0,0:0:0:0:
449,178,97791,5,8,1:3:0:0:
422,197,97899,1,0,1:0:0:0:
393,242,98008,1,8,1:2:0:0:
363,228,98116,1,2,1:3:0:0:
315,240,98226,53,10,1:2:0:0:
310,185,98334,1,0,1:0:0:0:
289,140,98443,1,8,1:2:0:0:
316,120,98551,1,0,1:0:0:0:
348,79,98660,5,10,1:2:0:0:
378,92,98768,1,2,1:3:0:0:
427,95,98878,1,2,1:2:0:0:
430,127,98986,1,2,1:3:0:0:
460,178,99095,54,0,L|452:218,6,37.1875003546476,0|0|0|0|0|0|0,1:0|1:0|1:0|1:0|1:0|1:0|1:0,1:0:0:0:
466,287,99530,21,2,0:0:0:0:
466,287,99747,1,2,0:0:0:0:
359,239,99965,1,0,0:0:0:0:
359,239,100182,1,2,0:0:0:0:
174,360,100399,1,0,0:0:0:0:
238,275,100617,1,0,0:0:0:0:
110,211,100834,1,2,0:0:0:0:
242,69,101052,1,2,0:0:0:0:
69,42,101269,22,4,L|76:119,1,63.7500024318696,0|0,0:0|3:0,0:0:0:0:
112,130,101595,1,2,0:0:0:0:
112,130,101704,2,0,L|119:207,1,63.7500024318696,8|0,0:3|3:0,0:0:0:0:
76,302,102139,1,8,0:3:0:0:
196,267,102356,1,2,0:0:0:0:
302,147,102573,1,8,3:0:0:0:
302,147,102682,1,0,3:0:0:0:
302,147,102791,1,2,3:2:0:0:
302,147,102899,1,0,3:0:0:0:
302,147,103008,38,0,L|218:149,1,63.7500024318696,8|0,0:3|3:0,0:0:0:0:
302,227,103334,2,0,L|389:226,1,63.7500024318696,2|0,0:0|3:0,0:0:0:0:
402,153,103660,1,2,0:0:0:0:
429,338,103878,1,8,0:3:0:0:
429,338,104095,1,2,0:0:0:0:
464,236,104313,1,10,3:3:0:0:
464,236,104421,1,0,3:0:0:0:
464,236,104530,1,2,3:2:0:0:
464,236,104639,1,0,3:0:0:0:
464,236,104747,22,0,L|450:120,2,95.6250036478044,8|2|2,0:3|0:0|3:2,0:0:0:0:
365,150,105617,2,0,L|373:97,1,31.8750012159348,8|0,3:3|3:0,0:0:0:0:
386,40,105834,1,2,0:0:0:0:
274,87,106052,1,8,0:3:0:0:
265,86,106160,1,0,3:0:0:0:
256,85,106269,1,2,3:2:0:0:
247,84,106378,1,0,3:0:0:0:
238,83,106486,37,8,3:0:0:0:
136,39,106704,1,2,3:2:0:0:
104,156,106921,1,8,3:0:0:0:
408,188,107247,1,0,0:0:0:0:
408,188,107356,2,0,L|352:183,1,31.8750012159348,8|0,0:3|0:0,0:0:0:0:
300,247,107573,2,0,L|244:242,1,31.8750012159348,2|0,3:0|0:0,0:0:0:0:
106,285,107791,2,0,L|162:280,1,31.8750012159348,8|0,0:3|0:0,0:0:0:0:
214,344,108008,2,0,L|270:339,1,31.8750012159348,2|0,3:0|3:0,0:0:0:0:
366,375,108226,6,2,P|351:332|373:257,1,85,2|0,1:2|3:0,0:0:0:0:
434,235,108552,2,2,P|449:278|427:353,1,85,2|0,1:2|0:0,0:0:0:0:
359,214,108878,2,0,P|344:171|366:96,1,85,2|8,1:2|3:3,0:0:0:0:
254,346,109313,1,2,1:2:0:0:
275,172,109530,1,8,1:2:0:0:
233,187,109639,1,0,3:0:0:0:
191,202,109747,1,2,3:2:0:0:
149,217,109856,1,0,3:0:0:0:
107,232,109965,6,0,L|74:131,1,85,2|0,1:2|3:0,0:0:0:0:
163,55,110291,2,0,L|153:156,1,85,2|0,1:2|0:0,0:0:0:0:
204,285,110617,2,0,L|194:386,1,85,2|8,1:2|3:0,0:0:0:0:
355,117,111052,1,2,1:2:0:0:
237,172,111269,1,8,3:2:0:0:
279,187,111378,1,0,3:0:0:0:
321,202,111486,1,2,3:0:0:0:
363,217,111595,1,0,3:0:0:0:
405,232,111704,5,10,3:2:0:0:
470,70,111921,1,8,3:2:0:0:
301,63,112139,1,8,3:2:0:0:
485,200,112356,1,8,3:2:0:0:
363,14,112573,5,8,3:2:0:0:
322,155,112791,1,8,3:2:0:0:
164,18,113008,1,8,3:2:0:0:
123,159,113226,1,8,3:2:0:0:
57,346,113443,53,14,3:2:0:0:
64,308,113552,1,0,1:0:0:0:
94,282,113660,1,10,3:2:0:0:
131,275,113769,1,0,1:0:0:0:
174,314,113878,5,8,1:3:0:0:
219,317,113986,1,8,3:2:0:0:
265,321,114095,1,2,1:2:0:0:
310,324,114203,1,10,3:2:0:0:
365,349,114313,53,8,1:3:0:0:
397,310,114421,1,0,1:0:0:0:
409,258,114530,1,2,1:2:0:0:
393,203,114639,1,2,1:2:0:0:
349,175,114747,2,0,L|309:183,6,37.1875003546476,0|0|0|0|2|0|2,1:0|1:0|1:0|1:0|1:2|1:0|1:2,1:0:0:0:
354,144,115182,38,0,P|352:101|453:71,1,159.375006079674,4|0,3:2|3:0,0:0:0:0:
489,132,115834,54,0,L|481:189,1,42.5,8|0,1:3|3:0,0:0:0:0:
435,246,116052,2,0,L|440:283,3,28.3333333333333,10|0|0|0,3:2|3:0|3:0|3:0,0:0:0:0:
355,226,116378,1,0,3:0:0:0:
355,226,116486,2,0,L|293:237,1,42.5,2|0,3:2|3:0,3:0:0:0:
228,288,116704,22,0,P|226:232|209:179,1,85,8|0,3:0|0:0,3:0:0:0:
71,292,117139,2,0,P|61:353|40:396,1,85,10|0,3:0|3:0,3:0:0:0:
59,125,117573,1,0,1:2:0:0:
59,125,117682,1,0,3:0:0:0:
59,125,117791,2,0,L|56:90,3,28.3333333333333,10|0|0|0,3:2|3:0|3:0|3:0,0:0:0:0:
18,207,118117,1,0,3:0:0:0:
18,207,118226,2,0,L|24:243,3,28.3333333333333,2|0|0|0,3:2|3:0|3:0|3:0,0:0:0:0:
100,217,118552,1,0,3:0:0:0:
100,217,118660,54,0,B|171:193|178:235|263:220,1,159.375006079674,2|0,1:2|3:0,0:0:0:0:
341,225,119313,54,0,L|346:176,1,42.5,8|0,3:0|0:0,0:0:0:0:
464,141,119530,2,0,L|470:179,3,28.3333333333333,10|0|0|0,3:2|3:0|3:0|3:0,0:0:0:0:
465,62,119856,1,0,0:0:0:0:
465,62,119965,2,0,L|402:71,1,42.5,2|0,3:2|0:0,0:0:0:0:
326,15,120182,2,0,L|340:115,1,85,8|0,3:0|0:0,0:0:0:0:
190,157,120617,2,0,L|200:65,1,85,10|0,3:0|3:0,0:0:0:0:
317,316,121052,1,8,3:0:0:0:
317,316,121160,1,8,3:0:0:0:
317,316,121269,38,0,P|244:297|212:300,1,101.999996887207,8|8,3:2|3:0,0:0:0:0:
82,365,121595,2,0,P|113:310|113:251,1,101.999996887207,8|8,3:2|3:0,0:0:0:0:
190,157,121921,2,0,L|202:232,1,50.9999984436036,8|0,3:2|3:0,0:0:0:0:
255,373,122139,6,0,P|276:290|340:235,1,159.375006079674,6|0,0:0|3:0,0:0:0:0:
463,299,122791,22,0,L|469:345,1,42.5,8|0,3:0|0:0,0:0:0:0:
357,360,123008,2,0,L|364:317,3,28.3333333333333,8|0|0|0,3:2|3:0|3:0|3:0,0:0:0:0:
409,238,123334,1,0,0:0:0:0:
409,238,123443,2,0,L|402:174,1,42.5,0|0,3:0|0:0,0:0:0:0:
464,96,123660,6,0,P|410:103|366:108,1,85,8|0,3:0|3:2,0:0:0:0:
292,155,123986,1,0,3:0:0:0:
292,155,124095,2,0,P|297:83|296:39,1,85,2|0,1:2|3:0,0:0:0:0:
106,275,124530,1,0,1:0:0:0:
106,275,124639,1,8,3:0:0:0:
106,275,124747,2,0,L|72:282,3,28.3333333333333,8|0|0|2,3:2|3:0|3:0|3:2,0:0:0:0:
188,221,125073,1,0,0:0:0:0:
188,221,125182,2,0,L|222:228,3,28.3333333333333,0|0|0|2,3:0|3:0|3:0|0:0,0:0:0:0:
105,193,125508,1,0,3:0:0:0:
105,193,125617,22,0,B|96:124|137:118|114:11,1,170,2|2,1:0|3:0,0:0:0:0:
361,80,126269,2,0,L|365:132,1,42.5,8|0,3:0|0:0,0:0:0:0:
288,157,126486,2,0,L|283:195,3,28.3333333333333,8|0|0|2,3:2|3:0|3:0|3:0,0:0:0:0:
368,265,126813,1,0,0:0:0:0:
368,265,126921,2,0,L|358:193,1,42.5,2|0,3:2|0:0,0:0:0:0:
346,342,127139,6,0,L|286:343,1,42.5,10|0,3:0|3:0,0:0:0:0:
224,278,127356,2,0,L|180:283,1,42.5,0|0,3:0|3:0,0:0:0:0:
102,369,127573,2,0,P|108:311|92:213,1,127.5,6|8,3:0|3:0,0:0:0:0:
46,197,128008,1,8,3:0:0:0:
15,240,128117,1,8,3:0:0:0:
201,132,128334,1,8,3:2:0:0:
206,186,128443,1,8,3:0:0:0:
213,240,128552,1,8,3:0:0:0:
309,54,128769,2,0,L|359:62,1,42.5,8|8,3:2|3:0,0:0:0:0:
425,69,128986,1,0,1:0:0:0:
409,112,129095,37,4,3:2:0:0:
266,344,129530,1,8,3:0:0:0:
308,313,129639,1,8,3:0:0:0:
352,283,129748,1,4,3:2:0:0:
83,124,130182,1,4,0:0:0:0:
384,192,130617,5,2,0:0:0:0:
172,23,130834,2,2,P|181:82|180:131,1,101.999996887207,6|0,1:2|3:0,0:0:0:0:
180,124,131160,1,0,3:0:0:0:
180,124,131269,1,8,3:2:0:0:
463,165,131486,1,2,0:0:0:0:
296,273,131704,1,2,1:2:0:0:
392,63,131921,2,2,P|459:60|501:71,1,101.999996887207,2|8,0:0|1:2,0:0:0:0:
439,337,132356,2,0,L|430:266,1,50.9999984436036,2|0,3:2|3:0,0:0:0:0:
379,166,132573,21,2,1:2:0:0:
340,202,132682,1,0,3:0:0:0:
289,201,132791,1,0,3:0:0:0:
241,219,132899,1,0,3:0:0:0:
223,264,133008,1,10,3:2:0:0:
200,47,133226,2,2,P|267:76|303:136,1,101.999996887207,2|0,0:0|1:0,0:0:0:0:
356,366,133660,2,2,P|308:311|300:274,1,101.999996887207,2|8,0:0|1:2,0:0:0:0:
130,118,134095,1,2,3:2:0:0:
130,118,134204,1,0,3:3:0:0:
130,118,134313,38,2,B|152:192|90:190|111:277,1,152.999995330811,2|0,1:2|3:0,0:0:0:0:
157,338,134747,1,8,3:2:0:0:
348,178,134965,1,2,0:0:0:0:
309,160,135073,1,0,0:0:0:0:
264,171,135182,1,2,1:2:0:0:
302,353,135399,2,0,P|304:289|299:237,1,101.999996887207,2|8,0:0|3:2,0:0:0:0:
460,78,135834,1,2,3:2:0:0:
460,78,135943,1,0,0:0:0:0:
460,78,136052,22,0,L|452:141,1,50.9999984436036,2|0,1:2|3:0,0:0:0:0:
481,221,136269,2,0,L|423:213,1,50.9999984436036,2|0,3:0|3:0,0:0:0:0:
357,145,136486,1,10,3:2:0:0:
201,331,136704,2,2,P|269:318|311:288,1,101.999996887207,2|0,0:0|1:2,0:0:0:0:
298,220,137030,2,0,L|380:229,1,50.9999984436036,8|2,3:2|1:2,0:0:0:0:
131,189,137356,1,8,0:2:0:0:
322,22,137573,1,2,3:2:0:0:
306,74,137682,1,0,3:0:0:0:
291,123,137791,1,4,1:2:0:0:
157,35,138008,38,0,L|92:39,1,50.9999984436036,0|0,3:0|3:0,0:0:0:0:
78,122,138226,1,10,3:2:0:0:
275,79,138443,1,2,0:0:0:0:
164,251,138660,1,0,1:0:0:0:
157,35,138878,2,2,P|159:111|152:141,1,101.999996887207,2|8,0:0|0:0,0:0:0:0:
44,336,139313,1,0,3:0:0:0:
44,336,139421,1,0,3:0:0:0:
44,336,139530,1,4,1:2:0:0:
228,361,139747,21,2,3:2:0:0:
238,177,139965,1,8,0:0:0:0:
432,218,140182,1,2,3:0:0:0:
317,312,140400,1,0,1:0:0:0:
281,91,140617,1,2,0:0:0:0:
205,254,140834,1,10,0:0:0:0:
97,86,141052,1,2,3:0:0:0:
135,71,141160,1,0,3:0:0:0:
181,77,141269,38,0,P|252:90|304:91,1,101.999996887207,6|0,1:2|3:0,0:0:0:0:
364,26,141595,2,0,L|370:88,1,50.9999984436036,2|8,0:0|0:0,0:0:0:0:
329,307,141921,2,0,P|352:256|410:244,1,101.999996887207,2|0,0:0|1:0,0:0:0:0:
466,176,142247,2,0,L|336:168,1,101.999996887207,2|0,0:0|0:0,0:0:0:0:
288,157,142573,1,10,0:0:0:0:
257,353,142791,1,2,3:0:0:0:
84,278,143008,53,6,1:0:0:0:
103,300,143117,1,0,1:0:0:0:
428,278,143334,21,2,1:0:0:0:
409,300,143443,1,0,1:0:0:0:
256,63,143660,37,2,1:0:0:0:
256,90,143769,1,0,1:0:0:0:
260,347,143986,21,0,1:0:0:0:
260,347,144095,2,0,L|275:288,1,50.9999984436036,6|0,1:2|0:0,0:0:0:0:
327,217,144313,2,0,L|259:224,1,50.9999984436036,2|0,1:0|1:0,0:0:0:0:
130,307,144530,2,0,L|214:314,1,50.9999984436036,2|0,1:2|0:0,0:0:0:0:
379,321,144747,54,2,P|375:248|382:120,1,152.999995330811,6|0,1:2|3:0,0:0:0:0:
434,116,145182,1,8,3:2:0:0:
239,55,145399,1,2,0:0:0:0:
77,138,145617,1,2,1:2:0:0:
46,336,145834,2,2,P|49:249|42:195,1,101.999996887207,2|8,0:0|0:0,0:0:0:0:
22,68,146269,1,2,3:2:0:0:
22,68,146378,1,0,3:0:0:0:
22,68,146486,22,2,L|89:60,1,50.9999984436036,2|0,1:2|0:0,0:0:0:0:
165,21,146704,1,0,3:0:0:0:
156,74,146813,1,0,3:0:0:0:
145,126,146921,1,10,1:2:0:0:
394,81,147139,2,2,P|324:75|266:81,1,101.999996887207,2|0,0:0|1:0,0:0:0:0:
219,235,147573,2,2,P|310:234|371:241,1,152.999995330811,2|0,0:0|3:0,0:0:0:0:
412,271,148008,1,2,3:2:0:0:
289,114,148226,5,2,1:2:0:0:
239,105,148334,1,0,0:0:0:0:
189,129,148443,1,0,3:0:0:0:
170,176,148552,1,0,3:0:0:0:
124,203,148660,1,8,3:2:0:0:
181,39,148878,1,2,0:0:0:0:
266,206,149095,1,2,1:2:0:0:
266,206,149204,2,0,L|383:211,1,101.999996887207
434,249,149530,1,8,0:0:0:0:
405,78,149747,1,2,3:2:0:0:
317,305,149965,21,2,1:0:0:0:
317,305,150073,1,0,3:0:0:0:
317,305,150182,2,0,L|250:299,1,50.9999984436036,2|0,3:0|3:0,0:0:0:0:
189,340,150399,1,10,3:2:0:0:
159,92,150617,2,2,P|167:155|168:216,1,101.999996887207,2|0,0:0|1:0,0:3:0:0:
137,269,150943,1,8,3:2:0:0:
137,269,151052,2,0,L|20:261,1,101.999996887207,2|8,1:0|3:2,0:0:0:0:
256,183,151486,1,2,3:2:0:0:
111,357,151704,53,6,1:2:0:0:
0,157,151921,38,2,P|57:161|131:164,1,101.999996887207,2|8,0:0|0:0,0:0:0:0:
359,87,152356,2,0,L|278:99,1,50.9999984436036,2|0,3:2|0:0,0:0:0:0:
214,47,152573,2,0,L|226:103,1,50.9999984436036,0|0,1:0|0:0,0:0:0:0:
268,268,152791,2,2,P|271:205|267:128,1,101.999996887207,2|8,0:0|0:0,0:0:0:0:
487,40,153226,53,0,3:0:0:0:
487,40,153334,1,0,3:0:0:0:
487,40,153443,1,6,1:2:0:0:
408,149,153660,1,2,0:0:0:0:
377,18,153878,1,10,3:2:0:0:
486,237,154095,2,2,P|424:210|319:212,1,152.999995330811,2|0,0:0|3:0,0:0:0:0:
297,284,154530,2,0,L|183:286,1,101.999996887207,2|8,3:2|0:0,0:0:0:0:
73,99,154965,53,0,3:0:0:0:
118,107,155073,1,0,3:0:0:0:
159,138,155182,1,6,1:0:0:0:
64,223,155399,1,0,3:0:0:0:
230,69,155617,2,2,L|244:142,1,50.9999984436036,8|0,3:2|0:0,0:0:0:0:
239,264,155834,2,0,L|230:315,1,50.9999984436036,0|0,3:0|3:0,0:0:0:0:
324,83,156052,2,0,L|337:150,1,50.9999984436036,2|0,1:2|0:0,0:0:0:0:
333,262,156269,2,0,L|323:312,1,50.9999984436036,2|0,3:0|3:0,0:0:0:0:
419,94,156486,2,0,L|430:153,1,50.9999984436036,2|0,1:0|0:0,0:0:0:0:
427,250,156704,2,0,L|417:302,1,50.9999984436036,2|0,3:0|3:0,0:0:0:0:
375,199,156921,53,4,1:2:0:0:
375,199,157030,1,0,1:0:0:0:
258,332,157247,21,2,1:2:0:0:
258,332,157356,1,0,1:0:0:0:
137,199,157573,37,2,1:2:0:0:
137,199,157682,1,0,1:0:0:0:
254,52,157899,21,0,1:0:0:0:
254,52,158008,1,0,1:0:0:0:
402,265,158226,37,2,1:2:0:0:
415,213,158334,1,0,1:0:0:0:
429,162,158443,1,2,1:2:0:0:
254,52,158660,5,12,3:2:0:0:
319,112,158878,1,8,3:2:0:0:
217,147,159095,1,8,3:2:0:0:
329,208,159313,1,8,3:2:0:0:
181,240,159530,1,10,3:2:0:0:
368,294,159747,1,8,3:2:0:0:
135,333,159965,1,8,3:2:0:0:
386,375,160182,1,8,3:2:0:0:
428,154,160399,53,2,1:0:0:0:
392,176,160508,1,8,3:2:0:0:
367,221,160617,1,0,1:0:0:0:
320,214,160726,1,8,3:2:0:0:
274,194,160834,5,2,1:2:0:0:
257,240,160943,1,2,1:3:0:0:
215,263,161052,1,0,1:0:0:0:
232,309,161161,1,2,1:3:0:0:
232,359,161269,53,2,1:0:0:0:
288,366,161378,1,8,1:3:0:0:
387,278,161595,1,2,1:0:0:0:
443,285,161704,1,8,1:3:0:0:
343,71,161921,1,2,1:0:0:0:
330,147,162030,1,2,1:2:0:0:
316,221,162139,1,4,1:2:0:0:
239,26,163008,6,0,P|251:92|247:178,1,127.500004863739,2|0,0:0|0:0,0:0:0:0:
56,327,163878,6,0,P|138:300|190:310,1,101.999996887207,6|0,1:0|0:0,0:0:0:0:
256,362,164204,2,0,P|247:241|251:222,1,101.999996887207,2|0,1:0|0:0,0:0:0:0:
313,193,164530,1,8,1:2:0:0:
456,57,164747,38,0,P|374:84|322:74,1,101.999996887207,6|0,1:0|0:0,0:0:0:0:
256,22,165073,2,0,P|265:143|261:162,1,101.999996887207,2|0,1:0|0:0,0:0:0:0:
199,193,165399,1,8,1:2:0:0:
60,25,165617,22,8,L|66:56,16,25.4999992218018,2|8|8|8|8|8|2|8|8|8|8|8|2|8|8|8|4,3:1|3:0|3:0|3:0|3:0|3:0|1:0|3:0|3:0|3:0|3:0|3:0|1:0|3:0|3:0|3:0|0:0,3:0:0:0:
256,364,167356,37,4,0:0:0:0:
256,20,168226,1,6,1:0:0:0:
256,364,168878,5,4,0:0:0:0:
134,73,169313,53,0,1:0:0:0:
256,195,169530,1,2,1:2:0:0:
378,73,169747,1,4,0:0:0:0:
136,348,170182,5,0,1:0:0:0:
359,277,170399,1,2,1:2:0:0:
153,277,170617,1,2,1:2:0:0:
376,348,170834,1,4,0:0:0:0:
136,36,171704,1,6,1:0:0:0:
495,285,172139,53,0,1:2:0:0:
304,298,172356,1,0,1:2:0:0:
385,88,172573,1,6,1:2:0:0:
385,88,173008,5,0,1:3:0:0:
368,337,173226,1,2,0:0:0:0:
368,337,173660,54,0,L|363:285,1,42.5,2|0,1:0|0:0,0:0:0:0:
235,240,173878,2,0,L|181:244,1,42.5,2|0,3:2|0:0,0:0:0:0:
91,200,174095,2,0,L|37:204,1,42.5,2|0,1:0|0:0,0:0:0:0:
179,157,174313,22,4,L|283:152,1,85,4|0,1:0|0:0,0:0:0:0:
341,115,174639,1,0,3:0:0:0:
341,115,174747,2,0,L|445:110,1,85,2|0,3:1|3:0,0:0:0:0:
436,5,175182,38,2,L|414:249,1,220.999989883423,4|0,0:0|0:0,0:3:0:0:
409,311,175726,53,0,0:0:0:0:
409,311,175834,2,0,L|350:304,1,42.5,2|0,0:0|0:0,0:0:0:0:
272,337,176052,2,0,L|213:330,1,42.5,2|0,1:2|0:0,0:0:0:0:
135,363,176269,2,0,L|147:301,1,42.5,2|0,3:0|3:0,0:0:0:0:
220,247,176486,2,0,L|232:185,1,42.5,2|0,3:2|0:0,0:0:0:0:
159,128,176704,6,2,L|135:286,2,110.499994941712,2|8|2,3:1|1:2|0:1,0:3:0:0:
178,45,177247,21,0,0:0:0:0:
178,45,177356,2,0,L|101:35,1,55.2499974708558,2|0,3:2|3:0,0:0:0:0:
250,118,177573,2,0,L|305:126,1,55.2499974708558,2|0,1:1|0:0,0:0:0:0:
434,41,177791,54,0,L|314:54,1,85,10|0,3:0|0:0,0:3:0:0:
404,134,178117,1,0,0:0:0:0:
404,134,178226,2,0,L|415:236,1,85,2|0,3:2|3:0,0:0:0:0:
241,382,178660,54,2,L|259:181,1,165.749992412568,10|0,1:2|0:0,0:3:0:0:
269,140,179095,54,0,L|188:149,1,42.5,2|0,3:0|0:0,0:0:0:0:
143,244,179313,2,0,L|62:253,1,42.5,2|0,3:2|0:0,0:0:0:0:
141,80,179530,2,0,L|151:198,1,85,8|0,3:0|3:0,0:0:0:0:
104,354,179965,1,2,3:0:0:0:
104,354,180073,1,2,3:0:0:0:
104,354,180182,2,2,L|185:345,1,42.5,2|0,0:1|0:0,3:0:0:0:
287,318,180399,2,0,L|220:323,1,42.5,8|0,0:0|0:0,0:0:0:0:
361,269,180617,54,2,P|405:294|411:319,1,55.2499974708558,2|0,1:0|3:0,1:0:0:0:
438,116,180834,2,0,P|412:146|366:137,1,55.2499974708558,10|0,1:2|0:0,0:0:0:0:
294,237,181052,1,2,1:0:0:0:
294,237,181160,1,8,3:0:0:0:
294,237,181269,22,2,P|298:208|293:152,1,76.4999976654053,4|0,0:0|0:0,0:3:0:0:
144,346,182139,21,10,1:2:0:0:
111,146,182356,2,0,P|119:223|114:263,1,110.499994941712,2|0,3:1|0:0,0:0:0:0:
41,295,182682,1,0,0:0:0:0:
41,295,182791,2,0,L|34:215,1,55.2499974708558,8|0,3:0|3:0,0:0:0:0:
111,146,183008,54,0,B|162:140|189:162|189:162|238:166,1,110.499994941712,6|0,1:0|3:0,0:0:0:0:
324,70,183334,2,0,B|295:72|295:72|268:94|217:88,1,110.499994941712,2|8,1:0|0:0,0:0:0:0:
336,146,183660,2,0,L|419:152,1,55.2499974708558,8|0,3:0|1:0,0:0:0:0:
501,102,183878,1,8,1:2:0:0:
448,265,184095,6,2,L|444:300,10,27.6249987354279
386,222,184747,38,2,B|362:234|342:215|308:228,1,76.4999976654053,8|0,1:3|0:0,0:3:0:0:
63,339,185617,53,8,1:2:0:0:
114,214,185834,2,0,P|159:236|188:293,1,110.499994941712,2|2,3:1|3:2,0:0:0:0:
242,363,186160,1,0,3:0:0:0:
242,363,186269,2,0,L|180:375,1,55.2499974708558,2|0,3:1|3:0,0:0:0:0:
272,285,186486,22,0,P|317:298|387:288,1,110.499994941712,6|0,1:0|3:0,0:0:0:0:
485,337,186813,2,0,P|468:267|485:209,1,110.499994941712,2|0,1:0|3:0,3:0:0:0:
363,211,187139,1,8,1:3:0:0:
363,211,187247,1,0,1:0:0:0:
363,211,187356,2,0,P|379:306|370:380,2,165.749992412568,12|12|8,1:2|1:2|1:2,0:0:0:0:
57,111,188226,54,2,P|86:109|140:90,1,76.4999976654053,8|0,3:3|0:0,0:3:0:0:
420,147,189095,53,8,1:2:0:0:
341,44,189313,2,0,P|320:61|310:86,6,36.8333316472372,2|2|2|2|2|2|2,3:0|3:2|3:2|3:0|3:2|3:2|3:0,0:0:0:0:
317,279,189965,22,0,P|313:225|332:170,1,110.499994941712,6|0,1:0|0:0,0:0:0:0:
211,94,190291,2,0,B|223:136|223:136|219:156|219:156|233:218,1,110.499994941712,2|0,1:0|0:0,0:0:0:0:
208,319,190617,2,0,L|222:382,1,55.2499974708558,8|0,1:3|3:0,0:0:0:0:
64,238,190834,1,8,1:2:0:0:
311,258,191052,2,2,L|347:262,10,27.6249987354279,2|2|2|2|2|2|2|2|2|2|2,0:3|0:0|0:0|0:0|0:0|0:0|0:0|0:0|0:0|0:0|0:0,0:0:0:0:
377,306,191704,5,8,1:2:0:0:
468,215,191921,1,8,1:2:0:0:
267,48,192139,1,10,1:2:0:0:
377,204,192356,1,8,1:2:0:0:
258,190,192573,1,8,0:0:0:0:
410,14,192791,6,0,L|408:57,6,36.8333316472372,8|2|2|8|2|2|8,1:2|3:2|3:2|1:2|3:2|3:2|1:2,0:0:0:0:
490,249,193443,6,0,P|436:216|380:216,1,110.499994941712,6|8,1:0|1:3,0:0:0:0:
319,138,193769,2,2,P|312:214|299:287,1,110.499994941712,2|0,1:1|0:0,0:0:0:0:
205,247,194095,1,8,1:3:0:0:
205,247,194204,1,0,1:0:0:0:
205,247,194313,2,0,P|197:193|193:138,1,110.499994941712,8|2,1:2|1:2,0:0:0:0:
125,64,194639,2,2,P|92:130|100:175,1,110.499994941712,10|2,1:2|1:2,0:0:0:0:
72,250,194965,1,10,1:2:0:0:
261,350,195182,21,4,1:2:0:0:
252,200,195399,1,2,1:0:0:0:
239,40,195617,1,0,1:0:0:0:
239,40,195726,1,10,1:2:0:0:
394,181,195943,5,8,1:2:0:0:
394,181,196052,1,8,1:3:0:0:
306,98,196269,1,2,1:0:0:0:
329,267,196486,1,0,1:0:0:0:
329,267,196595,2,2,L|454:257,1,110.499994941712,10|0,1:2|0:0,0:3:0:0:
469,187,196921,53,8,1:2:0:0:
469,187,197030,1,10,1:2:0:0:
371,26,197247,1,8,1:2:0:0:
371,26,197356,1,10,1:2:0:0:
141,26,197573,1,8,1:2:0:0:
141,26,197682,1,8,1:2:0:0:
43,187,197899,1,8,1:2:0:0:
43,187,198008,1,8,1:2:0:0:
256,82,198226,1,10,1:2:0:0:
256,192,198443,1,12,1:2:0:0:
256,192,198552,12,0,200399,0:0:0:0:
202,148,206704,22,2,P|197:93|160:166,1,212.5,2|0,0:0|3:0,0:0:0:0:
186,238,207356,6,0,L|86:246,1,85,4|0,0:0|3:0,0:0:0:0:
35,344,207791,2,0,L|119:337,1,85,2|0,0:0|3:0,0:0:0:0:
363,345,208226,2,0,L|279:352,1,85,2|0,0:0|3:0,0:0:0:0:
373,233,208660,1,0,0:0:0:0:
460,320,208878,1,2,3:2:0:0:
460,320,208986,1,0,3:0:0:0:
460,320,209095,37,4,0:0:0:0:
482,181,209313,1,0,3:0:0:0:
335,302,209530,1,2,0:0:0:0:
293,152,209747,1,0,3:0:0:0:
293,152,209856,1,0,3:0:0:0:
293,152,209965,1,2,0:0:0:0:
415,225,210182,1,2,3:2:0:0:
223,257,210399,2,0,P|170:264|115:265,1,85,8|2,3:2|3:2,0:0:0:0:
40,50,210834,6,2,B|67:115|6:106|37:207,1,127.5,6|0,1:2|3:0,0:0:0:0:
64,248,211269,2,0,P|49:298|36:320,1,42.5,2|0,1:2|3:0,0:0:0:0:
239,150,211486,6,2,B|188:188|156:139|101:167,1,127.5,6|0,1:2|3:3,0:2:0:0:
207,81,211921,2,0,P|240:74|271:83,1,42.5,0|0,1:2|3:0,0:0:0:0:
354,22,212139,2,0,P|348:86|347:124,1,85,4|2,3:2|3:2,0:0:0:0:
424,332,212573,6,0,P|368:311|328:319,1,85,12|2,1:2|3:3,0:0:0:0:
252,365,212899,2,0,L|260:245,1,85,6|0,1:0|3:0,0:0:0:0:
190,218,213226,2,0,L|187:251,6,21.25,6|0|0|0|8|8|8,1:0|0:0|0:0|0:0|3:0|3:0|3:3,0:0:0:0:
121,301,213660,1,4,1:2:0:0:
279,199,213878,1,0,1:0:0:0:
99,94,214095,1,2,1:2:0:0:
99,94,214747,6,0,P|120:122|118:196,1,101.999996887207,4|2,0:0|0:0,0:0:0:0:
94,268,215073,1,0,3:0:0:0:
94,268,215182,2,0,L|174:261,1,50.9999984436036,2|0,1:2|0:0,0:0:0:0:
220,306,215399,2,0,P|227:228|239:172,1,101.999996887207,2|10,0:0|0:0,0:0:0:0:
348,49,215834,1,2,3:2:0:0:
457,260,216052,6,2,P|393:251|346:256,1,101.999996887207,2|0,1:2|3:0,0:0:0:0:
323,289,216378,1,0,3:0:0:0:
323,289,216486,1,10,3:2:0:0:
182,47,216704,2,2,P|185:112|193:167,1,101.999996887207,2|0,0:0|1:0,0:0:0:0:
48,330,217139,2,2,P|51:265|59:210,1,101.999996887207,2|8,0:2|0:0,0:0:0:0:
55,228,217465,1,0,3:0:0:0:
55,228,217573,1,2,3:2:0:0:
238,327,217791,5,2,1:2:0:0:
282,317,217899,1,0,3:0:0:0:
315,277,218008,1,2,3:0:0:0:
321,232,218117,1,0,3:0:0:0:
305,189,218226,1,8,3:2:0:0:
153,98,218443,2,0,B|283:93|282:93,1,101.999996887207,2|2,0:0|1:2,0:0:0:0:
323,41,218769,2,0,P|339:84|406:105,1,101.999996887207,2|0,0:0|0:0,0:0:0:0:
463,97,219095,1,8,0:0:0:0:
344,325,219313,1,2,3:2:0:0:
277,240,219530,6,2,L|332:222,1,50.9999984436036,2|0,1:2|0:0,0:0:0:0:
443,273,219747,2,0,L|461:334,1,50.9999984436036,0|0,0:0|3:0,0:0:0:0:
409,182,219965,1,10,0:0:0:0:
259,338,220182,2,0,P|210:335|133:323,1,101.999996887207,2|0,0:0|1:0,0:0:0:0:
78,305,220508,2,0,L|82:355,1,50.9999984436036,10|0,0:2|0:0,0:0:0:0:
242,180,220834,1,8,3:2:0:0:
33,69,221052,1,2,3:2:0:0:
54,117,221160,1,2,3:0:0:0:
65,171,221269,5,4,1:2:0:0:
164,37,221486,6,0,P|234:27|286:41,1,101.999996887207,2|8,0:0|0:0,0:0:0:0:
479,159,221921,1,2,3:2:0:0:
330,229,222139,1,2,1:2:0:0:
395,17,222356,2,2,P|393:84|390:136,1,101.999996887207,2|8,0:0|0:0,0:0:0:0:
447,345,222791,5,0,3:0:0:0:
447,345,222899,1,2,3:0:0:0:
447,345,223008,1,4,1:2:0:0:
255,265,223226,1,0,3:0:0:0:
394,240,223443,1,8,0:0:0:0:
232,375,223660,2,2,P|161:362|120:360,1,101.999996887207,2|0,0:0|1:0,0:0:0:0:
25,165,224095,1,2,3:2:0:0:
25,165,224204,1,0,0:0:0:0:
25,165,224313,1,8,3:2:0:0:
34,301,224530,1,0,3:0:0:0:
126,118,224747,6,0,L|183:115,1,50.9999984436036,4|0,1:0|0:0,0:0:0:0:
282,51,224965,1,0,3:0:0:0:
282,51,225073,1,0,3:0:0:0:
282,51,225182,2,0,P|271:111|268:218,1,152.999995330811,8|0,3:2|0:0,0:0:0:0:
296,290,225617,2,0,P|241:283|178:295,1,101.999996887207,0|0,1:0|3:0,0:0:0:0:
401,347,226052,1,2,1:1:0:0:
499,186,226269,1,2,3:2:0:0:
152,73,226486,21,4,1:0:0:0:
167,108,226595,1,0,1:0:0:0:
360,73,226813,21,2,1:2:0:0:
345,108,226922,1,0,1:0:0:0:
257,356,227139,37,2,1:2:0:0:
257,356,227247,1,0,1:0:0:0:
257,28,227465,21,0,1:0:0:0:
257,28,227573,1,0,1:0:0:0:
197,233,227791,37,2,1:2:0:0:
256,249,227899,1,0,1:0:0:0:
315,233,228008,1,2,1:2:0:0:
255,114,228226,5,8,3:2:0:0:
81,229,228443,1,8,3:2:0:0:
54,55,228660,1,8,3:2:0:0:
155,310,228878,1,8,3:2:0:0:
151,95,229095,1,10,3:2:0:0:
27,330,229313,1,8,3:2:0:0:
253,231,229530,1,8,3:2:0:0:
115,158,229747,1,8,3:2:0:0:
274,342,229965,53,2,1:0:0:0:
320,354,230073,1,8,3:2:0:0:
354,331,230182,1,0,1:0:0:0:
400,343,230290,1,8,3:2:0:0:
428,305,230399,5,2,1:2:0:0:
409,261,230508,1,2,1:3:0:0:
428,213,230617,1,0,1:0:0:0:
409,169,230726,1,2,1:3:0:0:
385,125,230834,53,2,1:0:0:0:
341,139,230943,1,8,1:3:0:0:
139,119,231160,1,2,1:0:0:0:
95,133,231269,1,0,1:3:0:0:
253,25,231486,1,2,1:0:0:0:
258,103,231595,1,2,1:2:0:0:
264,179,231704,1,4,1:0:0:0:
112,336,232573,6,2,P|141:294|216:254,1,127.500004863739,2|0,0:0|0:0,0:0:0:0:
421,85,233443,6,0,P|402:174|405:219,1,110.499994941712,6|0,1:0|0:0,0:0:0:0:
446,284,233769,2,0,L|311:278,1,110.499994941712,2|0,1:0|0:0,0:0:0:0:
256,314,234095,1,8,1:2:0:0:
91,85,234313,38,0,P|110:174|107:219,1,110.499994941712,6|0,1:0|0:0,0:0:0:0:
66,284,234639,2,0,L|201:278,1,110.499994941712,2|0,1:0|0:0,0:0:0:0:
256,314,234965,1,8,1:2:0:0:
255,149,235182,22,8,L|255:116,16,27.6249987354279,2|8|8|8|8|8|2|8|8|8|8|8|2|8|8|8|4,3:1|3:0|3:0|3:0|3:0|3:0|3:1|3:0|3:0|3:0|3:0|3:0|3:1|3:0|3:0|3:0|0:0,3:0:0:0:
323,339,236921,6,0,P|332:290|338:241,1,85,6|0,0:0|3:0,0:0:0:0:
360,211,237247,1,0,3:0:0:0:
360,211,237356,2,0,L|251:216,1,85,2|0,1:0|0:0,0:0:0:0:
102,263,237791,1,2,1:2:0:0:
137,114,238008,1,2,0:0:0:0:
113,275,238226,1,8,1:3:0:0:
157,105,238443,1,0,3:0:0:0:
157,105,238552,1,0,3:0:0:0:
157,105,238660,54,0,P|233:118|306:109,1,127.5,2|0,1:0|3:0,0:0:0:0:
317,81,239095,1,2,1:2:0:0:
349,290,239313,2,0,P|355:219|371:155,1,127.5,2|0,3:0|0:0,0:0:0:0:
405,133,239747,1,0,3:0:0:0:
422,357,239965,2,0,L|358:369,1,42.5,10|0,1:2|0:0,0:0:0:0:
275,328,240182,2,0,L|211:340,1,42.5,0|0,3:0|3:0,0:0:0:0:
135,372,240399,22,0,P|148:313|150:253,1,85,4|2,1:2|0:0,0:0:0:0:
110,262,240726,1,0,3:0:0:0:
110,262,240834,2,0,P|97:203|95:143,1,85,2|0,1:0|3:0,0:0:0:0:
259,52,241269,1,2,1:2:0:0:
191,188,241486,1,2,0:0:0:0:
126,41,241704,1,2,1:2:0:0:
283,140,241921,1,2,3:2:0:0:
283,140,242030,1,0,3:2:0:0:
283,140,242139,22,2,L|385:138,1,85,2|0,1:0|0:0,0:0:0:0:
491,70,242573,1,2,1:2:0:0:
425,308,242791,2,0,L|429:241,1,42.5,2|0,3:2|3:2,0:0:0:0:
351,225,243008,1,0,3:2:0:0:
351,225,243117,2,0,L|345:326,1,85,8|0,0:0|0:0,0:0:0:0:
294,368,243443,2,0,L|190:359,1,85,8|0,1:2|3:0,0:0:0:0:
34,250,243878,37,12,3:2:0:0:
196,262,244095,1,10,3:2:0:0:
131,85,244313,1,10,3:2:0:0:
121,192,244530,1,8,3:2:0:0:
218,27,244748,37,10,3:2:0:0:
56,15,244965,1,10,3:2:0:0:
209,127,245182,1,10,3:2:0:0:
391,50,245399,1,10,3:2:0:0:
359,210,245617,21,12,3:2:0:0:
295,75,245834,1,8,3:2:0:0:
476,195,246052,1,10,3:2:0:0:
311,325,246269,1,10,3:2:0:0:
385,132,246486,38,0,L|418:123,3,28.3333333333333,10|0|0|8,3:2|3:2|3:2|3:2,0:0:0:0:
218,258,246921,1,10,3:2:0:0:
239,50,247139,1,8,3:2:0:0:
66,22,247356,37,12,3:2:0:0:
84,63,247465,1,8,3:2:0:0:
64,110,247573,1,8,3:0:0:0:
82,151,247682,1,8,3:0:0:0:
78,204,247791,5,10,3:2:0:0:
127,182,247899,1,8,3:2:0:0:
179,197,248008,1,8,3:3:0:0:
228,175,248116,1,8,3:3:0:0:
286,192,248226,53,10,3:2:0:0:
262,243,248334,1,2,3:0:0:0:
278,290,248443,1,8,3:2:0:0:
254,341,248551,1,2,3:0:0:0:
204,363,248660,6,8,L|159:356,6,37.1875003546476,8|8|8|8|8|8|8,3:0|3:0|3:0|3:0|3:0|3:0|3:0,3:0:0:0:
185,284,249095,53,4,0:0:0:0:
256,192,249149,12,0,250726,0:0:0:0:
178,177,250834,6,0,L|129:171,2,42.5000016212464,6|0|0,0:0|3:0|0:0,0:0:0:0:
237,108,251269,2,0,L|188:102,2,42.5000016212464,2|0|0,0:0|3:0|0:0,0:0:0:0:
293,170,251704,2,0,P|286:108|310:44,2,127.500004863739,10|0|8,0:0|0:0|0:3,0:0:0:0:
200,348,253008,2,0,P|151:340|102:342,1,85.0000032424928,2|0,0:0|0:0,0:0:0:0:
44,361,253443,2,0,P|52:261|52:260,1,85.0000032424928,10|0,0:0|0:0,0:0:0:0:
35,201,253878,1,2,0:0:0:0:
370,348,254313,22,0,L|421:344,2,42.5000016212464,2|0|0,0:0|3:0|0:0,0:0:0:0:
324,272,254747,2,0,L|375:268,2,42.5000016212464,0|0|0,0:0|3:0|0:0,0:0:0:0:
288,349,255182,2,0,P|238:349|160:357,2,127.500004863739,10|0|2,0:0|0:0|0:0,0:0:0:0:
470,181,256486,38,0,P|434:150|393:140,1,85.0000032424928,2|0,0:0|0:0,0:0:0:0:
386,54,256921,2,0,P|350:65|302:107,1,85.0000032424928,10|0,0:0|0:0,0:0:0:0:
224,57,257356,2,0,P|234:118|236:136,1,63.7500024318696,2|0,0:0|0:0,0:0:0:0:
