osu file format v14

[General]
AudioFilename: audio.mp3
AudioLeadIn: 0
PreviewTime: 115132
Countdown: 0
SampleSet: Soft
StackLeniency: 0.7
Mode: 0
LetterboxInBreaks: 0
WidescreenStoryboard: 1

[Editor]
Bookmarks: 400,7356,21269,35182,49095,50834,87356,90834,94313,101269,115182,130834,167356,174313,181269,200399,206704,212573,214095,214747,217356,236921,250834,257356
DistanceSpacing: 1
BeatDivisor: 4
GridSize: 4
TimelineZoom: 1.8

[Metadata]
Title:I believe what you said
TitleUnicode:I believe what you said
Artist:Asaka
ArtistUnicode:亜咲花
Creator:Okoratu
Version:Hard
Source:ひぐらしのなく頃に 業
Tags:Higurashi no Naku Koro ni Gou 2020 When the Cicadas Cry anime opening op 07th Expansion Passione Maebara Keiichi Sonozaki Mion Shion Ryuugu Rena Houjou Satoko Satoshi Furude Rika Hanyuu Okorin Electronic Japanese Pop Spkz Yudragen Anime
BeatmapID:2868941
BeatmapSetID:1294563

[Difficulty]
HPDrainRate:5
CircleSize:4
OverallDifficulty:6.5
ApproachRate:7.7
SliderMultiplier:1.5
SliderTickRate:2

[Events]
//Background and Video events
0,0,"behgeh3.jpg",0,0
//Break Periods
2,91034,93413
2,200599,205804
//Storyboard Layer 0 (Background)
//Storyboard Layer 1 (Fail)
//Storyboard Layer 2 (Pass)
//Storyboard Layer 3 (Foreground)
//Storyboard Layer 4 (Overlay)
//Storyboard Sound Samples

[TimingPoints]
400,434.782608695652,4,2,1,50,1,0
400,-100,4,2,1,50,0,0
1160,-100,4,2,2,50,0,0
1378,-100,4,2,1,50,0,0
2899,-100,4,2,2,50,0,0
3117,-100,4,2,1,50,0,0
3443,-100,4,2,1,40,0,0
3878,-100,4,2,1,50,0,0
4639,-100,4,2,2,50,0,0
4856,-100,4,2,1,50,0,0
5617,-200,4,2,1,50,0,0
6378,-200,4,2,2,50,0,0
6595,-200,4,2,1,60,0,0
7356,-100,4,2,1,60,0,0
11269,-100,4,2,1,60,0,0
14313,-100,4,2,1,70,0,0
19095,-57.1428571428571,4,2,1,70,0,0
21160,-57.1428571428571,4,2,1,5,0,0
21269,-133.333333333333,4,2,1,55,0,0
27356,-83.3333333333333,4,2,1,55,0,0
28226,-100,4,2,1,55,0,0
31704,-100,4,2,1,70,0,0
34747,-57.1428571428571,4,2,1,70,0,0
35182,-133.333333333333,4,2,1,80,0,0
35291,-133.333333333333,4,2,1,50,0,0
35943,-133.333333333333,4,2,2,50,0,0
36160,-133.333333333333,4,2,1,50,0,0
37139,-83.3333333333333,4,2,1,50,0,0
37736,-83.3333333333333,4,2,2,50,0,0
37845,-83.3333333333333,4,2,1,50,0,0
38660,-133.333333333333,4,2,1,50,0,0
38932,-133.333333333333,4,2,1,5,0,0
39041,-133.333333333333,4,2,1,50,0,0
39476,-133.333333333333,4,2,2,50,0,0
39584,-133.333333333333,4,2,1,50,0,0
40617,-100,4,2,1,50,0,0
41269,-83.3333333333333,4,2,1,70,0,0
42139,-100,4,2,1,60,0,0
47139,-100,4,2,1,70,0,0
49204,-100,4,2,1,60,0,0
50834,-83.3333333333333,4,2,1,80,0,1
64313,-83.3333333333333,4,2,1,80,0,0
64747,-83.3333333333333,4,2,1,80,0,1
80345,-83.3333333333333,4,2,1,70,0,1
80399,-83.3333333333333,4,2,1,70,0,1
82247,-133.333333333333,4,2,1,50,0,0
83878,-66.6666666666667,4,2,1,80,0,0
85563,-66.6666666666667,4,2,1,50,0,0
86486,-66.6666666666667,4,2,1,80,0,0
90834,-100,4,2,1,60,0,0
94313,-100,4,2,1,50,0,0
95834,-83.3333333333333,4,2,1,50,0,0
97791,-100,4,2,1,50,0,0
99095,-57.1428571428571,4,2,1,50,0,0
99476,-57.1428571428571,4,2,1,30,0,0
99530,-100,4,2,1,30,0,0
99639,-100,4,2,1,40,0,0
99856,-100,4,2,1,50,0,0
100073,-100,4,2,1,55,0,0
100291,-100,4,2,1,60,0,0
100508,-100,4,2,1,65,0,0
100726,-100,4,2,1,70,0,0
100943,-100,4,2,1,75,0,0
101269,-133.333333333333,4,2,1,70,0,0
101378,-133.333333333333,4,2,1,50,0,0
108226,-100,4,2,1,60,0,0
111649,-100,4,2,1,70,0,0
114747,-57.1428571428571,4,2,1,70,0,0
115182,-133.333333333333,4,2,1,70,0,0
115617,-133.333333333333,4,2,1,60,0,0
115834,-100,4,2,1,60,0,0
118660,-133.333333333333,4,2,1,60,0,0
119313,-100,4,2,1,60,0,0
121269,-83.3333333333333,4,2,1,70,0,0
122139,-133.333333333333,4,2,1,60,0,0
122682,-100,4,2,1,60,0,0
130834,-83.3333333333333,4,2,1,80,0,1
144313,-83.3333333333333,4,2,1,80,0,0
144747,-83.3333333333333,4,2,1,80,0,1
160345,-83.3333333333333,4,2,1,70,0,1
160399,-83.3333333333333,4,2,1,70,0,1
162247,-133.333333333333,4,2,1,50,0,0
163878,-83.3333333333333,4,2,1,80,0,0
165563,-83.3333333333333,4,2,1,50,0,0
166486,-83.3333333333333,4,2,1,80,0,0
167302,-100,4,2,1,80,0,0
173660,-100,4,2,1,70,0,0
175073,-76.9230769230769,4,2,1,70,0,0
175182,-76.9230769230769,4,2,1,60,0,0
175399,-76.9230769230769,4,2,2,30,0,0
175726,-100,4,2,2,30,0,0
175834,-100,4,2,1,70,0,0
176595,-76.9230769230769,4,2,1,70,0,0
177791,-100,4,2,1,70,0,0
178552,-76.9230769230769,4,2,1,70,0,0
179095,-100,4,2,1,70,0,0
180182,-100,4,2,1,60,0,0
180508,-76.9230769230769,4,2,1,60,0,0
181269,-133.333333333333,4,2,1,60,0,0
181323,-133.333333333333,4,2,2,40,0,0
182030,-133.333333333333,4,2,1,60,0,0
184149,-133.333333333333,4,2,1,30,0,0
184204,-133.333333333333,4,2,1,60,0,0
184258,-133.333333333333,4,2,1,30,0,0
184313,-133.333333333333,4,2,1,60,0,0
184367,-133.333333333333,4,2,1,30,0,0
184422,-133.333333333333,4,2,1,60,0,0
184476,-133.333333333333,4,2,1,30,0,0
184531,-133.333333333333,4,2,1,60,0,0
184584,-133.333333333333,4,2,1,30,0,0
184639,-133.333333333333,4,2,1,60,0,0
184693,-133.333333333333,4,2,1,30,0,0
184747,-133.333333333333,4,2,1,60,0,0
185508,-76.9230769230769,4,2,1,60,0,0
188226,-133.333333333333,4,2,1,60,0,0
189313,-76.9230769230769,4,2,1,60,0,0
191106,-76.9230769230769,4,2,1,30,0,0
191161,-76.9230769230769,4,2,1,60,0,0
191215,-76.9230769230769,4,2,1,30,0,0
191270,-76.9230769230769,4,2,1,60,0,0
191323,-76.9230769230769,4,2,1,30,0,0
191378,-76.9230769230769,4,2,1,60,0,0
191432,-76.9230769230769,4,2,1,30,0,0
191487,-76.9230769230769,4,2,1,60,0,0
191541,-76.9230769230769,4,2,1,30,0,0
191596,-76.9230769230769,4,2,1,60,0,0
191649,-76.9230769230769,4,2,1,30,0,0
191704,-76.9230769230769,4,2,1,70,0,0
194584,-76.9230769230769,4,2,1,20,0,0
194639,-76.9230769230769,4,2,1,70,0,0
194693,-76.9230769230769,4,2,1,20,0,0
194748,-76.9230769230769,4,2,1,70,0,0
194802,-76.9230769230769,4,2,1,20,0,0
194857,-76.9230769230769,4,2,1,70,0,0
194910,-76.9230769230769,4,2,1,20,0,0
194965,-76.9230769230769,4,2,1,70,0,0
195019,-76.9230769230769,4,2,1,20,0,0
195074,-76.9230769230769,4,2,1,70,0,0
195128,-76.9230769230769,4,2,1,20,0,0
195182,-76.9230769230769,4,2,1,60,0,0
206704,-100,4,2,1,60,0,0
210834,-100,4,2,1,70,0,0
212573,-100,4,2,1,70,0,1
213280,-100,4,2,1,70,0,1
213443,-100,4,2,1,70,0,1
213660,-66.6666666666667,4,2,1,70,0,1
214313,-66.6666666666667,4,2,1,50,0,0
214747,-83.3333333333333,4,2,1,80,0,1
229910,-83.3333333333333,4,2,1,70,0,1
229965,-83.3333333333333,4,2,1,70,0,1
231813,-133.333333333333,4,2,1,50,0,0
233443,-76.9230769230769,4,2,1,80,0,0
235073,-76.9230769230769,4,2,1,50,0,0
236052,-76.9230769230769,4,2,1,80,0,0
236921,-100,4,2,1,60,0,0
243878,-100,4,2,1,70,0,0
245617,-100,4,2,1,70,0,0
248660,-57.1428571428571,4,2,1,70,0,0
250780,-57.1428571428571,4,2,1,5,0,0
250834,-133.333333333333,4,2,1,30,0,0
251649,-133.333333333333,4,2,2,30,0,0
251758,-133.333333333333,4,2,1,30,0,0
253389,-133.333333333333,4,2,2,30,0,0
253497,-133.333333333333,4,2,1,30,0,0
255128,-133.333333333333,4,2,2,30,0,0
255236,-133.333333333333,4,2,1,30,0,0
256867,-133.333333333333,4,2,2,30,0,0
256976,-133.333333333333,4,2,1,30,0,0

[Colours]
Combo1 : 255,21,28
Combo2 : 255,153,51
Combo3 : 53,72,244
Combo4 : 199,36,177
Combo5 : 107,231,237

[HitObjects]
84,114,400,22,0,L|174:110,1,75,0|0,1:0|0:0,0:0:0:0:
245,88,834,1,2,0:0:0:0:
245,88,1269,1,8,0:0:0:0:
221,172,1486,2,0,P|208:224|209:290,1,112.5,8|8,3:3|3:0,0:0:0:0:
369,346,2139,54,0,L|470:343,1,75,2|2,1:1|0:0,0:0:0:0:
498,250,2573,1,2,3:2:0:0:
403,260,2791,2,0,L|302:263,1,75,2|8,0:0|0:0,0:0:0:0:
227,300,3226,53,8,1:3:0:0:
242,201,3443,1,2,0:1:0:0:
260,102,3660,1,2,0:1:0:0:
170,132,3878,54,0,P|129:135|82:128,1,75,0|2,1:0|0:0,0:0:0:0:
9,69,4313,1,0,0:0:0:0:
9,69,4747,1,8,0:0:0:0:
41,182,4965,2,0,P|44:227|42:311,1,112.5,8|8,3:3|3:0,0:0:0:0:
183,351,5617,22,2,B|247:319|266:366|341:349,1,150,2|8,0:0|0:0,0:0:0:0:
407,323,6704,53,8,1:3:0:0:
253,202,7030,1,8,1:3:0:0:
362,61,7356,38,0,L|448:66,1,75,4|0,0:0|3:0,0:0:0:0:
480,161,7791,2,0,P|427:154|391:160,1,75,2|0,0:0|3:0,0:0:0:0:
299,189,8226,1,2,0:0:0:0:
299,189,8334,1,0,0:0:0:0:
299,189,8443,2,0,L|296:104,1,75,2|2,0:0|3:0,0:0:0:0:
210,59,8878,1,2,0:0:0:0:
158,159,9095,54,0,P|125:180|55:180,1,75,6|0,1:3|3:0,0:0:0:0:
21,309,9530,1,2,0:0:0:0:
142,301,9747,2,0,P|173:280|209:273,1,75,2|2,0:0|0:0,0:0:0:0:
294,202,10182,1,0,0:0:0:0:
294,202,10291,1,0,0:0:0:0:
294,202,10399,2,0,L|381:211,1,75,2|2,0:0|3:0,0:0:0:0:
456,309,10834,22,0,P|454:257|468:175,1,112.5,4|0,0:0|0:0,0:0:0:0:
488,164,11269,2,0,L|483:81,1,75,2|2,0:0|3:0,0:0:0:0:
411,17,11704,2,0,L|361:19,2,37.5,2|0|2,0:0|0:0|3:2,0:0:0:0:
380,111,12139,1,2,1:2:0:0:
288,51,12356,1,2,3:0:0:0:
288,51,12465,1,0,3:0:0:0:
288,51,12573,54,0,P|232:47|161:58,1,112.5,4|0,1:3|3:0,0:0:0:0:
141,51,13008,1,2,0:0:0:0:
197,159,13226,2,0,P|205:203|206:281,1,112.5,2|0,3:2|0:0,0:0:0:0:
186,313,13660,1,2,3:2:0:0:
82,317,13878,2,0,P|72:266|75:231,1,75,2|0,1:2|3:0,0:0:0:0:
0,140,14313,53,12,3:2:0:0:
0,140,14530,1,8,3:2:0:0:
107,113,14747,1,10,3:2:0:0:
107,113,14964,1,8,3:2:0:0:
209,32,15182,21,10,3:2:0:0:
204,120,15399,1,10,3:2:0:0:
296,123,15617,1,10,1:2:0:0:
301,35,15834,1,10,3:2:0:0:
407,96,16052,37,14,3:2:0:0:
407,96,16269,1,8,3:2:0:0:
390,202,16486,1,10,3:2:0:0:
390,202,16704,1,10,3:2:0:0:
395,325,16921,21,10,3:2:0:0:
316,268,17139,1,8,3:2:0:0:
220,279,17356,1,10,3:2:0:0:
159,351,17573,1,8,3:2:0:0:
98,270,17791,5,12,3:2:0:0:
98,270,17899,1,8,3:2:0:0:
98,270,18008,1,8,3:0:0:0:
98,270,18117,1,8,3:0:0:0:
98,270,18226,2,0,L|155:260,3,37.5,10|8|8|8,3:2|3:2|3:0|3:0,0:0:0:0:
153,232,18660,2,0,L|210:222,3,37.5,8|2|8|2,3:2|3:0|3:2|3:0,0:0:0:0:
199,203,19095,2,0,L|233:198,8,32.8125003129244,2|8|8|8|8|8|0|0|2,1:2|3:2|3:2|3:3|3:2|3:2|3:0|0:0|3:2,3:0:0:0:
256,192,19584,12,4,21269,0:0:0:0:
256,192,21704,21,8,0:3:0:0:
85,100,22030,1,8,0:3:0:0:
85,100,22139,1,8,0:3:0:0:
166,50,22356,1,2,0:0:0:0:
167,147,22573,2,0,L|169:221,1,56.2500021457673,8|0,0:3|0:0,0:0:0:0:
171,309,23008,21,10,0:3:0:0:
171,309,23226,1,2,0:0:0:0:
83,341,23443,1,8,0:3:0:0:
240,238,23769,1,8,0:3:0:0:
240,238,23878,1,8,0:3:0:0:
326,248,24095,1,2,0:0:0:0:
375,332,24313,1,8,0:3:0:0:
461,342,24530,1,2,0:0:0:0:
417,249,24747,38,0,L|425:178,1,56.2500021457673,10|0,1:3|0:0,0:0:0:0:
433,110,25182,1,8,0:3:0:0:
235,43,25508,1,8,0:3:0:0:
235,43,25617,1,8,0:3:0:0:
151,58,25834,1,2,0:0:0:0:
200,139,26052,1,8,0:3:0:0:
175,225,26269,1,2,0:0:0:0:
90,270,26486,22,0,P|87:208|72:147,1,112.500004291535,10|8,1:3|0:3,0:0:0:0:
33,89,27139,1,2,0:0:0:0:
182,73,27356,5,8,1:3:0:0:
174,171,27573,1,2,0:0:0:0:
281,74,27791,1,10,1:3:0:0:
273,172,28008,1,2,0:0:0:0:
368,125,28226,22,0,L|450:121,1,75,4|2,0:0|3:2,0:0:0:0:
485,219,28660,2,0,L|388:223,1,75,8|0,3:0|0:0,0:0:0:0:
410,222,28986,1,8,0:3:0:0:
410,222,29095,1,8,3:3:0:0:
304,204,29313,1,2,0:0:0:0:
317,305,29530,1,8,0:3:0:0:
214,254,29747,1,2,3:2:0:0:
214,254,29856,1,0,3:0:0:0:
214,254,29965,22,0,L|134:264,1,75,10|2,0:3|3:2,0:0:0:0:
55,362,30399,2,0,L|136:355,1,75,8|0,0:3|0:0,0:0:0:0:
129,355,30726,1,8,0:3:0:0:
129,355,30834,1,10,0:3:0:0:
239,348,31052,1,2,3:2:0:0:
344,261,31269,1,8,0:3:0:0:
333,358,31486,1,2,3:2:0:0:
254,250,31704,21,12,3:2:0:0:
254,250,31921,1,10,3:2:0:0:
272,147,32139,1,8,3:2:0:0:
272,147,32356,1,8,3:2:0:0:
178,38,32573,21,10,3:2:0:0:
189,137,32791,1,8,3:2:0:0:
84,150,33008,1,8,3:2:0:0:
73,51,33226,1,10,3:2:0:0:
151,232,33443,21,14,3:2:0:0:
151,232,33552,1,0,1:0:0:0:
151,232,33660,1,10,3:2:0:0:
151,232,33769,1,0,1:0:0:0:
151,232,33878,2,0,L|200:226,3,37.5,10|8|2|10,1:3|3:2|1:2|3:2,0:0:0:0:
210,252,34313,2,0,L|259:246,3,37.5,8|0|2|2,1:3|1:0|1:2|1:2,0:0:0:0:
267,276,34747,2,0,L|306:272,6,32.8125003129244,0|0|0|0|0|0|0,1:0|1:0|1:0|1:0|1:0|1:0|1:0,1:0:0:0:
338,300,35182,22,0,P|353:233|385:135,1,168.750006437302,4|2,0:0|0:0,0:0:0:0:
368,45,36052,1,8,0:0:0:0:
368,45,36269,2,0,P|415:58|466:60,2,84.3750032186509,8|8|8,3:0|3:0|3:0,0:0:0:0:
302,110,37139,38,2,B|261:104|243:135|243:135|176:114|133:148,1,179.999994506836,0|0,0:2|0:2,0:2:0:0:
43,139,37791,1,8,0:0:0:0:
43,139,38008,1,8,0:3:0:0:
80,227,38226,2,0,L|72:286,2,44.999998626709,0|8|2,3:0|0:3|0:0,0:0:0:0:
141,328,38660,22,0,P|150:277|264:237,1,168.750006437302,2|0,0:0|3:0,0:0:0:0:
340,292,39530,1,8,0:0:0:0:
340,292,39747,2,0,P|336:336|334:385,2,84.3750032186509,8|0|8,3:0|3:0|3:0,0:0:0:0:
427,262,40617,38,2,B|447:195|392:184|422:98,1,150,2|0,0:0|0:0,0:0:0:0:
373,34,41269,2,0,L|255:49,1,89.9999972534181,8|8,0:0|3:0,0:0:0:0:
268,75,41595,2,0,L|150:90,1,89.9999972534181,8|8,0:0|3:3,0:0:0:0:
139,121,41921,1,8,0:0:0:0:
45,62,42139,38,0,P|50:122|44:216,1,150,12|0,3:2|3:0,3:0:0:0:
60,319,42791,1,8,1:3:0:0:
60,319,42899,1,0,3:0:0:0:
60,319,43008,2,0,L|19:327,3,25,8|0|0|0,1:2|3:0|3:2|3:0,3:0:0:0:
148,245,43443,1,2,3:2:0:0:
193,345,43660,38,0,P|247:364|283:361,1,75,8|2,3:0|3:0,3:0:0:0:
315,219,44095,2,0,P|274:240|251:276,1,75,8|2,3:2|3:2,3:0:0:0:
370,318,44530,1,0,1:0:0:0:
370,318,44639,1,0,3:0:0:0:
370,318,44747,2,0,L|385:275,3,25,8|0|0|0,1:2|3:0|3:0|3:0,3:0:0:0:
467,357,45182,2,0,L|482:314,3,25,2|0|0|2,3:0|3:0|3:0|3:2,3:0:0:0:
451,260,45617,22,0,P|452:219|439:101,1,150,8|0,3:0|3:0,3:0:0:0:
424,14,46269,1,0,1:0:0:0:
424,14,46378,1,0,1:0:0:0:
424,14,46486,2,0,L|460:16,3,25,8|0|0|2,3:2|3:0|3:0|3:2,3:0:0:0:
370,91,46921,1,2,3:2:0:0:
303,28,47139,53,8,3:0:0:0:
231,101,47356,1,2,3:0:0:0:
153,31,47573,2,0,P|103:23|6:34,1,112.5,14|8,3:0|3:0,0:0:0:0:
18,62,48008,1,8,3:0:0:0:
18,62,48117,2,0,P|16:114|10:162,1,75,8|8,3:0|3:2,0:0:0:0:
28,255,48552,1,8,0:3:0:0:
124,185,48769,1,8,3:0:0:0:
124,185,48878,2,0,L|175:184,2,37.5,8|0|4,3:0|1:0|0:0,0:0:0:0:
334,291,49530,37,8,3:0:0:0:
334,291,49639,1,8,3:0:0:0:
334,291,49747,1,4,3:2:0:0:
404,104,50182,1,12,0:2:0:0:
187,50,50617,5,2,0:0:0:0:
187,50,50834,2,2,P|193:139|191:198,1,134.999995880127,4|0,0:0|3:0,0:0:0:0:
187,213,51269,1,8,3:2:0:0:
76,187,51486,1,2,0:0:0:0:
102,300,51704,1,2,1:2:0:0:
76,187,51921,2,0,P|79:90|79:89,1,89.9999972534181,2|8,0:0|1:2,0:0:0:0:
178,37,52356,1,2,0:0:0:0:
178,37,52465,1,0,0:0:0:0:
178,37,52573,22,2,B|238:23|236:74|322:48,1,134.999995880127,2|0,1:2|3:0,0:0:0:0:
347,27,53008,1,8,0:0:0:0:
307,141,53226,2,2,P|301:196|308:234,1,89.9999972534181,2|0,0:0|1:0,0:0:0:0:
444,231,53660,2,2,P|450:176|443:138,1,89.9999972534181,2|8,0:0|0:0,0:0:0:0:
373,305,54095,1,2,0:0:0:0:
266,301,54313,37,2,1:2:0:0:
266,301,54421,1,0,0:0:0:0:
266,301,54530,1,0,3:0:0:0:
266,301,54639,1,0,3:0:0:0:
266,301,54747,2,0,L|164:295,1,89.9999972534181,8|2,3:2|0:0,0:0:0:0:
65,355,55182,1,2,1:2:0:0:
98,254,55399,2,0,P|109:199|106:145,1,89.9999972534181,2|8,0:0|0:0,0:0:0:0:
128,32,55834,1,2,0:0:0:0:
51,82,56052,22,0,P|118:77|210:80,1,134.999995880127,2|0,1:2|3:0,0:0:0:0:
217,108,56486,1,10,3:2:0:0:
323,54,56704,2,2,P|379:51|425:56,1,89.9999972534181,2|0,0:2|1:0,0:0:0:0:
418,79,57030,2,0,L|411:178,1,89.9999972534181,8|0,1:2|3:0,0:0:0:0:
400,197,57356,1,8,0:0:0:0:
440,299,57573,1,2,3:2:0:0:
330,279,57791,38,0,P|278:273|191:290,1,134.999995880127,4|0,1:2|3:0,0:0:0:0:
157,307,58226,2,0,L|169:211,1,89.9999972534181,10|2,3:2|3:2,0:0:0:0:
182,117,58660,1,0,1:2:0:0:
76,55,58878,2,0,L|80:168,1,89.9999972534181,2|8,3:0|0:0,0:0:0:0:
49,290,59313,1,0,3:0:0:0:
49,290,59421,1,0,3:0:0:0:
49,290,59530,22,0,P|100:278|158:293,1,89.9999972534181,4|2,3:2|0:0,0:0:0:0:
275,351,59965,2,0,P|225:318|219:279,1,89.9999972534181,8|0,3:2|0:0,0:0:0:0:
289,184,60399,1,0,1:0:0:0:
293,282,60617,1,2,0:0:0:0:
379,207,60834,2,0,L|368:104,1,89.9999972534181,8|2,0:0|3:2,0:0:0:0:
384,84,61160,1,0,3:0:0:0:
384,84,61269,38,0,L|251:96,1,89.9999972534181,6|0,1:2|3:0,0:0:0:0:
194,58,61704,1,8,0:0:0:0:
212,159,61921,2,2,B|223:206|184:231|210:301,2,134.999995880127,2|2|10,0:0|0:0|0:0,0:0:0:0:
111,115,62791,1,2,3:0:0:0:
86,224,63008,54,0,L|77:278,1,44.999998626709,6|0,1:1|1:0,0:0:0:0:
290,268,63334,2,0,L|281:214,1,44.999998626709,2|0,1:1|1:0,0:0:0:0:
204,25,63660,2,0,L|212:180,1,134.999995880127,2|0,1:1|1:0,0:0:0:0:
195,197,64095,21,4,1:0:0:0:
310,134,64313,1,2,1:0:0:0:
379,244,64530,1,2,1:2:0:0:
443,111,64747,54,2,P|435:57|442:8,1,89.9999972534181,4|2,1:2|3:0,0:0:0:0:
438,21,65073,1,0,3:0:0:0:
438,21,65182,1,8,3:2:0:0:
336,16,65399,1,2,0:0:0:0:
321,116,65617,1,2,1:2:0:0:
220,77,65834,2,2,P|162:74|98:80,1,89.9999972534181,2|8,0:0|0:0,0:0:0:0:
39,184,66269,1,2,3:2:0:0:
39,184,66378,1,0,0:0:0:0:
39,184,66486,22,2,L|130:177,1,89.9999972534181,2|0,1:2|0:0,0:0:0:0:
226,171,66921,1,10,3:2:0:0:
183,266,67139,2,2,P|117:269|67:275,1,89.9999972534181,2|0,3:2|1:0,0:0:0:0:
221,348,67573,2,2,P|287:345|337:339,1,89.9999972534181,2|8,0:0|0:0,0:0:0:0:
429,371,68008,1,2,3:2:0:0:
429,371,68117,1,0,3:0:0:0:
429,371,68226,6,0,P|417:307|428:211,1,134.999995880127,2|2,1:2|3:2,0:0:0:0:
458,210,68660,1,8,3:2:0:0:
411,103,68878,1,2,3:2:0:0:
319,158,69095,1,2,1:2:0:0:
319,158,69204,2,0,P|228:165|172:163,1,134.999995880127,2|8,0:0|0:0,0:0:0:0:
93,82,69747,21,2,3:2:0:0:
73,196,69965,1,2,1:0:0:0:
73,196,70073,1,0,0:0:0:0:
73,196,70182,1,0,0:0:0:0:
5,104,70399,1,10,0:0:0:0:
21,284,70617,2,2,P|76:277|133:282,1,89.9999972534181,2|0,0:0|1:0,3:0:0:0:
245,211,71052,2,0,P|256:267|251:308,1,89.9999972534181,2|8,3:1|0:0,0:0:0:0:
169,360,71486,1,0,3:0:0:0:
169,360,71595,1,0,3:0:0:0:
169,360,71704,53,4,1:2:0:0:
160,224,71921,38,2,B|149:162|190:156|173:71,1,134.999995880127,2|0,0:0|3:0,0:0:0:0:
145,59,72356,1,2,3:2:0:0:
250,24,72573,1,0,1:0:0:0:
281,122,72791,1,2,0:0:0:0:
367,48,73008,2,0,P|415:51|485:49,1,89.9999972534181,8|0,0:0|3:0,0:0:0:0:
477,40,73334,1,0,3:0:0:0:
477,40,73443,6,0,L|465:151,1,89.9999972534181,4|2,1:2|3:2,0:0:0:0:
445,255,73878,1,8,2:0:0:0:
364,179,74095,2,2,B|301:162|303:218|214:208,1,134.999995880127,2|0,0:0|3:0,0:0:0:0:
208,245,74530,2,0,P|157:233|112:243,1,89.9999972534181,2|8,3:2|0:0,0:0:0:0:
36,319,74965,1,2,0:0:0:0:
36,319,75073,1,0,0:0:0:0:
36,319,75182,22,0,L|49:168,1,134.999995880127,6|0,1:0|3:0,0:0:0:0:
74,168,75617,2,0,L|82:63,1,89.9999972534181,8|2,3:2|0:0,0:0:0:0:
192,137,76052,2,0,L|287:143,1,89.9999972534181,0|0,1:0|0:0,0:0:0:0:
397,97,76486,1,2,1:0:0:0:
373,193,76704,1,2,0:0:0:0:
362,306,76921,54,0,L|397:353,1,44.999998626709,4|0,1:2|1:0,0:0:0:0:
150,306,77247,2,0,L|115:353,1,44.999998626709,2|0,1:2|1:0,0:0:0:0:
165,154,77573,2,0,L|154:96,1,44.999998626709,2|0,1:2|1:0,0:0:0:0:
347,154,77899,2,0,L|358:96,1,44.999998626709,0|0,1:0|1:0,0:0:0:0:
257,8,78226,1,2,1:2:0:0:
257,51,78334,1,0,1:0:0:0:
257,94,78443,1,2,1:2:0:0:
252,219,78660,21,8,3:2:0:0:
252,219,78878,1,8,3:2:0:0:
138,195,79095,1,8,3:2:0:0:
138,195,79313,1,8,3:2:0:0:
53,295,79530,21,10,3:2:0:0:
14,186,79747,1,8,3:2:0:0:
104,116,79965,1,8,3:2:0:0:
66,18,80182,1,8,3:2:0:0:
182,43,80399,5,2,1:0:0:0:
182,43,80508,1,8,3:2:0:0:
182,43,80617,1,0,1:0:0:0:
182,43,80726,1,8,3:2:0:0:
182,43,80834,2,0,L|241:32,3,44.999998626709,2|2|0|2,1:2|1:3|1:0|1:3,0:0:0:0:
216,91,81269,2,0,L|208:151,1,44.999998626709,2|8,1:0|1:3,0:0:0:0:
294,222,81595,2,0,L|286:282,1,44.999998626709,2|8,1:0|1:3,0:0:0:0:
174,353,81921,2,0,L|182:293,2,44.999998626709,2|2|0,1:0|1:2|1:0,0:0:0:0:
46,137,83008,6,0,L|170:128,1,112.500004291535,2|0,0:0|0:0,0:0:0:0:
413,193,83878,6,0,P|419:138|413:79,1,112.500004291535,6|0,1:0|0:0,0:0:0:0:
413,81,84204,2,0,L|286:82,1,112.500004291535,2|0,1:0|0:0,0:0:0:0:
284,102,84530,1,8,0:0:0:0:
183,26,84747,38,0,P|189:81|183:140,1,112.500004291535,6|0,1:0|0:0,0:0:0:0:
183,138,85073,2,0,L|56:136,1,112.500004291535,2|0,1:0|0:0,0:0:0:0:
56,123,85399,1,8,0:0:0:0:
23,232,85617,22,8,L|21:263,16,28.1250010728836,2|8|8|8|8|8|2|8|8|8|8|8|2|8|8|8|4,3:1|3:0|3:0|3:0|3:0|3:0|3:1|3:0|3:0|3:0|3:0|3:0|3:1|3:0|3:0|3:0|3:2,3:0:0:0:
370,102,87356,1,4,0:0:0:0:
256,192,87465,12,2,90834,0:0:0:0:
66,305,94313,54,0,B|54:276|54:276|64:216,1,75,2|0,3:2|3:0,0:0:0:0:
44,194,94639,1,0,0:0:0:0:
44,194,94747,2,0,L|132:195,1,75,8|0,0:0|3:0,0:0:0:0:
213,157,95182,1,2,0:0:0:0:
208,251,95399,1,0,0:0:0:0:
303,205,95617,1,8,3:2:0:0:
303,205,95726,1,0,0:0:0:0:
303,205,95834,54,2,B|299:155|299:155|323:136|323:136|315:71,1,134.999995880127,2|0,0:0|3:0,0:3:0:0:
312,45,96269,2,0,L|410:37,1,89.9999972534181,2|8,3:2|0:0,0:0:0:0:
498,22,96704,1,2,3:2:0:0:
457,124,96921,1,10,3:0:0:0:
457,124,97030,2,0,B|438:166|438:166|447:230,1,89.9999972534181,8|0,0:0|0:0,0:0:0:0:
444,209,97356,2,0,L|459:313,1,89.9999972534181,8|2,1:2|3:0,0:0:0:0:
365,359,97791,5,8,1:3:0:0:
365,359,97899,1,0,1:0:0:0:
365,359,98008,1,8,1:2:0:0:
365,359,98117,1,2,1:3:0:0:
365,359,98226,2,0,L|389:310,3,37.5,10|0|8|0,1:2|1:0|1:2|1:0,0:0:0:0:
347,293,98660,2,0,L|344:243,3,37.5,10|2|2|2,1:2|1:3|1:2|1:3,0:0:0:0:
309,239,99095,2,0,L|297:201,6,32.8125003129244,0|0|0|0|0|0|0,1:0|1:0|1:0|1:0|1:0|1:0|1:0,1:0:0:0:
282,271,99530,6,0,L|193:278,2,75,2|2|0,0:0|0:0|0:0,0:0:0:0:
394,259,100182,1,2,0:0:0:0:
460,215,100399,1,0,0:0:0:0:
376,169,100617,1,0,0:0:0:0:
508,126,100834,1,2,0:0:0:0:
391,59,101052,1,2,0:0:0:0:
376,169,101269,22,4,P|368:239|367:259,2,84.3750032186509,0|2|0,0:0|0:0|3:0,0:0:0:0:
470,165,102139,2,0,L|465:104,1,56.2500021457673,8|2,0:3|0:0,0:0:0:0:
385,57,102573,1,8,3:0:0:0:
385,57,102682,1,0,3:0:0:0:
385,57,102791,1,2,3:2:0:0:
328,134,103008,38,0,P|288:137|242:144,1,84.3750032186509,8|2,0:3|0:0,0:0:0:0:
225,164,103443,2,0,L|157:164,1,56.2500021457673,8|2,0:3|0:0,0:0:0:0:
69,116,103878,2,0,L|73:175,1,56.2500021457673,8|2,0:3|0:0,0:0:0:0:
142,254,104313,1,10,0:3:0:0:
142,254,104421,1,0,3:0:0:0:
142,254,104530,1,2,0:0:0:0:
142,254,104639,1,0,3:0:0:0:
142,254,104747,22,0,L|134:354,2,84.3750032186509,8|2|2,0:3|0:0|3:2,0:0:0:0:
223,315,105617,2,0,L|288:319,1,56.2500021457673,8|2,3:3|0:0,0:0:0:0:
375,354,106052,1,8,0:3:0:0:
375,354,106160,1,0,0:0:0:0:
375,354,106269,1,2,3:2:0:0:
344,262,106486,37,8,3:0:0:0:
431,226,106704,1,2,3:2:0:0:
464,317,106921,1,8,3:0:0:0:
444,119,107247,1,0,0:0:0:0:
444,119,107356,1,8,0:3:0:0:
349,145,107573,1,2,3:0:0:0:
253,78,107791,1,8,0:3:0:0:
158,104,108008,1,2,3:0:0:0:
48,36,108226,6,0,P|51:121|47:163,1,112.5,2|2,1:2|1:2,0:0:0:0:
34,335,108878,2,0,P|36:285|41:257,1,75,2|8,1:2|3:3,0:0:0:0:
135,215,109313,1,2,1:2:0:0:
210,306,109530,1,8,1:2:0:0:
210,306,109639,1,0,3:0:0:0:
210,306,109747,1,2,3:2:0:0:
271,209,109965,6,0,P|333:207|395:212,1,112.5,2|2,1:2|1:2,0:0:0:0:
473,79,110617,2,0,L|478:158,1,75,2|8,1:2|3:0,0:0:0:0:
487,259,111052,1,2,1:2:0:0:
393,326,111269,2,0,L|340:331,2,37.5,8|0|2,3:2|3:0|3:0,0:0:0:0:
368,231,111704,5,10,3:2:0:0:
368,231,111921,1,8,3:2:0:0:
253,282,112139,1,8,3:2:0:0:
253,282,112356,1,8,3:2:0:0:
294,176,112573,5,8,3:2:0:0:
221,89,112791,1,8,3:2:0:0:
129,121,113008,1,8,3:2:0:0:
122,226,113226,1,8,3:2:0:0:
27,165,113443,1,14,3:2:0:0:
27,165,113552,1,0,1:0:0:0:
27,165,113660,1,10,3:2:0:0:
27,165,113769,1,0,1:0:0:0:
27,165,113878,2,0,L|36:116,3,37.5,8|8|2|10,1:3|3:2|1:2|3:2,0:0:0:0:
75,113,114313,2,0,L|84:64,3,37.5,8|0|2|2,1:3|1:0|1:2|1:2,0:0:0:0:
121,82,114747,2,0,L|126:47,6,32.8125003129244,0|0|0|0|2|0|2,1:0|1:0|1:0|1:0|1:2|1:0|1:2,1:0:0:0:
158,34,115182,22,0,P|190:42|276:53,1,112.500004291535,4|0,3:2|3:0,0:0:0:0:
373,35,115834,53,8,1:3:0:0:
373,35,115943,1,0,3:0:0:0:
373,35,116052,2,0,L|379:81,3,25,10|0|0|0,3:2|3:0|3:0|3:0,0:0:0:0:
480,3,116486,1,2,3:2:0:0:
467,94,116704,22,0,L|459:181,1,75,8|0,3:0|0:0,3:0:0:0:
337,273,117139,2,0,P|351:230|381:208,1,75,10|0,3:0|3:0,3:0:0:0:
451,296,117573,1,0,1:2:0:0:
451,296,117682,1,0,3:0:0:0:
451,296,117791,2,0,L|489:305,3,25,10|0|0|0,3:2|3:0|3:0|3:0,0:0:0:0:
345,360,118226,2,0,L|307:369,3,25,2|0|0|0,3:2|3:0|3:0|3:0,0:0:0:0:
337,273,118660,54,0,P|299:267|214:278,1,112.500004291535,2|0,1:2|3:0,0:0:0:0:
110,321,119313,53,8,3:0:0:0:
110,321,119421,1,0,0:0:0:0:
110,321,119530,2,0,L|116:357,3,25,10|0|0|0,3:2|3:0|3:0|3:0,0:0:0:0:
199,357,119965,1,2,3:2:0:0:
146,221,120182,2,0,L|65:217,1,75,8|0,3:0|0:0,0:0:0:0:
213,129,120617,2,0,L|294:133,1,75,10|0,3:0|3:0,0:0:0:0:
377,193,121052,1,8,3:0:0:0:
377,193,121160,1,8,3:0:0:0:
377,193,121269,38,0,P|389:140|428:117,1,89.9999972534181,8|8,3:2|3:0,0:0:0:0:
466,123,121595,2,0,L|473:225,1,89.9999972534181,8|8,3:2|3:0,0:0:0:0:
495,248,121921,1,8,3:2:0:0:
438,361,122139,6,0,P|437:315|374:272,1,112.500004291535,6|2,0:0|3:2,0:0:0:0:
311,328,122791,21,8,3:0:0:0:
311,328,122899,1,0,0:0:0:0:
311,328,123008,2,0,L|317:367,3,25,8|0|0|0,3:2|3:0|3:0|3:0,0:0:0:0:
276,233,123443,1,0,3:0:0:0:
276,233,123660,6,0,L|176:240,1,75,8|0,3:0|3:2,0:0:0:0:
102,199,124095,2,0,P|126:252|127:281,1,75,2|0,1:2|3:0,0:0:0:0:
66,361,124530,1,0,1:0:0:0:
66,361,124639,1,8,3:0:0:0:
66,361,124747,2,0,L|26:365,3,25,8|0|0|2,3:2|3:0|3:0|3:2,0:0:0:0:
181,331,125182,2,0,L|221:335,3,25,0|0|0|2,3:0|3:0|3:0|0:0,0:0:0:0:
296,379,125617,22,0,P|297:332|285:226,1,150,2|2,1:0|3:0,0:0:0:0:
336,139,126269,1,8,3:0:0:0:
336,139,126378,1,0,0:0:0:0:
336,139,126486,2,0,L|347:104,3,25,8|0|0|2,3:2|3:0|3:0|3:0,0:0:0:0:
288,32,126921,1,2,3:2:0:0:
207,97,127139,6,0,L|113:105,1,75,10|0,3:0|3:0,0:0:0:0:
28,191,127573,2,0,P|66:187|164:180,1,112.5,6|8,3:0|3:0,0:0:0:0:
167,209,128008,1,8,3:0:0:0:
167,209,128117,2,0,P|222:206|262:213,1,75,8|8,3:0|3:2,0:0:0:0:
370,249,128552,1,8,3:0:0:0:
277,343,128769,1,8,3:2:0:0:
277,343,128878,2,0,L|268:292,2,37.5,8|0|4,3:0|1:0|3:2,0:0:0:0:
424,165,129530,37,8,3:0:0:0:
424,165,129639,1,8,3:0:0:0:
424,165,129747,1,4,3:2:0:0:
177,38,130182,1,4,0:0:0:0:
55,255,130617,5,2,0:0:0:0:
55,255,130834,2,2,P|109:249|153:248,1,89.9999972534181,6|0,1:2|3:0,0:0:0:0:
234,301,131269,1,8,3:2:0:0:
227,183,131486,1,2,0:0:0:0:
227,183,131595,1,0,0:0:0:0:
227,183,131704,1,2,1:2:0:0:
332,236,131921,2,2,P|377:231|447:231,1,89.9999972534181,2|8,0:0|1:2,0:0:0:0:
500,131,132356,1,2,3:2:0:0:
419,45,132573,22,0,B|368:58|328:34|272:41,1,134.999995880127,2|0,1:2|3:0,0:0:0:0:
252,64,133008,1,10,3:2:0:0:
318,149,133226,2,2,P|328:199|313:255,1,89.9999972534181,2|0,0:0|1:0,0:0:0:0:
208,365,133660,2,2,L|218:262,1,89.9999972534181,2|8,0:0|1:2,0:0:0:0:
171,167,134095,1,2,3:2:0:0:
171,167,134204,1,0,3:3:0:0:
171,167,134313,38,2,P|125:183|25:128,1,134.999995880127,2|0,1:2|3:0,0:0:0:0:
38,148,134747,2,0,P|53:77|52:46,1,89.9999972534181,8|2,3:2|0:0,0:0:0:0:
141,12,135182,1,2,1:2:0:0:
229,78,135399,2,0,L|281:79,2,44.999998626709,2|0|8,0:0|0:0|3:2,0:0:0:0:
150,164,135834,1,2,3:2:0:0:
222,252,136052,21,2,1:2:0:0:
222,252,136160,2,0,L|334:249,1,89.9999972534181,0|0,3:0|3:0,0:0:0:0:
349,264,136486,1,10,3:2:0:0:
338,138,136704,2,2,P|339:76|366:38,1,89.9999972534181,2|0,0:0|1:2,0:0:0:0:
346,32,137030,1,8,3:2:0:0:
346,32,137139,2,0,L|453:42,1,89.9999972534181,2|8,1:2|0:2,0:0:0:0:
499,146,137573,1,2,3:2:0:0:
499,146,137791,38,0,P|439:153|411:188,1,89.9999972534181,4|0,1:2|3:0,0:0:0:0:
364,268,138226,1,10,3:2:0:0:
312,162,138443,1,2,0:0:0:0:
330,42,138660,1,0,1:0:0:0:
225,85,138878,2,2,P|184:80|134:78,1,89.9999972534181,2|8,0:0|0:0,0:0:0:0:
19,39,139313,21,0,3:0:0:0:
19,39,139421,1,0,3:0:0:0:
19,39,139530,1,4,1:2:0:0:
46,144,139747,1,2,3:2:0:0:
13,260,139965,1,8,0:0:0:0:
146,166,140182,1,2,3:0:0:0:
113,282,140400,1,0,1:0:0:0:
228,324,140617,1,2,0:0:0:0:
267,204,140834,2,0,P|320:191|375:194,1,89.9999972534181,10|2,0:0|3:0,0:0:0:0:
391,210,141160,1,0,3:0:0:0:
391,210,141269,38,0,P|386:266|388:346,2,134.999995880127,6|2|2,1:2|0:0|0:0,0:0:0:0:
461,128,142139,1,0,1:0:0:0:
461,128,142247,2,0,P|462:64|429:26,1,89.9999972534181,2|0,0:0|0:0,0:0:0:0:
418,20,142573,1,10,0:0:0:0:
340,103,142791,1,2,3:0:0:0:
209,55,143008,54,0,L|150:69,1,44.999998626709,6|0,1:0|1:0,0:0:0:0:
208,240,143334,2,0,L|149:226,1,44.999998626709,2|0,1:0|1:0,0:0:0:0:
42,124,143660,2,0,L|45:270,1,134.999995880127,2|0,1:0|1:0,0:0:0:0:
34,305,144095,21,6,1:2:0:0:
141,352,144313,1,2,1:0:0:0:
226,255,144530,1,2,1:2:0:0:
325,346,144747,54,2,P|375:347|426:356,1,89.9999972534181,6|0,1:2|3:0,0:0:0:0:
454,370,145073,1,0,3:0:0:0:
454,370,145182,2,0,P|464:293|467:244,1,89.9999972534181,8|2,3:2|0:0,0:0:0:0:
487,161,145617,1,2,1:2:0:0:
383,207,145834,2,2,P|325:216|280:215,1,89.9999972534181,2|8,0:0|0:0,0:0:0:0:
215,128,146269,1,2,3:2:0:0:
158,234,146486,22,2,P|146:292|146:372,1,134.999995880127,2|0,1:2|3:0,0:0:0:0:
170,382,146921,1,10,1:2:0:0:
53,287,147139,2,2,P|47:230|64:185,1,89.9999972534181,2|0,0:0|1:0,0:0:0:0:
232,301,147573,2,2,L|364:295,1,89.9999972534181,2|8,0:0|0:0,0:0:0:0:
441,279,148008,1,2,3:2:0:0:
366,194,148226,5,2,1:2:0:0:
366,194,148335,1,0,0:0:0:0:
366,194,148444,1,0,3:0:0:0:
366,194,148553,1,0,3:0:0:0:
366,194,148661,1,8,3:2:0:0:
480,224,148878,1,2,0:0:0:0:
450,115,149095,1,2,1:2:0:0:
415,11,149313,2,2,P|357:21|295:19,1,89.9999972534181,2|8,0:0|0:0,0:0:0:0:
199,16,149747,1,2,3:2:0:0:
199,16,149856,1,0,0:0:0:0:
199,16,149965,22,0,B|213:76|189:104|204:180,1,134.999995880127,2|0,1:0|3:0,0:0:0:0:
227,194,150399,1,10,3:2:0:0:
103,168,150617,2,2,P|88:119|103:69,1,89.9999972534181,2|0,0:0|1:0,0:3:0:0:
167,283,151052,2,0,P|167:341|157:384,1,89.9999972534181,2|8,1:0|3:2,0:0:0:0:
53,304,151486,1,2,3:2:0:0:
53,304,151595,1,0,3:0:0:0:
53,304,151704,53,6,1:2:0:0:
171,208,151921,38,2,P|215:197|326:210,1,134.999995880127,2|0,0:0|3:0,0:0:0:0:
322,225,152356,2,0,L|440:227,1,89.9999972534181,2|0,3:2|1:0,0:0:0:0:
448,86,152791,2,2,P|396:105|371:144,1,89.9999972534181,2|8,0:0|0:0,0:0:0:0:
263,155,153226,1,0,3:0:0:0:
263,155,153334,1,0,3:0:0:0:
263,155,153443,53,6,1:2:0:0:
227,46,153660,1,2,0:0:0:0:
119,85,153878,1,10,3:2:0:0:
150,204,154095,2,2,P|159:278|153:369,1,134.999995880127,2|0,0:0|3:0,0:0:0:0:
156,364,154530,2,0,L|45:354,1,89.9999972534181,2|8,3:2|0:0,0:0:0:0:
66,252,154965,1,0,3:0:0:0:
66,252,155073,1,0,3:0:0:0:
66,252,155182,54,0,P|130:253|278:275,1,179.999994506836,6|8,1:0|3:2,0:0:0:0:
343,342,155834,1,0,3:0:0:0:
343,342,155943,1,0,3:0:0:0:
343,342,156052,2,0,P|292:344|229:336,1,89.9999972534181,2|2,1:2|3:0,0:0:0:0:
254,190,156486,2,0,P|253:133|249:87,1,89.9999972534181,2|2,1:0|3:0,0:0:0:0:
143,36,156921,54,0,L|184:75,1,44.999998626709,4|0,1:2|1:0,0:0:0:0:
369,36,157247,2,0,L|328:75,1,44.999998626709,2|0,1:2|1:0,0:0:0:0:
145,213,157573,2,0,L|189:189,1,44.999998626709,2|0,1:2|1:0,0:0:0:0:
367,213,157899,2,0,L|323:189,1,44.999998626709,0|0,1:0|1:0,0:0:0:0:
256,17,158226,1,2,1:2:0:0:
256,48,158334,1,0,1:0:0:0:
256,79,158443,1,2,1:2:0:0:
256,212,158660,5,12,3:2:0:0:
256,212,158878,1,8,3:2:0:0:
164,137,159095,1,8,3:2:0:0:
164,137,159313,1,8,3:2:0:0:
58,197,159530,1,10,3:2:0:0:
151,258,159747,1,8,3:2:0:0:
85,355,159965,1,8,3:2:0:0:
224,345,160182,1,8,3:2:0:0:
294,255,160399,53,2,1:0:0:0:
294,255,160508,1,8,3:2:0:0:
294,255,160617,1,0,1:0:0:0:
294,255,160726,1,8,3:2:0:0:
294,255,160834,2,0,L|288:191,3,44.999998626709,2|2|0|2,1:2|1:3|1:0|1:3,0:0:0:0:
324,186,161269,2,0,L|330:122,1,44.999998626709,2|8,1:0|1:3,0:0:0:0:
428,15,161595,2,0,L|422:79,1,44.999998626709,2|8,1:0|1:3,0:0:0:0:
467,221,161921,2,0,L|473:157,2,44.999998626709,2|2|4,1:0|1:2|1:2,0:0:0:0:
46,137,163008,6,0,L|170:128,1,112.500004291535,2|0,0:0|0:0,0:0:0:0:
438,243,163878,6,0,P|398:294|394:345,1,89.9999972534181,6|0,1:0|0:0,0:0:0:0:
350,348,164204,2,0,P|325:308|321:227,1,89.9999972534181,2|0,1:0|0:0,0:0:0:0:
328,222,164530,1,8,1:2:0:0:
201,265,164747,38,0,P|161:316|157:367,1,89.9999972534181,6|0,1:0|0:0,0:0:0:0:
113,370,165073,2,0,P|88:330|84:249,1,89.9999972534181,2|0,1:0|0:0,0:0:0:0:
91,244,165399,1,8,1:2:0:0:
71,137,165617,22,8,L|38:140,16,22.4999993133545,2|8|8|8|8|8|2|8|8|8|8|8|2|8|8|8|4,3:1|3:0|3:0|3:0|3:0|3:0|1:0|3:0|3:0|3:0|3:0|3:0|1:0|3:0|3:0|3:0|0:0,3:0:0:0:
255,45,167356,37,4,0:0:0:0:
255,339,168226,1,6,1:0:0:0:
255,45,168878,1,4,0:0:0:0:
167,194,169313,1,0,1:0:0:0:
256,195,169530,1,2,1:2:0:0:
345,194,169747,1,4,0:0:0:0:
456,37,170182,5,0,1:0:0:0:
395,123,170399,1,2,1:2:0:0:
490,193,170617,1,2,1:2:0:0:
395,284,170834,1,4,0:0:0:0:
117,100,171704,1,6,1:0:0:0:
256,323,172139,53,0,1:2:0:0:
256,234,172356,1,0,1:2:0:0:
256,145,172573,1,6,1:2:0:0:
71,334,173008,5,0,1:3:0:0:
46,220,173226,1,2,0:0:0:0:
46,220,173660,53,2,1:0:0:0:
135,258,173878,1,2,3:2:0:0:
184,165,174095,1,2,1:0:0:0:
258,237,174313,22,4,P|310:249|360:246,1,75,4|0,1:0|0:0,0:0:0:0:
372,269,174639,1,0,3:0:0:0:
372,269,174747,2,0,L|381:163,1,75,2|0,3:1|3:0,0:0:0:0:
467,118,175182,38,2,B|399:109|399:109|331:121|331:121|253:106,1,194.999991073609,4|0,0:0|0:0,0:3:0:0:
172,47,175834,53,2,0:0:0:0:
183,164,176052,1,2,1:2:0:0:
183,164,176160,1,0,0:0:0:0:
183,164,176269,1,2,3:0:0:0:
71,89,176486,1,2,3:2:0:0:
87,215,176704,6,2,B|101:268|101:268|75:324|75:324,2,97.4999955368044,2|8|2,3:1|1:2|0:1,0:3:0:0:
71,89,177356,21,2,3:2:0:0:
71,89,177573,1,2,1:1:0:0:
179,158,177791,54,0,L|276:168,1,75,10|0,3:0|0:0,0:3:0:0:
280,199,178117,1,0,0:0:0:0:
280,199,178226,2,0,L|377:209,1,75,2|0,3:2|3:0,0:0:0:0:
479,295,178660,54,2,B|411:304|411:304|343:292|343:292|265:307,1,194.999991073609,10|2,1:2|3:0,0:3:0:0:
192,362,179313,21,2,3:2:0:0:
192,362,179421,1,0,0:0:0:0:
192,362,179530,2,0,L|195:272,1,75,8|0,3:0|3:0,0:0:0:0:
123,207,179965,1,2,3:0:0:0:
123,207,180073,1,2,3:0:0:0:
123,207,180182,1,2,0:1:0:0:
60,280,180399,1,8,0:0:0:0:
39,139,180617,1,2,1:0:0:0:
181,116,180834,1,10,1:2:0:0:
203,217,181052,1,2,1:0:0:0:
203,217,181160,1,8,3:0:0:0:
203,217,181269,38,2,P|243:211|378:219,1,168.750006437302,4|0,0:0|0:0,0:3:0:0:
470,262,182139,21,10,1:2:0:0:
438,186,182356,2,0,L|436:113,1,56.2500021457673,2|0,3:1|0:0,0:0:0:0:
480,50,182791,1,8,3:0:0:0:
480,50,182899,1,0,3:0:0:0:
480,50,183008,54,0,B|446:49|425:43|425:43|389:66,2,84.3750032186509,6|2|8,1:0|1:0|3:0,0:0:0:0:
365,134,183878,2,0,P|319:130|297:136,1,56.2500021457673,8|0,1:2|0:0,0:0:0:0:
240,230,184313,2,2,L|232:161,1,56.2500021457673,0|0,0:0|0:0,0:0:0:0:
140,74,184747,54,2,P|148:124|134:246,1,168.750006437302,8|0,1:3|0:0,0:3:0:0:
192,356,185617,54,0,B|162:349|162:349|133:363|133:363|84:353,1,97.4999955368044,8|2,1:2|3:1,0:0:0:0:
51,365,185943,1,0,3:0:0:0:
51,365,186052,2,0,P|52:312|41:259,1,97.4999955368044,2|2,3:2|3:1,0:0:0:0:
7,149,186486,22,0,P|52:130|107:135,1,97.4999955368044,6|0,1:0|3:0,0:0:0:0:
134,96,186813,2,0,P|187:129|200:184,1,97.4999955368044,2|0,1:0|3:0,3:0:0:0:
226,203,187139,1,8,1:3:0:0:
322,112,187356,1,12,1:2:0:0:
369,231,187573,1,8,1:3:0:0:
369,231,187682,1,12,1:2:0:0:
416,344,187899,1,0,1:0:0:0:
416,344,188008,1,8,1:2:0:0:
467,232,188226,54,2,P|475:194|449:56,1,168.750006437302,8|0,3:3|0:0,0:3:0:0:
363,27,189095,53,8,1:2:0:0:
343,123,189313,2,0,L|337:169,6,32.4999985122681,2|2|2|2|2|2|2,3:0|3:2|3:2|3:0|3:2|3:2|3:0,0:0:0:0:
268,59,189965,22,0,L|156:65,1,97.4999955368044,6|0,1:0|0:0,0:0:0:0:
139,43,190291,2,0,L|151:160,1,97.4999955368044,2|0,1:0|0:0,0:0:0:0:
122,167,190617,1,8,1:3:0:0:
246,186,190834,1,8,1:2:0:0:
167,282,191052,2,2,L|160:327,8,24.3749988842011,2|2|0|0|0|0|0|0|0,0:3|0:0|0:0|0:0|0:0|0:0|0:0|0:0|0:0,0:0:0:0:
249,196,191704,6,0,P|297:189|347:188,1,97.4999955368044,8|8,1:2|1:2,0:0:0:0:
465,134,192139,2,0,L|457:259,1,97.4999955368044,10|8,1:2|1:2,0:0:0:0:
403,358,192573,1,8,0:0:0:0:
286,290,192791,2,0,L|291:253,6,32.4999985122681,8|2|2|8|2|2|8,1:2|3:2|3:2|1:2|3:2|3:2|1:2,0:0:0:0:
182,366,193443,6,0,P|140:367|92:325,1,97.4999955368044,6|8,1:0|1:3,0:0:0:0:
68,335,193769,2,2,L|73:214,1,97.4999955368044,2|0,1:1|0:0,0:0:0:0:
64,191,194095,1,8,1:3:0:0:
210,217,194313,1,8,1:2:0:0:
150,87,194530,1,2,1:2:0:0:
150,87,194639,1,10,1:2:0:0:
261,19,194856,1,2,1:2:0:0:
261,19,194965,1,10,1:2:0:0:
325,128,195182,38,0,L|426:139,1,97.4999955368044,4|2,1:2|1:0,0:0:0:0:
483,268,195617,1,0,1:0:0:0:
483,268,195726,2,2,L|320:249,1,146.249993305207,10|8,1:2|1:3,0:3:0:0:
226,239,196269,1,2,1:0:0:0:
150,329,196486,1,0,1:0:0:0:
150,329,196595,2,2,L|47:324,1,97.4999955368044,10|0,1:2|0:0,0:3:0:0:
28,325,196921,6,0,L|16:264,1,48.7499977684022,8|10,1:2|1:2,0:0:0:0:
155,146,197247,2,0,L|143:85,1,48.7499977684022,8|10,1:2|1:2,0:0:0:0:
357,146,197573,2,0,L|369:85,1,48.7499977684022,8|8,1:2|1:2,0:0:0:0:
484,325,197899,2,0,L|496:264,1,48.7499977684022,8|8,1:2|1:2,0:0:0:0:
256,194,198226,2,0,L|256:251,1,48.7499977684022,10|0,1:2|1:0,0:0:0:0:
255,316,198443,1,12,1:2:0:0:
256,192,198552,12,0,200399,0:0:0:0:
122,239,206704,6,2,P|106:207|196:216,1,187.5,2|0,0:0|3:0,0:0:0:0:
217,231,207356,6,0,L|203:318,1,75,4|0,0:0|3:0,0:0:0:0:
319,211,207791,2,0,L|305:298,1,75,2|0,0:0|3:0,0:0:0:0:
393,378,208226,2,0,L|407:291,1,75,2|0,0:0|3:0,0:0:0:0:
424,212,208660,1,0,0:0:0:0:
445,113,208878,1,2,3:2:0:0:
445,113,208986,1,0,3:0:0:0:
445,113,209095,38,0,L|337:119,1,75,4|0,0:0|3:0,0:0:0:0:
258,61,209530,2,0,L|270:160,1,75,2|0,0:0|3:0,0:0:0:0:
204,236,209965,1,2,0:0:0:0:
145,145,210182,1,2,3:2:0:0:
54,214,210399,1,8,3:2:0:0:
115,317,210617,1,2,3:2:0:0:
115,317,210726,1,0,3:0:0:0:
115,317,210834,6,2,P|181:312|258:317,1,112.5,6|0,1:2|3:0,0:0:0:0:
258,344,211269,1,2,1:2:0:0:
335,241,211486,2,2,B|348:191|311:187|330:106,1,112.5,6|0,1:2|3:3,0:2:0:0:
346,89,211921,1,0,1:2:0:0:
433,173,212139,2,0,P|445:238|441:279,1,75,4|2,3:2|3:2,0:0:0:0:
422,361,212573,21,12,1:2:0:0:
257,204,212899,1,6,1:0:0:0:
90,361,213226,1,6,1:0:0:0:
341,162,213660,21,4,0:0:0:0:
177,162,213877,1,0,1:0:0:0:
258,303,214095,1,2,1:2:0:0:
181,46,214747,54,0,P|126:43|79:53,1,89.9999972534181,4|2,0:0|0:0,0:0:0:0:
33,147,215182,1,2,1:2:0:0:
33,147,215291,1,0,0:0:0:0:
33,147,215399,2,0,P|40:212|35:247,1,89.9999972534181,2|10,0:0|0:0,0:0:0:0:
70,360,215834,1,2,3:2:0:0:
144,271,216052,6,2,B|218:271|214:302|306:295,1,134.999995880127,2|0,1:2|3:0,0:0:0:0:
315,314,216486,1,10,3:2:0:0:
270,207,216704,2,2,P|271:161|317:115,1,89.9999972534181,2|0,0:0|1:0,0:0:0:0:
398,304,217139,2,2,P|397:350|351:396,1,89.9999972534181,2|8,0:2|0:0,0:0:0:0:
352,229,217573,1,2,3:2:0:0:
352,229,217682,1,0,0:0:0:0:
352,229,217791,6,0,P|412:228|430:137,1,134.999995880127,2|0,1:2|3:0,0:0:0:0:
463,149,218226,2,0,L|453:52,1,89.9999972534181,8|2,3:2|0:0,0:0:0:0:
350,20,218660,1,2,1:2:0:0:
279,113,218878,2,2,B|229:131|221:88|153:109,1,89.9999972534181,2|8,0:0|0:0,0:0:0:0:
81,55,219313,1,2,3:2:0:0:
111,177,219530,5,2,1:2:0:0:
111,177,219639,1,0,0:0:0:0:
111,177,219747,1,0,0:0:0:0:
111,177,219856,1,0,3:0:0:0:
111,177,219965,1,10,0:0:0:0:
66,308,220182,2,0,P|118:292|165:295,1,89.9999972534181,2|0,0:0|1:0,0:0:0:0:
178,319,220508,1,10,0:2:0:0:
178,319,220617,2,0,L|277:319,1,89.9999972534181,0|8,0:0|3:2,0:0:0:0:
392,361,221052,1,2,3:2:0:0:
365,246,221269,5,4,1:2:0:0:
476,292,221486,6,0,P|487:235|486:182,1,89.9999972534181,2|8,0:0|0:0,0:0:0:0:
469,70,221921,1,2,3:2:0:0:
390,166,222139,1,2,1:2:0:0:
327,58,222356,2,2,P|278:45|217:57,1,89.9999972534181,2|8,0:0|0:0,0:0:0:0:
140,136,222791,5,0,3:0:0:0:
140,136,222899,1,2,3:0:0:0:
140,136,223008,1,4,1:2:0:0:
107,25,223226,1,0,3:0:0:0:
30,111,223443,1,8,0:0:0:0:
67,223,223660,2,2,L|72:326,1,89.9999972534181,2|0,0:0|1:0,0:0:0:0:
178,362,224095,1,2,3:2:0:0:
171,247,224313,1,8,3:2:0:0:
280,181,224530,1,0,3:0:0:0:
280,181,224639,1,2,3:0:0:0:
280,181,224747,6,0,B|353:179|353:210|421:197,1,134.999995880127,4|0,1:0|3:0,0:0:0:0:
446,206,225182,2,0,P|437:131|447:90,1,89.9999972534181,8|2,3:2|3:0,0:0:0:0:
501,19,225617,2,0,P|442:31|340:24,1,134.999995880127,0|0,1:0|3:0,0:0:0:0:
325,19,226052,1,2,1:1:0:0:
226,69,226269,1,2,3:2:0:0:
268,184,226486,22,0,L|325:199,1,44.999998626709,4|0,1:0|1:0,0:0:0:0:
275,362,226813,2,0,L|332:347,1,44.999998626709,2|0,1:2|1:0,0:0:0:0:
456,279,227139,1,2,1:2:0:0:
456,279,227247,2,0,L|307:273,1,134.999995880127,0|0,1:0|1:0,0:0:0:0:
188,286,227791,1,2,1:2:0:0:
188,286,227899,1,0,1:0:0:0:
188,286,228008,1,2,1:2:0:0:
233,170,228226,21,8,3:2:0:0:
233,170,228443,1,8,3:2:0:0:
139,90,228660,1,8,3:2:0:0:
139,90,228878,1,8,3:2:0:0:
84,196,229095,21,10,3:2:0:0:
121,300,229313,1,8,3:2:0:0:
218,239,229530,1,8,3:2:0:0:
255,343,229748,1,8,3:2:0:0:
355,278,229965,5,2,1:0:0:0:
355,278,230073,1,8,3:2:0:0:
355,278,230182,1,0,1:0:0:0:
355,278,230291,1,8,3:2:0:0:
355,278,230399,2,0,L|432:290,3,44.999998626709,2|2|0|2,1:2|1:3|1:0|1:3,0:0:0:0:
429,256,230834,2,0,L|506:268,1,44.999998626709,2|8,1:0|1:3,0:0:0:0:
472,114,231160,2,0,L|395:126,1,44.999998626709,2|0,1:0|1:3,0:0:0:0:
274,229,231486,2,0,L|197:241,2,44.999998626709,2|2|4,1:0|1:2|1:0,0:0:0:0:
79,24,232573,6,2,P|85:76|84:159,1,112.500004291535,2|0,0:0|0:0,0:0:0:0:
178,352,233443,6,0,P|200:294|228:252,1,97.4999955368044,6|0,1:0|0:0,0:0:0:0:
293,264,233769,2,0,P|317:306|334:352,1,97.4999955368044,2|0,1:0|0:0,0:0:0:0:
404,361,234095,1,8,1:2:0:0:
466,267,234313,38,0,P|412:256|357:213,1,97.4999955368044,6|0,1:0|0:0,0:0:0:0:
376,150,234639,2,0,P|418:125|466:117,1,97.4999955368044,2|0,1:0|0:0,0:0:0:0:
496,44,234965,1,8,1:2:0:0:
373,29,235182,22,8,L|332:26,16,24.3749988842011,2|8|8|8|8|8|2|8|8|8|8|8|2|8|8|8|4,3:1|3:0|3:0|3:0|3:0|3:0|3:1|3:0|3:0|3:0|3:0|3:0|3:1|3:0|3:0|3:0|0:0,3:0:0:0:
161,299,236921,6,0,P|153:256|153:208,1,75,6|0,0:0|3:0,0:0:0:0:
133,185,237247,1,0,3:0:0:0:
133,185,237356,2,0,L|230:182,1,75,2|0,1:0|0:0,0:0:0:0:
303,157,237791,1,2,1:2:0:0:
272,254,238008,2,0,P|258:308|265:344,1,75,2|8,0:0|1:3,0:0:0:0:
391,335,238443,1,0,3:0:0:0:
391,335,238552,1,0,3:0:0:0:
391,335,238660,54,0,P|383:284|385:205,1,112.5,2|0,1:0|3:0,0:0:0:0:
411,191,239095,1,2,1:2:0:0:
481,83,239313,2,0,B|427:103|411:78|356:95,1,112.5,2|0,3:0|0:0,0:0:0:0:
336,131,239747,1,0,3:0:0:0:
257,58,239965,2,0,P|215:48|173:54,1,75,10|0,1:2|3:0,0:0:0:0:
54,18,240399,22,0,L|57:116,1,75,4|2,1:2|0:0,0:0:0:0:
79,114,240726,1,0,3:0:0:0:
79,114,240834,2,0,L|76:217,1,75,2|0,1:0|3:0,0:0:0:0:
77,318,241269,1,2,1:2:0:0:
77,318,241378,1,0,0:0:0:0:
77,318,241486,1,2,0:0:0:0:
157,238,241704,2,0,P|190:211|228:205,1,75,2|2,1:2|3:2,0:0:0:0:
343,293,242139,22,2,L|215:288,1,112.5,2|0,1:0|0:0,0:0:0:0:
201,313,242573,1,2,1:2:0:0:
319,215,242791,2,0,P|366:216|444:225,1,112.5,2|0,3:2|0:0,0:0:0:0:
465,245,243226,1,2,3:2:0:0:
418,133,243443,2,0,L|333:129,1,75,8|0,1:2|3:0,0:0:0:0:
240,86,243878,5,12,3:2:0:0:
240,86,244095,1,10,3:2:0:0:
261,192,244313,1,10,3:2:0:0:
261,192,244530,1,8,3:2:0:0:
148,212,244747,21,10,3:2:0:0:
148,212,244965,1,10,3:2:0:0:
123,104,245182,1,10,3:2:0:0:
123,104,245400,1,10,3:2:0:0:
261,192,245617,37,12,3:2:0:0:
338,267,245834,1,8,3:2:0:0:
437,238,246052,1,10,3:2:0:0:
437,133,246269,1,10,3:2:0:0:
332,95,246486,22,0,L|321:59,3,25,10|0|0|8,3:2|3:2|3:2|3:2,0:0:0:0:
358,181,246921,1,10,3:2:0:0:
406,60,247139,1,8,3:2:0:0:
240,134,247356,5,12,3:2:0:0:
240,134,247465,1,8,3:2:0:0:
240,134,247573,1,8,3:0:0:0:
240,134,247682,1,8,3:0:0:0:
240,134,247791,2,0,L|221:181,3,37.5,10|8|8|8,3:2|3:2|3:3|3:3,0:0:0:0:
191,176,248226,2,0,L|172:223,3,37.5,10|2|8|2,3:2|3:0|3:2|3:0,0:0:0:0:
142,215,248660,2,8,L|121:267,8,32.8125003129244,8|8|8|8|8|8|8|0|4,3:0|3:0|3:0|3:0|3:0|3:0|3:0|0:0|0:0,3:0:0:0:
256,192,249149,12,6,250834,0:0:0:0:
95,314,251704,5,10,0:0:0:0:
317,119,252573,1,8,0:3:0:0:
340,206,253008,1,2,0:0:0:0:
400,71,253443,1,10,0:0:0:0:
254,23,253878,1,2,0:0:0:0:
255,274,254313,21,2,0:0:0:0:
50,61,255182,1,10,0:0:0:0:
416,183,256052,1,2,0:0:0:0:
319,122,256486,2,0,P|291:127|243:159,1,75.000002861023,2|0,0:0|0:0,0:0:0:0:
247,224,256921,2,0,L|161:220,1,75.000002861023,10|0,0:0|0:0,0:0:0:0:
100,217,257356,1,2,0:0:0:0:
