osu file format v14

[General]
AudioFilename: audio.mp3
AudioLeadIn: 0
PreviewTime: 53365
Countdown: 0
SampleSet: Soft
StackLeniency: 0.7
Mode: 0
LetterboxInBreaks: 0
WidescreenStoryboard: 1

[Editor]
Bookmarks: 2906,12846,24412,47672,59239,60684
DistanceSpacing: 0.8
BeatDivisor: 3
GridSize: 8
TimelineZoom: 1

[Metadata]
Title:Eternal Star (TV Size)
TitleUnicode:Eternal Star (TV Size)
Artist:Asaka
ArtistUnicode:Asaka
Creator:Nao Tomori
Version:Trynna's Normal
Source:ISLAND
Tags:frontwing feel. front wing 亜咲花 kibbleru trynna kalibe shanipika
BeatmapID:1708216
BeatmapSetID:813472

[Difficulty]
HPDrainRate:4
CircleSize:3.5
OverallDifficulty:4
ApproachRate:5
SliderMultiplier:1.2
SliderTickRate:1

[Events]
//Background and Video events
0,0,"island bg.jpg",0,0
Video,-86,"island end.avi"
//Break Periods
//Storyboard Layer 0 (Background)
//Storyboard Layer 1 (Fail)
//Storyboard Layer 2 (Pass)
//Storyboard Layer 3 (Foreground)
//Storyboard Sound Samples

[TimingPoints]
-38,361.44578313253,4,2,1,50,1,0
142,-100,4,2,1,50,0,0
1407,-100,4,2,1,45,0,0
10715,-100,4,2,1,5,0,0
10805,-100,4,2,1,45,0,0
11076,-100,4,2,1,5,0,0
11166,-100,4,2,1,45,0,0
12846,-100,4,2,1,40,0,0
18576,-100,4,2,1,20,0,0
18757,-100,4,2,1,40,0,0
22371,-100,4,2,1,50,0,0
22733,-100,4,2,1,60,0,0
22966,-100,4,2,1,60,0,0
23275,-100,4,2,1,40,0,0
24412,-100,4,2,1,40,0,0
33629,-100,4,2,1,43,0,0
35978,-100,4,2,1,36,0,0
47672,-100,4,2,1,45,0,0
60684,-100,4,2,1,65,0,1
69901,-100,4,2,1,65,0,1
72251,-100,4,2,1,65,0,1
78034,-100,4,2,1,65,0,1
78757,-100,4,2,1,65,0,1
79480,-100,4,2,1,65,0,1
79751,-100,4,2,1,65,0,1
80022,-100,4,2,1,65,0,1
81648,-100,4,2,1,65,0,1
82371,-100,4,2,1,65,0,1
82913,-100,4,2,1,65,0,1
83636,-100,4,2,1,65,0,1
83817,-100,4,2,1,50,0,0

[Colours]
Combo1 : 224,50,50
Combo2 : 247,200,60
Combo3 : 118,211,252

[HitObjects]
408,68,1407,6,0,P|388:97|368:180,1,120,4|8,1:2|0:0,0:0:0:0:
377,227,1949,1,2,0:1:0:0:
318,303,2311,2,0,P|288:297|258:294,1,60,2|8,0:1|0:0,0:0:0:0:
219,266,2672,2,0,P|166:280|99:283,1,120,2|2,0:1|0:1,0:0:0:0:
58,306,3215,1,8,0:0:0:0:
61,209,3576,2,0,L|55:90,1,120,8|8,0:0|0:0,0:0:0:0:
146,119,4299,6,0,B|213:118|193:88|258:85,1,120,2|8,0:1|0:0,0:0:0:0:
297,56,4841,1,2,0:1:0:0:
392,58,5202,2,0,P|413:78|424:106,1,60,2|8,0:1|0:0,0:0:0:0:
457,141,5564,2,0,P|419:162|354:211,1,120,2|2,0:1|0:1,0:0:0:0:
348,254,6106,1,8,0:0:0:0:
406,330,6468,1,8,0:0:0:0:
313,356,6829,2,0,P|279:345|250:342,1,60,10|0,0:0|0:0,0:0:0:0:
207,354,7190,6,0,P|217:295|219:235,1,120,6|8,1:2|0:0,0:0:0:0:
204,190,7733,1,2,0:1:0:0:
143,115,8094,2,0,P|140:86|141:49,1,60,2|8,0:1|0:0,0:0:0:0:
100,26,8455,2,0,P|46:47|22:100,1,120,2|2,0:1|0:1,0:0:0:0:
5,146,8998,1,8,0:0:0:0:
57,226,9359,1,8,0:0:0:0:
49,321,9721,2,0,P|75:328|108:330,1,60,8|0,0:0|0:0,0:0:0:0:
136,367,10082,6,0,B|183:353|183:353|252:367,1,120,12|8,0:0|0:0,0:0:0:0:
285,332,10624,1,0,1:0:0:0:
348,259,10986,1,0,1:0:0:0:
279,191,11347,2,0,P|275:151|276:65,1,120,0|8,1:0|0:1,0:0:0:0:
308,35,11889,2,0,P|343:42|392:41,1,60,8|8,0:1|0:1,0:0:0:0:
449,92,12431,1,8,0:1:0:0:
449,92,12612,2,0,P|465:132|477:167,1,60,8|8,0:1|0:1,0:0:0:0:
494,190,12974,6,0,B|437:202|453:230|392:250,1,120,6|2,0:1|0:1,0:0:0:0:
317,309,13696,2,0,P|287:278|213:293,1,120,2|2,0:1|0:1,0:0:0:0:
177,317,14239,1,0,0:0:0:0:
177,317,14419,2,0,P|182:258|175:183,1,120,2|2,0:1|0:1,0:0:0:0:
126,115,15142,2,0,P|79:87|101:37,1,120,2|2,0:1|0:1,0:0:0:0:
195,54,15865,6,0,B|247:44|247:44|314:54,1,120,2|2,0:1|0:1,0:0:0:0:
358,37,16407,2,0,P|416:48|475:38,1,120,2|0,0:0|0:0,0:0:0:0:
462,133,17130,1,2,0:0:0:0:
462,133,17311,2,0,P|444:176|435:253,1,120,2|2,0:1|2:1,0:0:0:0:
441,344,18034,1,2,0:1:0:0:
441,344,18215,2,0,P|408:350|381:349,1,60,0|2,0:0|0:1,0:0:0:0:
340,323,18576,1,4,0:0:0:0:
295,305,18757,6,0,P|230:315|204:364,1,120,2|0,0:1|0:0,0:0:0:0:
110,337,19480,2,0,P|105:279|58:245,1,120,2|0,0:1|0:0,0:0:0:0:
39,201,20022,1,0,0:0:0:0:
39,201,20202,2,0,P|28:151|35:69,1,120,2|2,0:1|0:1,0:0:0:0:
120,45,20925,1,2,0:1:0:0:
120,45,21106,2,0,P|161:48|183:58,1,60,0|2,0:0|0:1,0:0:0:0:
252,116,21648,6,0,B|252:160|252:160|262:191|262:191|263:234,1,120,2|2,0:1|1:0,0:0:0:0:
265,282,22190,1,0,1:0:0:0:
265,282,22371,2,0,L|265:342,2,60,2|0|2,1:0|0:0|1:0,0:0:0:0:
356,253,23094,2,0,P|397:261|451:320,1,120,6|2,1:0|0:1,0:0:0:0:
493,335,23636,2,0,P|489:272|490:215,1,120,6|2,1:0|0:1,0:0:0:0:
497,167,24178,1,2,1:0:0:0:
438,90,24540,6,0,B|374:96|384:69|320:74,1,120,6|0,0:1|0:0,0:0:0:0:
279,49,25082,1,8,0:1:0:0:
279,49,25263,2,0,P|239:69|227:145,1,120,0|0,0:0|0:0,0:0:0:0:
291,207,25986,2,0,P|285:253|289:331,1,120,2|0,0:1|0:0,0:0:0:0:
251,357,26528,1,8,0:1:0:0:
251,357,26708,2,0,B|206:342|206:342|135:357,1,120,0|8,0:0|0:1,0:0:0:0:
74,283,27431,6,0,P|87:222|89:158,1,120,6|8,0:1|0:1,0:0:0:0:
120,127,27974,1,0,1:0:0:0:
63,49,28335,1,0,1:0:0:0:
155,23,28696,2,0,P|199:33|278:35,1,120,4|2,1:0|0:1,0:0:0:0:
310,66,29239,1,8,0:0:0:0:
400,33,29600,2,0,P|433:82|434:141,1,120,2|8,0:1|0:0,0:0:0:0:
463,232,30323,6,0,P|433:227|403:227,1,60,6|0,0:1|0:0,0:0:0:0:
368,260,30684,2,0,P|338:264|308:264,1,60,8|0,0:1|0:0,0:0:0:0:
264,244,31046,2,0,P|277:302|270:361,1,120,2|0,0:1|0:0,0:0:0:0:
223,354,31588,2,0,B|157:348|164:376|105:370,1,120,6|2,0:1|0:1,0:0:0:0:
70,337,32130,1,8,0:1:0:0:
70,337,32311,2,0,P|64:297|68:201,1,120,0|0,1:1|1:0,0:0:0:0:
137,92,33215,6,0,P|185:88|238:135,1,120,8|0,0:0|0:0,0:0:0:0:
283,144,33757,1,2,1:0:0:0:
357,83,34118,1,0,1:0:0:0:
409,163,34480,2,0,P|404:215|410:286,1,120,4|0,1:0|1:0,0:0:0:0:
427,326,35022,1,2,0:1:0:0:
426,325,35202,2,0,P|371:308|323:340,1,120,8|2,0:0|0:1,0:0:0:0:
280,362,35745,1,8,0:1:0:0:
214,290,36106,6,0,P|218:231|219:171,1,120,4|2,1:2|0:1,0:0:0:0:
187,134,36648,1,4,0:3:0:0:
187,134,36829,2,0,P|145:136|141:64,1,120,4|2,0:3|0:1,0:0:0:0:
161,32,37371,2,0,B|223:21|211:56|278:43,1,120,2|2,0:0|0:1,0:0:0:0:
371,22,38094,2,0,P|427:21|448:74,1,120,2|2,0:1|0:1,0:0:0:0:
436,119,38636,1,0,1:0:0:0:
454,222,38998,6,0,P|414:211|367:272,1,120,0|2,1:0|0:1,0:0:0:0:
328,292,39540,1,2,0:1:0:0:
328,292,39721,2,0,P|274:281|199:283,1,120,0|0,1:0|0:0,0:0:0:0:
167,304,40263,2,0,B|171:237|145:247|150:186,1,120,2|0,0:0|0:0,0:0:0:0:
83,117,40986,2,0,P|109:68|160:87,1,120,2|8,0:1|0:3,0:0:0:0:
206,103,41528,1,4,0:3:0:0:
288,54,41889,6,0,P|336:62|421:54,1,120,0|2,1:0|0:1,0:0:0:0:
448,33,42431,1,8,0:1:0:0:
448,33,42612,2,0,B|462:78|462:78|455:150,1,120,0|0,1:0|1:0,0:0:0:0:
472,245,43335,2,0,L|352:240,1,120,0|0,1:1|0:0,0:0:0:0:
315,271,43877,1,2,0:1:0:0:
315,271,44058,2,0,B|254:265|260:301|199:294,1,120,0|2,1:0|0:1,0:0:0:0:
111,333,44781,2,0,P|66:333|33:273,1,120,0|2,1:0|0:1,0:0:0:0:
58,231,45323,1,8,0:1:0:0:
58,230,45504,2,0,P|67:172|56:113,1,120,2|2,0:1|0:1,0:0:0:0:
149,88,46227,6,0,P|153:43|163:5,2,80,4|2|0,0:3|0:0|0:0,0:0:0:0:
184,127,46949,2,0,P|194:170|196:210,2,80,4|2|0,0:3|0:0|0:0,0:0:0:0:
225,98,47672,2,0,B|268:100|268:100|294:110|294:110|343:114,1,120,4|0,1:0|0:0,0:0:0:0:
384,138,48215,1,2,0:1:0:0:
384,138,48395,1,8,0:1:0:0:
348,227,48757,1,0,1:0:0:0:
348,227,48937,2,0,P|332:262|388:311,1,120,2|8,0:1|0:1,0:0:0:0:
468,265,49660,2,0,P|478:205|478:146,1,120,0|8,1:1|0:0,0:0:0:0:
365,55,50564,6,0,P|323:66|245:62,1,120,2|0,0:1|0:0,0:0:0:0:
201,46,51106,1,2,0:1:0:0:
201,46,51287,1,0,1:1:0:0:
117,93,51648,1,2,0:1:0:0:
117,93,51829,2,0,B|118:140|118:140|110:167|110:167|112:211,1,120,0|2,1:0|0:1,0:0:0:0:
58,291,52552,1,2,0:1:0:0:
116,366,52913,1,0,1:0:0:0:
116,366,53094,2,0,P|143:364|175:357,1,60,2|2,0:0|0:0,0:0:0:0:
212,327,53455,6,0,B|276:318|264:354|327:347,1,120,12|8,0:0|0:0,0:0:0:0:
366,318,53998,1,0,1:0:0:0:
366,317,54178,2,0,P|415:293|448:337,1,120,12|8,0:0|0:0,0:0:0:0:
509,262,54901,1,12,0:0:0:0:
441,193,55263,2,0,P|436:161|438:127,1,60,8|0,0:0|1:0,0:0:0:0:
456,89,55624,2,0,P|411:105|357:62,1,120,12|8,0:0|0:0,0:0:0:0:
275,114,56347,6,0,B|230:110|230:110|200:115|200:115|156:109,1,120,12|8,0:0|0:0,0:0:0:0:
115,82,56889,1,0,1:0:0:0:
115,82,57070,2,0,P|126:140|124:200,1,120,12|10,0:0|0:0,0:0:0:0:
146,243,57612,1,0,1:0:0:0:
146,243,57793,1,14,0:0:0:0:
106,330,58154,1,10,0:0:0:0:
202,329,58516,2,0,P|244:313|288:306,2,90,10|2|0,0:0|2:0|1:0,0:0:0:0:
171,366,59239,5,2,0:0:0:0:
211,40,60684,6,0,B|214:87|214:87|208:118|208:118|211:160,1,120,4|8,1:2|0:0,0:0:0:0:
297,198,61407,2,0,P|343:193|394:252,1,120,0|8,1:0|0:0,0:0:0:0:
418,282,61949,2,0,P|371:294|304:337,1,120,2|2,0:1|0:1,0:0:0:0:
297,378,62492,1,8,0:0:0:0:
209,339,62853,1,0,0:0:0:0:
115,361,63215,2,0,P|73:363|50:355,1,60,8|2,0:0|0:1,0:0:0:0:
30,316,63576,5,0,1:0:0:0:
73,231,63937,1,8,0:0:0:0:
27,146,64299,2,0,P|22:102|85:76,1,120,6|8,1:2|0:0,0:0:0:0:
129,87,64841,2,0,P|188:76|247:69,1,120,2|2,0:1|0:1,0:0:0:0:
291,89,65383,1,8,0:0:0:0:
291,89,65564,1,6,0:1:0:0:
379,52,65925,1,2,0:1:0:0:
379,52,66106,2,0,P|398:84|407:116,1,60,8|2,0:0|0:1,0:0:0:0:
443,134,66468,6,0,P|425:191|414:250,1,120,0|8,1:0|0:0,0:0:0:0:
437,291,67010,1,2,0:1:0:0:
350,331,67371,1,2,0:1:0:0:
268,277,67733,2,0,P|249:221|260:163,1,120,0|2,1:1|0:1,0:0:0:0:
290,125,68275,1,8,0:0:0:0:
290,125,68455,2,0,P|227:127|170:124,1,120,2|2,0:1|0:1,0:0:0:0:
126,102,68998,1,8,0:0:0:0:
64,175,69359,6,0,P|72:204|72:240,1,60,4|0,1:0|0:0,0:0:0:0:
61,280,69721,1,8,0:0:0:0:
61,280,69901,2,0,P|101:265|186:293,1,120,2|2,0:1|0:1,0:0:0:0:
258,327,70624,2,0,B|323:336|313:302|374:309,1,120,0|2,1:0|0:1,0:0:0:0:
407,274,71166,2,0,P|402:239|401:210,1,60,8|2,0:0|0:1,0:0:0:0:
431,176,71528,1,0,1:0:0:0:
431,176,71708,2,0,P|459:131|414:82,1,120,2|0,0:1|1:0,0:0:0:0:
385,52,72251,6,0,P|347:58|263:69,1,120,4|8,1:2|0:0,0:0:0:0:
174,40,72974,2,0,P|130:44|96:108,1,120,0|8,1:0|0:0,0:0:0:0:
91,153,73516,2,0,P|106:202|107:279,1,120,2|2,0:1|0:1,0:0:0:0:
99,317,74058,1,8,0:0:0:0:
189,348,74419,1,0,1:0:0:0:
282,324,74781,2,0,P|321:317|350:317,1,60,8|2,0:0|0:1,0:0:0:0:
382,291,75142,5,0,1:0:0:0:
467,334,75504,1,2,0:1:0:0:
479,237,75865,2,0,P|470:178|470:118,1,120,4|8,1:0|0:0,0:0:0:0:
438,82,76407,2,0,P|384:62|347:105,1,120,6|2,1:1|0:1,0:0:0:0:
333,150,76949,1,8,0:0:0:0:
240,177,77311,2,0,L|236:236,2,60,0|2|8,1:0|0:1|0:0,0:0:0:0:
189,95,78034,6,0,P|143:92|89:154,1,120,4|0,1:0|1:0,0:0:0:0:
72,184,78576,1,2,0:1:0:0:
114,270,78937,1,2,0:1:0:0:
55,346,79299,2,0,P|110:366|167:349,1,120,2|0,2:1|0:0,0:0:0:0:
262,358,80022,2,0,P|255:304|263:228,1,120,0|2,1:2|0:1,0:0:0:0:
241,194,80564,2,0,P|246:158|245:128,1,60,0|0,1:0|1:0,0:0:0:0:
269,93,80925,6,0,B|333:102|322:68|386:78,1,120,14|8,0:0|0:0,0:0:0:0:
463,135,81648,2,0,P|450:172|439:254,1,120,12|8,0:0|0:0,0:0:0:0:
362,309,82371,2,0,P|327:286|261:325,1,120,12|2,0:0|0:1,0:0:0:0:
218,334,82913,1,0,1:0:0:0:
127,302,83275,1,0,1:0:0:0:
39,340,83636,1,0,1:0:0:0:
256,192,83817,12,0,85986,0:0:0:0:
