osu file format v14

[General]
AudioFilename: audio.mp3
AudioLeadIn: 0
PreviewTime: 53365
Countdown: 0
SampleSet: Soft
StackLeniency: 0.7
Mode: 0
LetterboxInBreaks: 0
WidescreenStoryboard: 0

[Editor]
Bookmarks: 2906,12846,24412,47672,59239,60684
DistanceSpacing: 0.8
BeatDivisor: 4
GridSize: 8
TimelineZoom: 1.7

[Metadata]
Title:Eternal Star (TV Size)
TitleUnicode:Eternal Star (TV Size)
Artist:Asaka
ArtistUnicode:Asaka
Creator:Nao Tomori
Version:Kalibe's Insane
Source:ISLAND
Tags:frontwing feel. front wing 亜咲花 kibbleru trynna kalibe shanipika
BeatmapID:1709966
BeatmapSetID:813472

[Difficulty]
HPDrainRate:5.5
CircleSize:4
OverallDifficulty:7
ApproachRate:8.5
SliderMultiplier:1.72
SliderTickRate:1

[Events]
//Background and Video events
0,0,"uwo.jpg",0,0
Video,-86,"island end.avi"
//Break Periods
//Storyboard Layer 0 (Background)
//Storyboard Layer 1 (Fail)
//Storyboard Layer 2 (Pass)
//Storyboard Layer 3 (Foreground)
//Storyboard Sound Samples

[TimingPoints]
-38,361.44578313253,4,2,1,50,1,0
142,-100,4,2,1,50,0,0
1407,-100,4,2,1,45,0,0
12846,-133.333333333333,4,2,1,40,0,0
18576,-133.333333333333,4,2,1,20,0,0
18757,-133.333333333333,4,2,1,40,0,0
22966,-100,4,2,1,43,0,0
24412,-114.942528735632,4,2,1,40,0,0
33629,-105.263157894737,4,2,1,43,0,0
35978,-114.942528735632,4,2,1,36,0,0
47672,-114.942528735632,4,2,1,45,0,0
60684,-95.2380952380952,4,2,1,65,0,1
69901,-100,4,2,1,65,0,1
72251,-95.2380952380952,4,2,1,65,0,1
78034,-111.111111111111,4,2,1,65,0,1
78757,-133.333333333333,4,2,1,65,0,1
79480,-114.285714285714,4,2,1,65,0,1
79660,-114.285714285714,4,2,1,5,0,1
79751,-114.285714285714,4,2,1,65,0,1
79931,-114.285714285714,4,2,1,5,0,1
80022,-114.285714285714,4,2,1,65,0,1
81648,-100,4,2,1,65,0,1
82371,-200,4,2,1,65,0,1
82913,-100,4,2,1,65,0,1
83636,-66.6666666666667,4,2,1,65,0,1
83817,-66.6666666666667,4,2,1,50,0,0

[Colours]
Combo1 : 255,128,255
Combo2 : 184,101,233
Combo3 : 118,211,252

[HitObjects]
450,237,142,5,8,0:3:0:0:
311,359,323,1,8,0:0:0:0:
469,335,504,5,8,2:1:0:0:
469,335,594,1,8,0:1:0:0:
469,335,684,2,0,L|400:320,1,43,8|0,0:0|0:0,0:0:0:0:
330,248,865,2,0,L|287:257,1,43,8|0,0:3|0:0,0:0:0:0:
176,345,1046,5,8,0:0:0:0:
176,345,1136,1,8,0:1:0:0:
176,345,1227,1,8,0:3:0:0:
25,322,1407,6,0,B|116:313|83:257|186:249,1,172,4|8,1:2|0:0,0:0:0:0:
72,71,1949,2,0,P|57:147|49:175,1,86,2|8,0:1|0:0,0:0:0:0:
33,182,2221,2,0,L|38:243,1,43,8|0,0:1|0:0,0:0:0:0:
181,86,2492,1,8,0:0:0:0:
258,165,2672,6,0,P|315:171|386:83,1,172,2|2,0:1|0:1,0:0:0:0:
501,221,3215,2,0,L|495:172,2,43,8|0|2,0:0|0:0|0:1,0:0:0:0:
357,334,3576,1,8,0:0:0:0:
357,334,3666,2,0,P|371:266|372:233,1,86,8|0,0:1|0:0,0:0:0:0:
389,222,3937,1,8,0:0:0:0:
459,315,4118,1,2,0:1:0:0:
271,288,4299,6,0,P|166:319|133:327,1,129,2|0,0:1|0:0,0:0:0:0:
130,341,4660,1,8,0:0:0:0:
37,250,4841,1,2,0:1:0:0:
202,128,5022,1,8,0:0:0:0:
202,128,5112,2,0,P|182:194|178:227,1,86,8|0,0:1|0:0,0:0:0:0:
156,230,5383,1,8,0:0:0:0:
302,158,5564,6,0,P|363:150|399:144,1,86,2|2,0:1|0:1,0:0:0:0:
300,363,5925,2,0,P|361:371|397:377,1,86,2|8,0:1|0:0,0:0:0:0:
201,224,6287,2,0,B|234:233|234:233|246:245|246:245|289:256,1,86,2|8,0:1|0:0,0:0:0:0:
312,264,6558,1,8,0:1:0:0:
312,264,6648,1,2,0:1:0:0:
467,185,6829,5,10,0:0:0:0:
447,168,6919,1,2,0:0:0:0:
422,175,7010,1,2,0:1:0:0:
410,198,7100,1,2,0:0:0:0:
426,217,7190,6,0,P|460:153|413:61,1,172,6|8,1:2|0:0,0:0:0:0:
313,8,7733,1,2,0:1:0:0:
179,126,7913,1,8,0:0:0:0:
179,126,8004,1,8,0:1:0:0:
290,202,8184,1,8,0:0:0:0:
290,202,8275,2,0,P|284:138|285:113,1,86,8|2,0:0|0:1,0:0:0:0:
189,15,8636,5,2,0:1:0:0:
116,195,8817,1,2,0:1:0:0:
112,56,8998,5,8,0:0:0:0:
196,156,9178,1,2,0:1:0:0:
36,104,9359,5,8,0:0:0:0:
20,115,9449,2,0,P|17:155|5:216,1,86,8|0,0:1|0:0,0:0:0:0:
27,226,9721,1,8,0:0:0:0:
105,384,9901,6,0,P|112:353|120:330,1,43,0|0,0:0|0:0,0:0:0:0:
248,255,10082,1,12,0:0:0:0:
110,170,10263,1,2,0:1:0:0:
110,170,10353,1,2,0:1:0:0:
110,170,10443,1,8,0:0:0:0:
137,255,10624,6,0,B|193:255|203:216|271:213,1,129,0|0,1:0|0:0,0:0:0:0:
380,167,10986,2,0,B|324:167|314:128|246:125,1,129,0|0,1:0|0:0,0:0:0:0:
236,134,11347,6,0,L|249:37,1,86,0|0,1:0|0:0,0:0:0:0:
400,150,11708,1,8,0:1:0:0:
240,239,11889,1,8,0:1:0:0:
429,354,12070,1,8,0:1:0:0:
346,253,12251,6,0,L|340:280,6,21.5,6|0|0|0|8|0|0,0:0|0:0|0:0|0:0|0:1|0:0|0:0,0:0:0:0:
333,303,12612,1,8,0:1:0:0:
507,224,12793,1,8,0:1:0:0:
507,224,12883,1,8,0:0:0:0:
507,224,12974,6,0,B|434:213|462:181|382:166,1,129.00000492096,6|2,0:1|0:1,0:0:0:0:
139,76,13696,2,0,B|212:65|184:33|264:18,1,129.00000492096,2|2,0:1|0:1,0:0:0:0:
252,20,14239,2,0,P|283:26|315:30,1,64.5000024604798,0|2,0:0|0:1,0:0:0:0:
426,82,14600,6,0,L|421:38,2,32.2500012302399,0|0|2,0:0|0:0|0:1,0:0:0:0:
312,196,14961,1,2,0:1:0:0:
312,196,15052,1,0,0:0:0:0:
312,196,15142,6,0,P|324:177|366:164,1,64.5000024604798,2|0,0:1|0:0,0:0:0:0:
187,78,15504,2,0,P|199:97|241:110,1,64.5000024604798,2|0,0:1|0:0,0:0:0:0:
99,257,15865,2,0,B|168:244|142:218|226:199,1,129.00000492096,2|2,0:1|0:1,0:0:0:0:
213,201,16407,2,0,P|199:248|196:274,1,64.5000024604798,2|0,0:0|0:0,0:0:0:0:
307,384,16769,2,0,P|293:331|293:247,1,129.00000492096,0|0,0:0|0:0,0:0:0:0:
307,239,17221,1,0,0:0:0:0:
313,239,17311,6,0,P|354:249|394:254,1,64.5000024604798,2|0,0:1|0:0,0:0:0:0:
439,341,17672,1,2,2:1:0:0:
502,222,17853,2,0,P|490:166|488:83,1,129.00000492096,0|0,0:0|0:0,0:0:0:0:
388,171,18395,5,2,0:1:0:0:
487,94,18576,1,4,0:0:0:0:
415,0,18757,2,0,P|408:44|400:71,1,64.5000024604798,2|0,0:1|0:0,0:0:0:0:
306,163,19118,6,0,P|341:144|377:146,1,64.5000024604798,2|0,0:1|0:0,0:0:0:0:
297,22,19480,2,0,P|265:19|237:2,1,64.5000024604798,2|0,0:1|0:0,0:0:0:0:
126,147,19841,1,2,0:1:0:0:
244,100,20022,2,0,B|173:107|196:138|113:148,1,129.00000492096,0|0,0:0|0:0,0:0:0:0:
123,57,20564,5,2,0:1:0:0:
225,244,20745,1,2,0:1:0:0:
225,244,20835,1,0,0:0:0:0:
225,244,20925,6,0,P|237:194|247:167,1,64.5000024604798,2|0,0:1|0:0,0:0:0:0:
94,308,21287,2,0,P|82:259|72:231,1,64.5000024604798,2|0,0:1|0:0,0:0:0:0:
205,361,21648,2,0,P|234:352|294:342,1,64.5000024604798,2|0,0:1|1:1,0:0:0:0:
297,356,21919,5,0,1:1:0:0:
308,351,22010,2,0,L|321:290,1,32.2500012302399,2|0,1:0|0:0,0:0:0:0:
392,238,22190,6,0,P|367:233|341:226,3,32.2500012302399,0|0|2|0,1:0|1:0|1:0|1:0,0:0:0:0:
300,163,22552,2,0,P|324:158|351:151,3,32.2500012302399,0|0|2|0,1:0|1:0|1:0|1:0,0:0:0:0:
421,128,22913,5,0,1:0:0:0:
421,128,23004,1,0,1:0:0:0:
421,128,23094,2,0,B|452:136|452:136|467:151|467:151|509:166,1,86,6|0,1:0|0:0,0:0:0:0:
497,161,23455,1,2,0:1:0:0:
330,49,23636,6,0,P|264:61|210:67,1,86,6|2,1:0|0:1,0:0:0:0:
245,63,23907,1,0,1:0:0:0:
245,63,23998,1,2,0:1:0:0:
123,222,24178,1,2,1:0:0:0:
65,77,24359,1,2,0:1:0:0:
65,77,24449,1,0,1:0:0:0:
65,77,24540,6,0,B|119:98|119:98|137:130|137:130|195:155,1,149.640001255829,6|0,0:1|0:0,0:0:0:0:
22,211,25082,1,8,0:1:0:0:
138,295,25263,2,0,B|155:260|155:260|146:216,1,74.8200006279144,0|2,0:0|0:1,0:0:0:0:
11,355,25624,1,8,0:1:0:0:
11,355,25805,1,0,0:0:0:0:
142,384,25986,6,0,P|197:369|227:365,1,74.8200006279144,2|2,0:1|0:1,0:0:0:0:
376,257,26347,1,0,0:0:0:0:
292,202,26528,2,0,P|286:235|267:285,1,74.8200006279144,8|0,0:1|0:0,0:0:0:0:
346,365,26889,1,2,0:1:0:0:
471,231,27070,2,0,P|462:162|465:132,1,74.8200006279144,8|2,0:1|0:1,0:0:0:0:
485,136,27341,1,0,1:0:0:0:
485,136,27431,6,0,B|416:129|443:88|343:74,1,149.640001255829,6|8,0:1|0:1,0:0:0:0:
161,133,27974,2,0,B|192:139|223:150|223:150|248:135|250:105,1,112.230000941872,0|0,1:0|0:0,0:0:0:0:
265,90,28335,2,0,P|256:46|251:0,1,74.8200006279144,0|0,1:0|0:0,0:0:0:0:
361,171,28696,6,0,P|343:220|329:330,1,149.640001255829,4|2,1:0|0:1,0:0:0:0:
237,193,29239,1,8,0:0:0:0:
358,289,29419,1,2,0:1:0:0:
229,363,29600,2,0,P|176:378|138:391,1,74.8200006279144,2|2,0:1|0:1,0:0:0:0:
423,229,29961,2,0,P|442:246|448:301,1,74.8200006279144,8|2,0:0|0:1,0:0:0:0:
438,321,30233,1,0,1:0:0:0:
438,321,30323,5,6,0:1:0:0:
326,364,30504,1,0,0:0:0:0:
193,277,30684,1,8,0:1:0:0:
305,234,30865,1,2,0:1:0:0:
303,252,30955,1,2,0:1:0:0:
301,272,31046,1,2,0:1:0:0:
219,193,31227,2,0,P|161:183|134:176,1,74.8200006279144,2|0,0:1|0:0,0:0:0:0:
305,45,31588,6,0,P|365:36|420:98,1,149.640001255829,6|2,0:1|0:1,0:0:0:0:
232,167,32130,1,8,0:1:0:0:
430,192,32311,6,0,B|367:178|390:153|308:141,1,112.230000941872,0|0,1:1|0:0,0:0:0:0:
318,151,32672,2,0,P|324:198|325:232,1,74.8200006279144,0|0,1:0|0:0,0:0:0:0:
419,97,33034,1,0,1:0:0:0:
213,73,33215,6,0,P|157:62|132:55,1,74.8200006279144,8|0,0:0|0:0,0:0:0:0:
111,49,33486,1,2,2:1:0:0:
111,49,33576,1,2,0:1:0:0:
7,209,33757,2,0,B|67:204|50:171|116:160,1,122.549996727562,2|0,1:0|0:0,0:0:0:0:
135,142,34118,2,0,P|167:149|192:206,1,81.6999978183747,0|0,1:0|0:0,0:0:0:0:
263,358,34480,6,0,P|205:373|132:300,1,163.399995636749,4|0,1:0|1:0,0:0:0:0:
126,281,34931,1,8,0:1:0:0:
131,271,35022,1,2,0:1:0:0:
274,135,35202,2,0,P|278:194|290:232,1,81.6999978183747,8|0,0:0|1:0,0:0:0:0:
295,248,35474,2,0,L|242:236,1,40.8499989091873,8|0,0:1|0:0,0:0:0:0:
392,94,35745,1,8,0:1:0:0:
436,204,35925,1,8,0:0:0:0:
436,204,36016,1,8,0:1:0:0:
436,204,36106,6,0,P|500:192|527:188,1,74.8200006279144,4|0,1:2|0:0,0:0:0:0:
413,64,36468,2,0,P|477:76|504:80,1,74.8200006279144,2|0,0:1|0:0,0:0:0:0:
308,146,36829,2,0,B|230:136|267:93|167:76,1,149.640001255829,4|2,0:3|0:1,0:0:0:0:
87,22,37371,6,0,L|78:66,2,37.4100003139572,2|2|0,0:0|0:0|1:1,0:0:0:0:
155,233,37733,2,0,P|171:175|180:155,1,74.8200006279144,2|0,0:1|1:0,0:0:0:0:
329,55,38094,2,0,P|294:68|257:76,1,74.8200006279144,2|0,0:1|1:0,0:0:0:0:
330,249,38455,2,0,P|295:235|258:227,1,74.8200006279144,2|0,0:1|1:0,0:0:0:0:
392,142,38817,1,2,0:0:0:0:
392,142,38907,1,2,0:0:0:0:
392,142,38998,6,0,L|293:155,1,74.8200006279144,0|0,1:0|0:0,0:0:0:0:
178,263,39359,2,0,P|158:282|155:342,1,74.8200006279144,2|2,0:1|0:1,0:0:0:0:
135,160,39721,2,0,P|85:123|-7:129,1,149.640001255829,0|0,1:0|0:0,0:0:0:0:
0,249,40263,6,0,P|47:233|94:228,1,74.8200006279144,2|0,0:1|1:0,0:0:0:0:
290,126,40624,2,0,P|254:112|218:106,1,74.8200006279144,2|0,0:1|1:0,0:0:0:0:
105,14,40986,2,0,P|98:50|85:85,1,74.8200006279144,2|0,0:1|1:0,0:0:0:0:
204,296,41347,2,0,P|210:259|223:224,1,74.8200006279144,8|4,0:3|0:3,0:0:0:0:
149,157,41708,1,2,0:1:0:0:
252,239,41889,6,0,P|315:227|351:222,1,74.8200006279144,0|0,1:0|0:0,0:0:0:0:
359,222,42160,1,2,0:1:0:0:
359,222,42251,1,2,0:1:0:0:
249,137,42431,1,8,0:1:0:0:
424,49,42612,2,0,B|385:50|356:17|356:17|339:65|300:86,1,149.640001255829,0|0,1:0|1:0,0:0:0:0:
475,316,43245,1,2,0:1:0:0:
488,309,43335,6,0,P|500:253|510:215,1,74.8200006279144,0|8,1:1|0:1,0:0:0:0:
418,149,43696,1,0,0:0:0:0:
345,320,43877,1,2,0:1:0:0:
405,264,44058,5,0,1:0:0:0:
325,225,44239,1,2,0:1:0:0:
184,302,44419,5,2,0:1:0:0:
278,375,44600,1,2,0:0:0:0:
278,375,44690,1,2,0:0:0:0:
278,375,44781,2,0,P|335:355|435:347,1,149.640001255829,0|2,1:0|0:1,0:0:0:0:
234,224,45323,5,8,0:1:0:0:
96,303,45504,1,2,0:1:0:0:
163,348,45684,1,0,1:0:0:0:
128,205,45865,2,0,P|74:192|34:179,1,74.8200006279144,2|0,0:1|0:0,0:0:0:0:
249,113,46227,6,0,P|297:145|340:129,2,99.7600008372193,4|8|8,0:3|0:3|0:3,0:0:0:0:
369,224,46829,1,8,0:3:0:0:
369,224,46949,2,0,P|426:212|445:170,2,99.7600008372193,4|2|0,0:3|0:1|1:0,0:0:0:0:
168,315,47672,5,4,1:0:0:0:
119,383,47853,2,0,B|187:371|164:330|249:313,1,149.640001255829,2|2,0:1|0:1,0:0:0:0:
353,374,48395,2,0,B|374:340|374:340|361:304,1,74.8200006279144,8|0,0:1|0:0,0:0:0:0:
459,216,48757,1,0,1:0:0:0:
277,113,48937,6,0,P|315:125|373:134,1,74.8200006279144,2|0,0:1|0:0,0:0:0:0:
162,234,49299,2,0,P|200:222|258:213,1,74.8200006279144,8|2,0:1|0:1,0:0:0:0:
20,95,49660,2,0,P|78:112|151:125,1,112.230000941872,0|0,1:1|0:0,0:0:0:0:
149,120,50022,1,8,0:0:0:0:
234,193,50202,1,2,0:1:0:0:
360,113,50383,1,8,0:1:0:0:
498,203,50564,5,2,0:1:0:0:
451,277,50745,2,0,B|437:224|437:224|456:187|456:187|436:112,1,149.640001255829,0|2,1:1|0:1,0:0:0:0:
442,135,51196,1,0,1:1:0:0:
442,135,51287,1,0,1:1:0:0:
349,208,51468,1,0,0:0:0:0:
270,114,51648,1,2,0:1:0:0:
381,5,51829,6,0,P|370:63|368:86,1,74.8200006279144,0|0,1:0|0:0,0:0:0:0:
267,297,52190,2,0,P|256:239|254:216,1,74.8200006279144,2|0,0:1|1:0,0:0:0:0:
172,73,52552,6,0,B|199:77|199:77|218:89|218:89|259:96,1,74.8200006279144,2|0,0:1|0:0,0:0:0:0:
442,214,52913,2,0,B|417:218|417:218|398:230|398:230|371:234,1,74.8200006279144,0|2,1:0|0:0,0:0:0:0:
2,298,53455,5,12,0:0:0:0:
74,329,53636,1,0,1:0:0:0:
177,218,53817,1,8,0:0:0:0:
100,237,53998,1,0,1:0:0:0:
158,381,54178,2,0,P|173:324|177:289,1,74.8200006279144,12|0,0:0|1:0,0:0:0:0:
116,158,54540,5,8,0:0:0:0:
264,92,54721,1,0,1:0:0:0:
133,75,54901,5,12,0:0:0:0:
276,172,55082,1,0,1:0:0:0:
101,238,55263,5,8,0:0:0:0:
253,6,55443,1,0,1:0:0:0:
253,6,55534,1,0,1:0:0:0:
253,6,55624,2,0,L|238:84,1,74.8200006279144,12|0,0:0|1:1,0:0:0:0:
414,263,55986,2,0,L|399:185,1,74.8200006279144,8|0,0:0|1:0,0:0:0:0:
498,46,56347,2,0,P|429:69|374:84,1,112.230000941872,12|0,0:0|0:0,0:0:0:0:
367,68,56708,5,8,0:0:0:0:
504,154,56889,1,0,1:0:0:0:
362,165,57070,5,12,0:0:0:0:
433,257,57251,1,0,1:0:0:0:
290,267,57431,5,10,0:0:0:0:
313,374,57612,1,0,1:0:0:0:
420,232,57793,5,14,0:0:0:0:
248,161,57974,1,8,1:0:0:0:
342,54,58154,2,0,L|351:92,2,37.4100003139572,10|2|0,0:0|0:0|1:0,0:0:0:0:
70,91,58516,6,0,P|113:102|162:108,1,74.8200006279144,10|0,0:0|0:0,0:0:0:0:
239,180,58787,2,0,P|202:188|166:201,1,74.8200006279144,2|0,2:0|0:0,0:0:0:0:
36,248,59058,2,0,P|55:215|73:182,1,74.8200006279144,0|2,1:0|0:0,0:0:0:0:
256,192,59329,12,0,60323,0:0:0:0:
512,351,60684,6,0,B|411:335|453:291|350:270,1,180.599994488526,4|8,1:2|0:0,0:0:0:0:
253,172,61227,1,2,0:1:0:0:
398,82,61407,2,0,P|370:150|362:185,1,90.2999972442628,0|2,1:0|0:1,0:0:0:0:
186,354,61769,1,8,0:0:0:0:
107,239,61949,5,2,0:1:0:0:
107,239,62040,1,2,0:1:0:0:
107,239,62130,2,0,L|206:261,1,90.2999972442628,0|2,1:0|0:1,0:0:0:0:
31,172,62492,1,8,0:0:0:0:
205,242,62672,2,0,B|118:238|136:301|20:294,1,180.599994488526,6|2,0:1|0:1,0:0:0:0:
141,56,63215,2,0,P|141:110|150:155,1,90.2999972442628,8|2,0:0|0:1,0:0:0:0:
274,309,63576,5,0,1:0:0:0:
342,187,63757,1,2,0:1:0:0:
269,164,63937,1,8,0:0:0:0:
346,282,64118,1,2,0:1:0:0:
469,115,64299,5,6,1:2:0:0:
342,187,64480,1,0,0:0:0:0:
467,260,64660,1,8,0:0:0:0:
374,90,64841,5,2,0:1:0:0:
374,90,64931,1,2,0:1:0:0:
374,90,65022,2,0,P|298:77|253:64,1,90.2999972442628,0|2,1:0|0:1,0:0:0:0:
256,56,65293,2,0,L|262:119,1,45.1499986221314,0|8,0:0|0:0,0:0:0:0:
42,318,65564,2,0,L|76:155,1,135.449995866394,6|0,0:1|0:0,0:0:0:0:
47,173,65925,1,2,0:1:0:0:
162,79,66106,1,8,0:0:0:0:
142,67,66196,1,8,0:1:0:0:
119,70,66287,1,2,0:1:0:0:
168,212,66468,6,0,P|232:195|276:187,1,90.2999972442628,0|2,1:0|0:1,0:0:0:0:
398,70,66829,1,8,0:0:0:0:
239,106,67010,2,0,B|332:96|307:170|420:161,1,180.599994488526,2|2,0:1|0:1,0:0:0:0:
221,287,67552,1,8,0:0:0:0:
309,364,67733,2,0,P|324:297|337:261,1,90.2999972442628,0|0,1:1|1:0,0:0:0:0:
479,106,68094,5,2,0:1:0:0:
319,178,68275,1,8,0:0:0:0:
424,253,68455,2,0,P|490:266|544:281,1,90.2999972442628,2|0,0:1|1:0,0:0:0:0:
340,88,68817,2,0,P|299:128|299:172,1,90.2999972442628,2|8,0:1|0:0,0:0:0:0:
512,27,69178,2,0,L|450:9,2,45.1499986221314,0|2|0,1:1|0:1|1:0,0:0:0:0:
408,167,69540,5,0,0:0:0:0:
469,118,69721,1,8,0:0:0:0:
264,233,69901,5,2,0:1:0:0:
330,276,70082,1,0,1:1:0:0:
138,145,70263,5,2,0:1:0:0:
212,113,70443,1,8,0:0:0:0:
168,314,70624,6,0,B|72:307|114:264|-7:256,1,172,0|2,1:0|0:1,0:0:0:0:
8,257,71076,1,0,1:1:0:0:
8,257,71166,1,8,0:0:0:0:
149,171,71347,2,0,P|202:155|227:124,1,86,2|0,0:1|1:0,0:0:0:0:
357,289,71708,2,0,P|410:305|435:336,1,86,2|8,0:1|0:0,0:0:0:0:
461,351,71980,1,8,0:0:0:0:
467,333,72070,1,0,1:0:0:0:
473,316,72160,1,2,0:1:0:0:
483,288,72251,6,0,B|441:271|408:226|408:226|381:275|347:295,1,180.599994488526,4|8,1:2|0:0,0:0:0:0:
501,189,72793,1,2,0:1:0:0:
329,119,72974,2,0,P|317:192|305:225,1,90.2999972442628,0|2,1:0|0:1,0:0:0:0:
497,42,73335,1,8,0:0:0:0:
330,12,73516,5,2,0:1:0:0:
330,12,73606,1,2,0:1:0:0:
330,12,73696,2,0,L|222:29,1,90.2999972442628,0|2,1:0|0:1,0:0:0:0:
406,198,74058,1,8,0:0:0:0:
222,38,74239,2,0,B|333:58|284:99|381:117,1,180.599994488526,6|2,0:1|0:1,0:0:0:0:
199,279,74781,2,0,P|181:202|172:182,1,90.2999972442628,8|2,0:0|0:1,0:0:0:0:
176,191,75052,1,2,0:1:0:0:
176,191,75142,6,0,P|241:206|289:209,1,90.2999972442628,0|2,1:0|0:1,0:0:0:0:
19,384,75504,2,0,P|84:369|132:366,1,90.2999972442628,8|2,0:0|0:1,0:0:0:0:
333,304,75865,5,4,1:0:0:0:
369,183,76046,1,0,0:0:0:0:
276,231,76227,1,8,0:0:0:0:
476,311,76407,6,0,B|443:281|443:281|400:318|349:319,1,135.449995866394,6|0,1:1|0:0,0:0:0:0:
333,304,76769,1,2,0:1:0:0:
236,142,76949,6,0,B|292:128|292:128|316:149|316:149|371:157,1,135.449995866394,8|0,0:0|0:0,0:0:0:0:
393,138,77311,1,0,1:0:0:0:
249,30,77492,1,2,0:1:0:0:
217,25,77582,1,0,1:0:0:0:
191,44,77672,1,8,0:0:0:0:
159,38,77763,2,0,B|124:34|124:34|97:39|97:39|63:32,1,90.2999972442628,8|0,0:0|0:0,0:0:0:0:
37,46,78034,6,0,P|45:106|46:137,1,77.3999976379395,4|2,1:0|0:1,0:0:0:0:
182,219,78395,1,0,1:0:0:0:
98,296,78576,1,2,0:1:0:0:
98,296,78666,1,2,0:1:0:0:
98,296,78757,2,0,B|210:291|171:239|277:230,1,193.50000738144,0|2,1:0|0:1,0:0:0:0:
425,310,79480,6,0,P|406:264|402:228,1,75.2500007176399,0|0,1:0|0:0,0:0:0:0:
327,147,79751,2,0,P|320:183|304:217,1,75.2500007176399,0|0,1:0|3:0,0:0:0:0:
252,318,80022,2,0,L|307:304,1,37.62500035882,0|0,1:0|0:0,0:0:0:0:
313,303,80202,1,8,0:0:0:0:
185,255,80383,1,2,0:1:0:0:
172,273,80474,1,2,0:1:0:0:
172,295,80564,1,0,1:0:0:0:
25,384,80745,5,0,1:0:0:0:
25,384,80835,1,2,0:1:0:0:
25,384,80925,2,0,L|9:291,1,75.2500007176399,14|2,0:0|0:1,0:0:0:0:
203,77,81287,2,0,L|187:170,1,75.2500007176399,8|2,0:0|0:1,0:0:0:0:
8,180,81648,5,8,0:0:0:0:
19,174,81739,2,0,B|51:182|51:182|62:193|62:193|98:202,1,86,2|2,0:1|0:1,0:0:0:0:
165,254,82010,1,8,0:0:0:0:
173,260,82100,2,0,B|209:253|209:253|224:242|224:242|267:234,1,86,2|2,0:1|0:1,0:0:0:0:
286,254,82371,5,12,0:0:0:0:
390,218,82552,1,8,0:0:0:0:
437,139,82733,5,2,0:1:0:0:
282,86,82913,1,0,1:0:0:0:
360,33,83094,6,0,P|362:55|369:84,2,43,8|8|0,0:0|0:0|1:0,0:0:0:0:
130,104,83455,5,2,0:0:0:0:
276,75,83636,6,0,B|202:89|235:112|145:131,1,129.00000492096,0|0,1:0|0:0,0:0:0:0:
256,192,83907,12,0,85986,0:0:0:0:
