osu file format v14

[General]
AudioFilename: audio.mp3
AudioLeadIn: 0
PreviewTime: 53365
Countdown: 0
SampleSet: Soft
StackLeniency: 0.7
Mode: 0
LetterboxInBreaks: 0
WidescreenStoryboard: 1

[Editor]
Bookmarks: 2906,12846,24412,47672,59239,60684
DistanceSpacing: 0.8
BeatDivisor: 8
GridSize: 8
TimelineZoom: 1.7

[Metadata]
Title:Eternal Star (TV Size)
TitleUnicode:Eternal Star (TV Size)
Artist:Asaka
ArtistUnicode:Asaka
Creator:Nao Tomori
Version:Kibb's Hard
Source:ISLAND
Tags:frontwing feel. front wing 亜咲花 kibbleru trynna kalibe shanipika
BeatmapID:1711427
BeatmapSetID:813472

[Difficulty]
HPDrainRate:5.5
CircleSize:4
OverallDifficulty:7
ApproachRate:8.5
SliderMultiplier:1.5
SliderTickRate:1

[Events]
//Background and Video events
0,0,"uwo.jpg",0,0
Video,-86,"island end.avi"
//Break Periods
//Storyboard Layer 0 (Background)
//Storyboard Layer 1 (Fail)
//Storyboard Layer 2 (Pass)
//Storyboard Layer 3 (Foreground)
//Storyboard Sound Samples

[TimingPoints]
-38,361.44578313253,4,2,1,50,1,0
142,-100,4,2,1,50,0,0
1407,-100,4,2,1,45,0,0
12846,-133.333333333333,4,2,1,40,0,0
18576,-133.333333333333,4,2,1,20,0,0
18757,-133.333333333333,4,2,1,40,0,0
22966,-100,4,2,1,43,0,0
24412,-114.942528735632,4,2,1,40,0,0
33629,-105.263157894737,4,2,1,43,0,0
35978,-114.942528735632,4,2,1,36,0,0
46227,-100,4,2,1,36,0,0
47672,-114.942528735632,4,2,1,45,0,0
60684,-100,4,2,1,65,0,1
69901,-100,4,2,1,65,0,1
72251,-100,4,2,1,65,0,1
78034,-111.111111111111,4,2,1,65,0,1
78757,-133.333333333333,4,2,1,65,0,1
79480,-114.285714285714,4,2,1,65,0,1
79660,-114.285714285714,4,2,1,5,0,1
79751,-114.285714285714,4,2,1,65,0,1
79931,-114.285714285714,4,2,1,5,0,1
80022,-114.285714285714,4,2,1,65,0,1
81648,-100,4,2,1,65,0,1
82371,-142.857142857143,4,2,1,65,0,1
82913,-100,4,2,1,65,0,1
83636,-66.6666666666667,4,2,1,65,0,1
83817,-66.6666666666667,4,2,1,50,0,0

[Colours]
Combo1 : 255,128,255
Combo2 : 184,101,233
Combo3 : 118,211,252

[HitObjects]
87,129,142,5,8,0:3:0:0:
136,63,323,2,0,L|150:177,1,112.5,8|8,0:0|0:1,0:0:0:0:
147,189,684,2,0,L|194:196,2,37.5,8|0|8,0:0|0:0|0:3,0:0:0:0:
237,106,1046,1,8,0:0:0:0:
237,106,1136,1,8,0:1:0:0:
237,106,1227,1,8,0:3:0:0:
288,170,1407,6,0,P|339:178|418:104,1,150,4|8,1:2|0:0,0:0:0:0:
379,196,1949,2,0,P|370:240|375:274,1,75,2|8,0:1|0:0,0:0:0:0:
380,283,2221,1,8,0:1:0:0:
391,293,2311,1,2,0:1:0:0:
454,235,2492,1,8,0:0:0:0:
288,249,2672,6,0,L|205:268,1,75,2|2,0:1|0:1,0:0:0:0:
300,164,3034,2,0,L|225:112,1,75,2|8,0:1|0:0,0:0:0:0:
388,138,3395,2,0,L|396:45,1,75,2|8,0:1|0:0,0:0:0:0:
395,48,3666,1,8,0:1:0:0:
396,33,3757,1,2,0:1:0:0:
310,67,3937,1,8,0:0:0:0:
425,219,4299,6,0,P|374:168|292:166,1,150,2|8,0:1|0:0,0:0:0:0:
245,226,4841,2,0,P|255:251|255:312,1,75,2|8,0:1|0:0,0:0:0:0:
253,313,5112,1,8,0:1:0:0:
245,326,5202,1,2,0:1:0:0:
168,357,5383,1,8,0:0:0:0:
168,274,5564,6,0,L|81:261,1,75,2|2,0:1|0:1,0:0:0:0:
33,168,5925,2,0,L|107:179,1,75,2|8,0:1|0:0,0:0:0:0:
230,114,6287,2,0,L|143:101,1,75,2|8,0:1|0:0,0:0:0:0:
140,100,6558,1,8,0:1:0:0:
125,97,6648,1,2,0:1:0:0:
190,204,6829,2,0,L|178:261,3,37.5,10|0|0|0,0:0|0:0|0:0|0:0,0:0:0:0:
165,266,7190,6,0,B|250:269|222:219|305:224,1,150,6|8,1:2|0:0,0:0:0:0:
387,223,7733,2,0,P|376:258|376:296,1,75,2|8,0:1|0:0,0:0:0:0:
381,310,8004,1,8,0:1:0:0:
389,322,8094,1,2,0:1:0:0:
330,379,8275,1,8,0:0:0:0:
288,308,8455,6,0,P|243:303|195:277,1,75,2|2,0:1|0:1,0:0:0:0:
102,254,8817,2,0,P|150:233|172:203,1,75,2|8,0:1|0:0,0:0:0:0:
256,214,9178,2,0,P|243:170|250:122,1,75,2|8,0:1|0:0,0:0:0:0:
250,127,9449,1,8,0:1:0:0:
261,116,9540,1,2,0:1:0:0:
331,168,9721,1,8,0:0:0:0:
331,168,9901,1,0,0:0:0:0:
154,130,10082,6,0,L|64:109,1,75,12|2,0:0|0:1,0:0:0:0:
34,189,10443,1,8,0:0:0:0:
15,36,10624,6,0,P|43:106|53:180,1,150,0|0,1:0|1:0,0:0:0:0:
185,358,11347,2,0,P|176:297|175:228,1,112.5,0|0,1:0|0:0,0:0:0:0:
185,228,11708,5,8,0:1:0:0:
254,272,11889,1,8,0:1:0:0:
325,230,12070,1,8,0:1:0:0:
325,230,12160,2,0,L|378:224,1,37.5,8|0,0:0|0:0,0:0:0:0:
491,263,12431,5,8,0:1:0:0:
440,197,12612,1,8,0:1:0:0:
462,117,12793,1,8,0:1:0:0:
462,117,12883,1,8,0:0:0:0:
462,117,12974,1,6,0:1:0:0:
266,19,13335,6,0,L|285:141,1,112.500004291535,2|2,0:1|0:1,0:0:0:0:
342,276,14058,1,2,0:1:0:0:
342,276,14239,2,0,P|263:274|195:341,1,168.750006437302,0|2,0:0|0:1,0:0:0:0:
200,332,14961,1,0,0:0:0:0:
132,289,15142,2,0,L|117:229,1,56.2500021457673,2|0,0:1|0:0,0:0:0:0:
179,183,15504,2,0,L|186:113,1,56.2500021457673,2|0,0:1|0:0,0:0:0:0:
147,57,15865,6,0,P|192:51|267:36,1,112.500004291535,2|2,0:1|0:1,0:0:0:0:
325,78,16407,2,0,P|340:111|349:190,1,112.500004291535,2|0,0:0|0:0,0:0:0:0:
305,251,16949,1,2,2:1:0:0:
226,254,17130,2,0,L|214:186,1,56.2500021457673,2|2,0:0|0:1,0:0:0:0:
92,79,17492,5,0,0:0:0:0:
49,144,17672,1,2,2:1:0:0:
126,155,17853,2,0,L|135:210,1,56.2500021457673,0|2,0:0|0:1,0:0:0:0:
87,337,18215,6,0,P|101:316|144:300,1,56.2500021457673,0|2,0:0|0:1,0:0:0:0:
222,258,18576,2,0,P|260:278|273:296,1,56.2500021457673,4|2,0:0|0:1,0:0:0:0:
424,98,19118,6,0,P|366:111|299:121,1,112.500004291535,2|2,0:1|0:1,0:0:0:0:
145,130,19841,1,2,0:1:0:0:
146,130,20022,2,0,B|239:138|179:191|288:205,1,168.750006437302,0|2,0:0|0:1,0:0:0:0:
361,249,20745,1,0,0:0:0:0:
425,195,20925,2,0,P|433:142|463:68,1,112.500004291535,2|2,0:1|0:1,0:0:0:0:
266,101,21648,6,0,L|273:40,1,56.2500021457673,2|0,0:1|1:1,0:0:0:0:
181,120,22010,2,0,L|122:66,1,56.2500021457673,2|0,1:0|0:0,0:0:0:0:
155,199,22371,2,0,L|104:207,3,28.1250010728836,2|2|2|2,1:0|0:1|0:1|0:1,0:0:0:0:
122,227,22733,2,0,L|71:235,3,28.1250010728836,2|2|2|2,1:0|0:1|0:1|0:1,0:0:0:0:
66,215,23094,6,0,B|147:232|147:232|180:283|180:283|259:302,1,225,6|2,1:0|0:1,0:0:0:0:
321,248,23817,2,0,L|314:197,2,37.5,2|0|2,0:1|0:0|0:1,0:0:0:0:
372,312,24178,1,2,1:0:0:0:
450,286,24359,1,2,0:1:0:0:
450,286,24449,1,0,1:0:0:0:
450,286,24540,6,0,L|460:198,1,65.2500005475998,6|0,0:1|0:0,0:0:0:0:
425,126,24901,1,2,0:1:0:0:
425,126,25082,1,8,0:1:0:0:
499,149,25263,2,0,P|447:172|364:184,1,130.5000010952,0|0,0:0|0:0,0:0:0:0:
306,145,25805,1,0,0:0:0:0:
229,163,25986,6,0,P|223:127|202:80,1,65.2500005475998,2|2,0:1|0:1,0:0:0:0:
136,116,26347,1,0,0:0:0:0:
136,116,26528,2,0,P|135:151|125:188,1,65.2500005475998,8|0,0:1|0:0,0:0:0:0:
62,223,26889,1,2,0:1:0:0:
115,280,27070,1,8,0:1:0:0:
62,223,27251,1,2,0:1:0:0:
65,344,27431,6,0,P|124:317|207:317,1,130.5000010952,6|8,0:1|0:1,0:0:0:0:
254,357,27974,1,0,1:0:0:0:
351,234,28335,1,0,1:0:0:0:
351,234,28516,1,0,0:0:0:0:
425,209,28696,6,0,B|379:197|379:197|358:172|358:172|309:160,1,130.5000010952,4|2,1:0|0:1,0:0:0:0:
238,195,29239,2,0,P|215:146|212:58,1,130.5000010952,8|0,0:0|0:0,0:0:0:0:
142,30,29781,1,2,0:1:0:0:
83,81,29961,2,0,P|40:92|20:103,1,65.2500005475998,8|2,0:0|0:1,0:0:0:0:
5,179,30323,6,0,P|38:188|78:214,1,65.2500005475998,6|0,0:1|0:0,0:0:0:0:
141,184,30684,2,0,P|157:226|159:262,1,65.2500005475998,8|0,0:1|0:0,0:0:0:0:
238,250,31046,1,2,0:1:0:0:
238,250,31227,2,0,P|229:290|209:330,1,65.2500005475998,2|0,0:1|0:0,0:0:0:0:
287,351,31588,6,0,B|363:360|346:322|413:328,1,130.5000010952,6|2,0:1|0:1,0:0:0:0:
475,281,32130,1,8,0:1:0:0:
509,363,32311,1,0,1:1:0:0:
337,176,32672,2,0,L|252:193,1,65.2500005475998,0|0,1:0|0:0,0:0:0:0:
266,200,32943,1,0,1:0:0:0:
259,211,33034,1,0,1:0:0:0:
197,162,33215,6,0,P|190:127|178:90,2,65.2500005475998,8|0|0,0:0|0:0|0:0,0:0:0:0:
157,229,33757,1,2,1:0:0:0:
338,102,34118,1,0,1:0:0:0:
338,102,34299,1,0,0:0:0:0:
402,57,34480,6,0,P|386:100|377:199,1,142.49999619484,4|0,1:0|1:0,0:0:0:0:
387,217,34931,2,0,L|436:234,1,35.6249990487099,8|2,0:1|0:1,0:0:0:0:
395,322,35202,2,0,P|356:331|303:354,1,71.2499980974198,8|0,0:0|1:0,0:0:0:0:
313,350,35474,1,8,0:1:0:0:
301,358,35564,2,0,P|286:318|279:285,1,71.2499980974198,2|8,0:1|0:1,0:0:0:0:
288,212,35925,1,8,0:0:0:0:
288,212,36016,1,8,0:1:0:0:
288,212,36106,5,4,1:2:0:0:
154,293,36468,1,2,0:1:0:0:
85,255,36648,1,4,0:3:0:0:
25,306,36829,2,0,P|39:250|41:160,1,130.5000010952,4|2,0:3|0:1,0:0:0:0:
29,100,37371,6,0,L|-11:83,2,32.6250002737999,0|2|0,0:0|0:0|1:1,0:0:0:0:
97,60,37733,1,2,0:1:0:0:
161,103,37913,1,0,1:0:0:0:
218,50,38094,2,0,L|291:33,1,65.2500005475998,2|0,0:1|1:0,0:0:0:0:
315,131,38455,2,0,L|388:148,1,65.2500005475998,2|0,0:1|1:0,0:0:0:0:
454,124,38817,1,2,0:0:0:0:
454,124,38907,1,2,0:0:0:0:
454,124,38998,5,0,1:0:0:0:
427,275,39359,1,2,0:1:0:0:
355,242,39540,1,2,0:1:0:0:
281,270,39721,2,0,P|275:236|262:193,1,65.2500005475998,0|0,1:0|0:0,0:0:0:0:
189,195,40082,1,0,1:0:0:0:
189,195,40263,6,0,P|184:228|169:275,1,65.2500005475998,0|0,0:0|1:0,0:0:0:0:
122,316,40624,1,2,0:1:0:0:
177,371,40805,1,0,1:0:0:0:
252,351,40986,2,0,L|327:368,1,65.2500005475998,2|0,0:1|1:0,0:0:0:0:
326,262,41347,2,0,L|401:245,1,65.2500005475998,8|4,0:3|0:3,0:0:0:0:
450,67,41889,6,0,B|349:51|376:129|257:106,1,195.750001642799,0|8,1:0|0:1,0:0:0:0:
197,67,42612,2,0,P|212:101|227:210,1,130.5000010952,0|0,1:0|1:0,0:0:0:0:
85,197,43245,1,2,0:1:0:0:
85,197,43335,6,0,P|116:183|147:153,1,65.2500005475998,0|8,1:1|0:1,0:0:0:0:
200,212,43696,2,0,P|240:230|268:259,1,65.2500005475998,0|2,0:0|0:1,0:0:0:0:
319,197,44058,1,0,1:0:0:0:
391,226,44239,1,2,0:1:0:0:
458,186,44419,1,2,0:1:0:0:
459,107,44600,2,0,L|449:60,2,32.6250002737999,2|2|0,0:0|0:0|1:0,0:0:0:0:
472,343,45142,5,2,0:1:0:0:
423,281,45323,2,0,P|374:261|354:259,1,65.2500005475998,8|2,0:1|0:1,0:0:0:0:
297,215,45684,2,0,P|268:230|243:262,1,65.2500005475998,0|2,1:0|0:1,0:0:0:0:
207,322,46046,1,0,0:0:0:0:
124,319,46227,6,0,P|108:260|76:208,1,100,4|8,0:3|0:3,0:0:0:0:
92,116,46708,1,8,0:3:0:0:
201,102,46949,2,0,P|179:161|177:225,1,100,4|2,0:3|0:1,0:0:0:0:
248,280,47431,1,0,1:0:0:0:
280,182,47672,5,4,1:0:0:0:
280,182,47853,2,0,L|417:206,1,130.5000010952,2|2,0:1|0:1,0:0:0:0:
474,162,48395,2,0,P|455:201|440:306,1,130.5000010952,8|0,0:1|1:0,0:0:0:0:
387,344,48937,6,0,P|319:346|264:297,1,130.5000010952,2|8,0:1|0:1,0:0:0:0:
221,248,49480,1,2,0:1:0:0:
156,291,49660,1,0,1:1:0:0:
208,114,50022,1,8,0:0:0:0:
143,157,50202,2,0,P|129:110|108:70,1,65.2500005475998,2|8,0:1|0:1,0:0:0:0:
65,187,50564,5,2,0:1:0:0:
65,187,50745,2,0,P|113:186|184:245,1,130.5000010952,0|2,1:1|0:1,0:0:0:0:
181,245,51196,1,0,1:1:0:0:
184,257,51287,2,0,L|326:284,1,130.5000010952,0|2,1:1|0:1,0:0:0:0:
383,313,51829,6,0,P|413:263|408:185,1,130.5000010952,0|2,1:0|0:1,0:0:0:0:
356,136,52371,1,0,1:0:0:0:
393,67,52552,1,2,0:1:0:0:
236,133,52913,2,0,B|189:120|172:80|172:80|150:113|111:125,1,163.125001368999,0|2,1:0|0:0,0:0:0:0:
88,124,53455,6,0,L|96:188,1,65.2500005475998,12|0,0:0|1:0,0:0:0:0:
88,273,53817,2,0,L|167:259,1,65.2500005475998,8|0,0:0|1:0,0:0:0:0:
228,298,54178,6,0,L|236:233,1,65.2500005475998,12|0,0:0|1:0,0:0:0:0:
228,149,54540,2,0,L|307:163,1,65.2500005475998,8|0,0:0|1:0,0:0:0:0:
367,121,54901,6,0,P|397:161|380:256,1,130.5000010952,12|8,0:0|0:0,0:0:0:0:
311,262,55443,1,0,1:0:0:0:
255,185,55624,6,0,L|247:121,1,65.2500005475998,12|0,0:0|1:1,0:0:0:0:
205,255,55986,2,0,L|213:319,1,65.2500005475998,8|0,0:0|1:0,0:0:0:0:
147,192,56347,6,0,L|18:178,1,130.5000010952,12|8,0:0|0:0,0:0:0:0:
88,130,56889,1,0,1:0:0:0:
25,72,57070,2,0,L|10:1,1,65.2500005475998,12|0,0:0|1:0,0:0:0:0:
108,47,57431,2,0,L|176:55,1,65.2500005475998,10|0,0:0|1:0,0:0:0:0:
308,23,57793,5,14,0:0:0:0:
254,88,57974,1,8,1:0:0:0:
296,160,58154,2,0,P|288:191|283:223,1,65.2500005475998,10|0,0:0|1:0,0:0:0:0:
376,332,58516,2,0,P|383:300|388:268,1,65.2500005475998,10|0,0:0|0:0,0:0:0:0:
380,250,58787,2,0,L|456:249,1,65.2500005475998,2|0,2:0|0:0,0:0:0:0:
465,249,59058,1,0,1:0:0:0:
491,153,59239,5,2,0:0:0:0:
230,4,60684,6,0,L|219:79,1,75,4|2,1:2|0:1,0:0:0:0:
138,92,61046,2,0,L|149:17,1,75,8|2,0:0|0:1,0:0:0:0:
53,119,61407,2,0,P|112:123|183:204,1,150,0|8,1:0|0:0,0:0:0:0:
144,258,61949,6,0,B|220:264|194:306|278:317,1,150,2|2,0:1|0:1,0:0:0:0:
357,292,62492,2,0,P|374:238|372:137,1,150,8|0,0:0|0:0,0:0:0:0:
294,168,63034,1,2,0:1:0:0:
313,87,63215,2,0,L|225:68,1,75,8|2,0:0|0:1,0:0:0:0:
154,115,63576,6,0,P|154:77|162:40,1,75,0|2,1:0|0:1,0:0:0:0:
84,158,63937,2,0,P|90:194|91:232,1,75,8|2,0:0|0:1,0:0:0:0:
85,315,64299,2,0,B|174:312|143:266|221:263,1,150,6|8,1:2|0:0,0:0:0:0:
241,183,64841,6,0,P|297:196|356:283,1,150,2|2,0:1|0:1,0:0:0:0:
433,284,65383,1,8,0:0:0:0:
376,343,65564,2,0,P|399:244|424:173,1,150,6|2,0:1|0:1,0:0:0:0:
376,125,66106,1,8,0:0:0:0:
376,125,66196,1,8,0:1:0:0:
376,125,66287,1,2,0:1:0:0:
326,191,66468,6,0,L|248:204,1,75,0|2,1:0|0:1,0:0:0:0:
161,302,66829,1,8,0:0:0:0:
124,227,67010,2,0,B|199:232|170:278|256:289,1,150,2|2,0:1|0:1,0:0:0:0:
337,277,67552,1,8,0:0:0:0:
375,204,67733,6,0,P|365:169|360:121,1,75,0|0,1:1|1:0,0:0:0:0:
282,102,68094,2,0,P|269:131|256:184,1,75,2|8,0:1|0:0,0:0:0:0:
205,245,68455,1,2,0:1:0:0:
205,245,68636,1,0,1:0:0:0:
161,166,68817,2,0,L|62:182,2,75,2|8|0,0:1|0:0|1:1,0:0:0:0:
282,102,69359,6,0,L|270:22,2,75,4|0|8,1:0|0:0|0:0,0:0:0:0:
354,156,69901,1,2,0:1:0:0:
292,222,70082,1,0,1:1:0:0:
354,156,70263,1,2,0:1:0:0:
300,227,70443,1,8,0:0:0:0:
352,299,70624,6,0,P|258:258|191:258,1,150,0|2,1:0|0:1,0:0:0:0:
198,263,71076,1,0,1:1:0:0:
185,271,71166,2,0,L|157:189,1,75,8|2,0:0|0:1,0:0:0:0:
252,82,71528,1,0,1:0:0:0:
252,82,71708,2,0,L|236:168,1,75,2|8,0:1|0:0,0:0:0:0:
238,155,71980,1,8,0:0:0:0:
238,155,72070,1,0,1:0:0:0:
333,135,72251,6,0,P|371:137|422:162,1,75,4|0,1:2|0:0,0:0:0:0:
485,125,72612,2,0,P|493:159|494:222,1,75,8|2,0:0|0:1,0:0:0:0:
356,222,72974,2,0,P|372:169|379:72,1,150,0|8,1:0|0:0,0:0:0:0:
309,30,73516,6,0,B|228:37|261:81|161:97,1,150,2|2,0:1|0:1,0:0:0:0:
98,118,74058,2,0,P|164:129|232:183,1,150,8|0,0:0|1:0,0:0:0:0:
264,253,74600,1,2,0:1:0:0:
181,248,74781,2,0,P|172:286|157:325,1,75,8|2,0:0|0:1,0:0:0:0:
66,372,75142,6,0,P|61:324|50:289,1,75,0|2,1:0|0:1,0:0:0:0:
45,285,75413,1,2,1:0:0:0:
33,274,75504,1,8,0:0:0:0:
89,214,75684,1,2,0:1:0:0:
40,115,75865,2,0,L|118:136,2,75,4|0|8,1:0|0:0|0:0,0:0:0:0:
163,69,76407,6,0,L|129:231,1,150,6|2,1:1|0:1,0:0:0:0:
211,278,76949,2,0,L|241:131,1,150,8|0,0:0|1:0,0:0:0:0:
334,107,77492,1,2,0:1:0:0:
334,107,77582,1,0,1:0:0:0:
334,107,77672,2,0,L|323:159,2,37.5,8|0|2,0:0|0:0|0:1,0:0:0:0:
433,218,78034,6,0,L|354:230,1,67.4999979400635,4|2,1:0|0:1,0:0:0:0:
153,196,78576,1,2,0:1:0:0:
153,196,78666,1,2,0:1:0:0:
153,196,78757,2,0,P|189:180|244:279,1,168.750006437302,0|2,1:0|0:1,0:0:0:0:
306,341,79480,6,0,P|357:334|402:306,2,98.4375009387732,0|0|0,1:0|1:0|1:0,0:0:0:0:
211,360,80202,2,0,P|187:333|139:305,1,65.6250006258488,8|2,0:0|0:1,0:0:0:0:
150,312,80474,1,2,0:1:0:0:
136,312,80564,1,0,1:0:0:0:
31,357,80745,1,0,1:0:0:0:
31,357,80835,1,2,0:1:0:0:
31,357,80925,6,0,P|51:287|49:214,1,131.250001251698,14|8,0:0|0:0,0:0:0:0:
26,145,81468,1,2,0:1:0:0:
26,145,81558,1,2,0:1:0:0:
26,145,81648,2,0,L|12:81,2,37.5,12|2|2,0:0|0:1|0:1,0:0:0:0:
121,163,82010,2,0,L|149:120,2,37.5,8|2|0,0:0|0:1|1:0,0:0:0:0:
152,247,82371,6,0,P|217:256|257:271,1,104.999996795654,12|2,0:0|0:1,0:0:0:0:
319,326,82913,2,0,P|357:294|362:184,1,150,0|0,1:0|1:0,0:0:0:0:
294,148,83455,1,0,0:0:0:0:
385,99,83636,2,0,L|394:40,2,56.2500021457673,0|0|0,1:0|0:0|0:0,0:0:0:0:
256,192,83907,12,0,85986,0:0:0:0:
