osu file format v14

[General]
AudioFilename: audio.mp3
AudioLeadIn: 0
PreviewTime: 59600
Countdown: 0
SampleSet: Soft
StackLeniency: 0.7
Mode: 0
LetterboxInBreaks: 0
WidescreenStoryboard: 1

[Editor]
Bookmarks: 13335,24517,36083,53433,56347,57770,60662,78011,86008
DistanceSpacing: 1
BeatDivisor: 4
GridSize: 4
TimelineZoom: 3.099999

[Metadata]
Title:Eternal Star (TV Size)
TitleUnicode:Eternal Star (TV Size)
Artist:Asaka
ArtistUnicode:亜咲花
Creator:239
Version:Insane
Source:ISLAND
Tags:アイランド frontwing feel. front wing 亜咲花 anime japanese ed ending jpop pop j-pop
BeatmapID:2244488
BeatmapSetID:1023483

[Difficulty]
HPDrainRate:5
CircleSize:3.8
OverallDifficulty:8
ApproachRate:9
SliderMultiplier:1.7
SliderTickRate:1

[Events]
//Background and Video events
0,0,"BG.jpg",0,0
//Break Periods
//Storyboard Layer 0 (Background)
//Storyboard Layer 1 (Fail)
//Storyboard Layer 2 (Pass)
//Storyboard Layer 3 (Foreground)
//Storyboard Layer 4 (Overlay)
//Storyboard Sound Samples

[TimingPoints]
297,361.44578313253,4,2,1,70,1,0
13309,-125,4,2,1,50,0,0
14574,-105.263157894737,4,2,1,50,0,0
15477,-125,4,2,1,50,0,0
22706,-125,4,2,1,60,0,0
23068,-125,4,2,1,65,0,0
23429,-125,4,2,1,70,0,0
24875,-100,4,2,1,70,0,0
30658,-90.9090909090909,4,2,1,70,0,0
36441,-125,4,2,1,50,0,0
42224,-100,4,2,1,60,0,0
43128,-125,4,2,1,55,0,0
43670,-100,4,2,1,70,0,0
44393,-100,4,2,1,55,0,0
45116,-100,4,2,1,60,0,0
45658,-100,4,2,1,50,0,0
46803,-100,4,2,1,60,0,0
47043,-100,4,2,1,70,0,0
47525,-100,4,2,1,60,0,0
47766,-100,4,2,1,50,0,0
48007,-100,4,2,1,60,0,0
49272,-100,4,2,1,60,0,0
49543,-100,4,2,1,5,0,0
49634,-100,4,2,1,60,0,0
51893,-100,4,2,1,5,0,0
51983,-100,4,2,1,60,0,0
52977,-100,4,2,1,5,0,0
53248,-100,4,2,1,60,0,0
53339,-100,4,2,1,5,0,0
53429,-100,4,2,1,60,0,0
53700,-100,4,2,1,5,0,0
53790,-100,4,2,1,70,0,0
58851,-83.3333333333333,4,2,1,60,0,0
59483,-100,4,2,1,60,0,1
59574,-100,4,2,1,60,0,0
59935,-100,4,2,1,70,0,0
60296,-166.666666666667,4,2,1,60,0,0
60839,-100,4,2,1,5,0,0
61019,-83.3333333333333,4,2,22,90,0,1
61381,-83.3333333333333,4,2,1,80,0,1
66803,-90.9090909090909,4,2,1,70,0,1
72043,-142.857142857143,4,2,1,70,0,1
72586,-83.3333333333333,4,2,22,90,0,1
72947,-83.3333333333333,4,2,1,80,0,1
78369,-100,4,2,1,60,0,0
81260,-100,4,2,1,70,0,0
83971,-104.166666666667,4,2,22,80,0,0
84152,-100,4,2,22,50,0,0
85598,-100,4,2,1,35,0,0
85873,-100,4,2,1,20,0,0
86321,-100,4,2,1,5,0,0

[Colours]
Combo1 : 254,183,97
Combo2 : 163,224,192
Combo3 : 18,124,255
Combo4 : 139,88,224

[HitObjects]
403,323,477,5,4,3:0:0:0:
461,214,658,2,0,P|412:169|343:182,1,127.5,0|0,1:0|1:0,0:0:0:0:
303,237,1019,1,8,3:0:0:0:
244,129,1200,1,0,3:0:0:0:
75,259,1381,5,2,1:2:0:0:
111,280,1471,1,2,1:2:0:0:
153,279,1561,1,2,3:2:0:0:
188,257,1652,1,2,3:2:0:0:
207,219,1742,6,0,P|202:143|168:44,1,170,6|0,3:2|1:0,0:0:0:0:
403,109,2284,2,0,P|337:82|288:99,1,85,2|0,0:0|3:0,0:0:0:0:
294,113,2556,1,0,1:0:0:0:
294,113,2646,1,2,0:0:0:0:
173,54,2827,1,0,1:0:0:0:
184,188,3007,6,0,P|150:215|108:221,1,85,2|0,0:0|3:0,0:0:0:0:
13,36,3369,2,0,P|31:114|111:125,1,170,2|2,0:0|0:0,0:0:0:0:
182,0,3911,1,0,3:0:0:0:
171,40,4001,1,0,1:0:0:0:
195,74,4092,1,2,3:2:0:0:
345,189,4272,2,0,P|315:159|205:186,1,127.5,0|0,1:0|3:0,0:0:0:0:
199,183,4634,6,0,B|104:197|132:131|30:155,1,170,4|0,3:1|1:0,0:0:0:0:
23,343,5176,2,0,P|16:300|37:245,1,85,2|0,0:0|3:0,0:0:0:0:
61,235,5447,1,0,1:0:0:0:
61,235,5537,1,2,0:0:0:0:
158,329,5718,1,0,1:0:0:0:
235,206,5899,6,0,P|195:196|153:202,1,85,2|0,0:0|3:0,0:0:0:0:
306,323,6260,2,0,P|322:214|365:127,1,170,2|2,0:0|0:0,0:0:0:0:
228,48,6803,1,0,3:0:0:0:
231,90,6894,1,0,1:0:0:0:
250,126,6983,1,2,3:2:0:0:
447,147,7164,5,2,1:2:0:0:
435,106,7254,1,2,1:2:0:0:
407,75,7344,1,2,3:2:0:0:
368,59,7435,1,2,3:2:0:0:
326,62,7525,6,0,P|299:125|288:239,1,170,6|0,3:2|1:0,0:0:0:0:
96,309,8068,2,0,P|136:288|214:278,1,85,2|0,0:0|3:0,0:0:0:0:
214,294,8339,1,0,1:0:0:0:
214,294,8429,1,2,0:0:0:0:
164,167,8610,1,0,1:0:0:0:
286,225,8790,6,0,B|307:187|307:187|299:137,1,85,2|0,0:0|3:0,0:0:0:0:
151,34,9152,2,0,B|225:74|225:74|307:45,1,170,2|2,0:0|0:0,0:0:0:0:
437,0,9694,1,0,3:0:0:0:
421,38,9784,1,0,1:0:0:0:
433,78,9875,1,2,3:2:0:0:
305,45,10056,1,0,1:0:0:0:
381,201,10236,1,2,0:0:0:0:
212,125,10417,6,0,B|175:129|149:104|149:104|110:140|31:122,1,170,4|0,0:0|1:0,0:0:0:0:
205,42,10959,1,4,0:0:0:0:
87,207,11321,1,4,0:0:0:0:
348,47,11682,6,0,P|288:120|330:207,1,170,6|0,0:0|3:0,0:0:0:0:
405,233,12224,1,0,1:0:0:0:
354,346,12405,1,0,3:0:0:0:
354,346,12495,2,0,B|413:338|413:338|422:342|422:342|479:334,1,127.5,0|0,3:0|1:0,0:0:0:0:
327,263,12947,1,0,1:0:0:0:
240,377,13128,1,0,1:0:0:0:
240,377,13218,1,0,3:0:0:0:
240,377,13309,6,0,P|226:329|233:282,1,68,4|0,3:2|0:0,0:0:0:0:
128,321,13670,2,0,P|131:287|146:256,1,68,0|0,3:0|0:0,0:0:0:0:
223,145,14031,6,0,P|222:179|234:211,1,68,2|0,3:2|0:0,0:0:0:0:
15,113,14393,1,0,3:0:0:0:
15,113,14574,6,0,B|51:134|130:133|115:65|152:26|206:37|250:59|249:95,1,242.249993531227,2|0,0:2|3:0,0:0:0:0:
267,145,15296,1,0,0:0:0:0:
267,145,15477,2,0,L|259:223,1,68,0|0,3:2|0:0,0:0:0:0:
126,293,15839,2,0,L|193:286,1,68,0|0,3:2|0:0,0:0:0:0:
359,115,16200,6,0,L|347:250,1,136,2|0,3:2|3:0,0:0:0:0:
476,314,16742,2,0,P|442:311|410:321,1,68,2|0,0:2|3:0,0:0:0:0:
335,384,17104,2,0,P|301:386|268:377,1,68,2|0,0:2|3:0,0:0:0:0:
244,213,17465,6,0,P|197:297|103:280,1,204,2|0,0:2|3:0,0:0:0:0:
50,198,18188,1,0,0:0:0:0:
50,198,18369,2,0,P|81:183|129:185,1,68,0|2,3:0|0:0,0:0:0:0:
119,81,18730,2,0,P|152:86|191:115,1,68,0|2,3:0|0:0,0:0:0:0:
246,232,19092,6,0,L|273:82,1,136,4|0,3:1|3:2,0:0:0:0:
472,136,19634,1,0,0:0:0:0:
472,136,19815,2,0,B|404:117|404:117|350:153,1,136,2|0,3:2|3:0,0:0:0:0:
299,252,20357,6,0,B|244:226|243:173|243:173|215:218|154:213,1,204,2|0,0:2|3:0,0:0:0:0:
78,184,21080,1,0,0:0:0:0:
78,184,21260,2,0,L|96:88,1,68,2|0,3:2|0:0,0:0:0:0:
0,19,21622,2,0,P|30:32|63:26,1,68,2|0,3:2|0:0,0:0:0:0:
184,154,21983,6,0,P|229:127|288:154,1,102,0|0,3:2|0:0,0:0:0:0:
294,167,22345,1,0,3:2:0:0:
370,68,22525,1,0,3:2:0:0:
407,213,22706,2,0,L|439:201,3,34,0|0|0|0,3:0|3:0|3:0|3:0,0:0:0:0:
380,234,23068,5,0,3:0:0:0:
353,212,23158,1,0,3:0:0:0:
320,205,23248,1,0,3:0:0:0:
288,214,23339,1,0,3:0:0:0:
263,237,23429,6,0,P|227:242|186:228,1,68,4|4,3:2|3:0,0:0:0:0:
234,50,23790,1,0,3:2:0:0:
81,129,23971,2,0,L|147:115,1,68,4|0,0:0|3:0,0:0:0:0:
179,128,24242,1,4,3:0:0:0:
179,128,24333,1,0,3:0:0:0:
344,235,24513,2,0,L|277:221,1,68,4|0,1:2|1:0,0:0:0:0:
191,273,24784,1,0,1:0:0:0:
191,273,24875,6,0,B|147:284|147:284|94:266,1,85,4|0,3:1|0:0,0:0:0:0:
26,214,25236,1,0,3:0:0:0:
65,358,25417,1,0,1:0:0:0:
149,180,25598,2,0,B|227:196|227:121|309:148,1,170,2|0,0:0|1:2,0:0:0:0:
374,322,26140,1,2,3:2:0:0:
369,218,26321,6,0,P|398:221|459:258,1,85,0|0,3:0|3:0,0:0:0:0:
268,384,26682,1,0,0:0:0:0:
222,233,26863,1,0,1:0:0:0:
109,347,27043,2,0,P|150:350|185:327,1,85,0|0,0:0|3:0,0:0:0:0:
66,168,27405,2,0,P|88:203|128:213,1,85,0|0,1:0|3:0,0:0:0:0:
356,289,27766,6,0,P|303:226|222:232,1,170,0|0,3:0|1:0,0:0:0:0:
109,347,28309,1,4,0:0:0:0:
0,227,28670,1,4,0:0:0:0:
128,0,29031,6,0,P|169:84|183:180,1,170,4|0,0:0|3:0,0:0:0:0:
348,240,29574,2,0,P|314:214|275:200,1,85,0|0,1:0|0:2,0:0:0:0:
85,310,29935,2,0,P|119:285|142:249,1,85,0|0,3:0|3:2,0:0:0:0:
217,10,30296,2,0,P|221:52|241:89,1,85,0|0,1:0|3:2,0:0:0:0:
272,167,30568,1,0,3:0:0:0:
272,167,30658,6,0,P|320:149|387:154,1,93.5000028533936,4|0,3:2|0:0,0:0:0:0:
442,247,31019,1,0,1:0:0:0:
459,68,31200,1,0,0:0:0:0:
335,242,31381,2,0,B|234:271|258:177|132:223,1,187.000005706787,0|0,3:0|1:0,0:0:0:0:
12,345,31923,6,0,B|27:276|74:261|74:261|102:313|165:301,1,187.000005706787,4|0,0:0|3:0,0:0:0:0:
92,384,32465,1,0,1:0:0:0:
157,215,32646,1,4,0:0:0:0:
349,302,33007,1,4,0:0:0:0:
374,207,33188,1,2,0:0:0:0:
251,315,33369,1,0,1:2:0:0:
251,315,33459,1,0,0:0:0:0:
251,315,33550,6,0,P|186:296|114:380,1,187.000005706787,2|0,1:2|1:0,0:0:0:0:
113,203,34092,1,4,3:2:0:0:
197,378,34453,1,6,3:2:0:0:
290,173,34815,6,0,B|187:151|212:224|112:202,1,187.000005706787,4|0,3:1|3:0,0:0:0:0:
75,175,35266,1,0,1:0:0:0:
75,175,35357,1,0,0:0:0:0:
0,108,35537,2,0,P|38:81|83:74,1,93.5000028533936,2|0,1:2|0:0,0:0:0:0:
188,192,35899,1,4,3:0:0:0:
215,0,36080,1,0,1:0:0:0:
291,121,36260,1,0,1:0:0:0:
293,114,36351,1,0,1:0:0:0:
295,107,36441,6,0,L|391:105,2,68,0|0|0,3:0|0:0|3:0,0:0:0:0:
213,125,36983,1,0,0:0:0:0:
137,74,37164,2,0,L|117:217,1,136,0|0,3:2|3:0,0:0:0:0:
48,310,37706,6,0,L|-2:297,2,34,0|0|4,3:0|3:2|3:1,0:0:0:0:
208,361,38068,2,0,P|249:360|295:339,1,68,2|0,0:0|3:0,0:0:0:0:
167,216,38429,2,0,P|147:252|142:302,1,68,2|0,0:0|3:0,0:0:0:0:
264,136,38790,2,0,P|230:104|133:146,1,136,2|0,0:0|1:0,3:3:0:0:
64,213,39333,6,0,P|61:179|36:145,2,68,0|0|0,3:2|0:0|3:0,0:0:0:0:
50,312,39875,1,0,0:0:0:0:
155,249,40056,2,0,B|243:222|243:222|284:236,1,136,0|0,3:2|3:0,0:0:0:0:
360,345,40598,6,0,L|355:384,2,34,0|0|4,3:2|3:2|3:1,0:0:0:0:
468,292,40959,2,0,L|476:224,1,68,2|4,0:2|3:0,0:0:0:0:
389,111,41321,2,0,L|372:246,1,136,4|4,3:0|3:0,0:0:0:0:
360,345,41863,1,0,3:0:0:0:
141,212,42224,6,0,B|127:154|192:128|225:139|244:187|299:209|343:172,1,255,4|0,3:2|1:0,0:0:0:0:
378,97,42947,1,0,3:0:0:0:
378,97,43128,2,0,P|378:151|409:244,1,136,2|0,0:0|0:0,0:0:0:0:
472,384,43670,6,0,P|492:280|391:312,1,255,4|0,0:1|3:0,0:0:0:0:
308,384,44393,2,0,P|270:365|228:367,1,85,0|0,3:0|0:0,0:0:0:0:
257,253,44754,2,0,P|214:256|179:277,1,85,0|0,3:0|0:0,0:0:0:0:
28,384,45116,6,0,B|81:371|81:371|104:306|60:236,1,170,4|0,3:2|3:0,0:0:0:0:
24,180,45658,1,0,1:0:0:0:
168,247,45839,2,0,B|197:245|213:216|213:216|253:261|316:241,1,170,0|0,3:0|3:0,0:0:0:0:
410,384,46381,1,0,3:0:0:0:
375,359,46472,1,0,3:0:0:0:
365,317,46562,5,4,3:1:0:0:
372,172,46803,5,2,0:0:0:0:
512,136,47043,5,2,0:0:0:0:
450,311,47284,5,4,0:1:0:0:
318,241,47525,5,2,0:0:0:0:
192,320,47765,5,2,0:0:0:0:
14,204,48006,5,4,3:2:0:0:
126,173,48188,2,0,L|115:258,2,85,0|0|0,3:0|3:0|3:0,0:0:0:0:
86,63,48730,2,0,P|127:133|208:131,1,170,4|0,1:2|3:0,0:0:0:0:
309,48,49272,6,0,P|298:89|298:189,1,127.5,4|0,3:1|0:0,0:0:0:0:
304,215,49634,1,0,1:0:0:0:
207,131,49815,1,4,3:0:0:0:
203,309,49995,2,0,P|242:301|288:299,1,85,4|0,3:2|0:0,0:0:0:0:
392,370,50357,2,0,B|344:366|344:366|322:302|362:252,1,170,2|0,1:2|3:0,0:0:0:0:
397,228,50809,1,0,3:0:0:0:
397,228,50899,5,4,3:0:0:0:
469,159,51080,2,0,P|435:134|392:129,1,85,4|0,3:0|3:0,0:0:0:0:
273,262,51441,1,0,3:0:0:0:
273,262,51531,1,0,3:0:0:0:
273,262,51622,2,0,P|298:189|255:87,1,170,0|0,1:0|3:0,0:0:0:0:
107,43,52164,6,0,L|280:16,1,170,4|0,3:1|1:0,0:0:0:0:
313,108,52706,1,0,3:0:0:0:
368,0,52887,1,4,1:2:0:0:
368,0,53248,1,4,1:2:0:0:
400,87,53429,2,0,L|433:79,5,21.25,2|2|2|2|2|2,0:0|0:0|0:0|0:0|0:0|0:0,0:0:0:0:
388,216,53790,6,0,P|436:188|482:184,1,85,6|0,1:2|3:0,0:0:0:0:
325,353,54152,1,0,1:0:0:0:
298,257,54333,1,0,3:0:0:0:
233,384,54513,6,0,P|189:348|145:336,1,85,2|0,1:2|3:0,0:0:0:0:
204,165,54875,2,0,P|194:207|200:249,1,85,0|0,1:0|3:0,0:0:0:0:
30,299,55236,6,0,P|66:271|104:262,1,85,2|0,1:2|3:0,0:0:0:0:
84,69,55598,1,0,1:0:0:0:
107,165,55779,1,0,3:0:0:0:
228,36,55959,6,0,P|261:10|302:-1,1,85,2|0,1:2|3:0,0:0:0:0:
420,150,56321,2,0,P|386:124|345:112,1,85,2|0,1:2|3:0,0:0:0:0:
261,228,56682,5,2,1:2:0:0:
228,36,56863,1,0,3:0:0:0:
94,213,57043,5,2,1:2:0:0:
282,100,57224,1,0,3:0:0:0:
57,95,57405,5,2,1:2:0:0:
253,180,57586,1,0,3:0:0:0:
0,227,57766,5,2,1:2:0:0:
145,381,57947,1,0,3:0:0:0:
162,120,58128,5,2,1:2:0:0:
76,334,58309,1,0,1:0:0:0:
322,276,58489,1,0,1:0:0:0:
273,284,58579,1,0,1:0:0:0:
227,263,58670,1,0,3:0:0:0:
201,220,58760,1,0,3:0:0:0:
203,170,58851,6,0,P|230:119|285:106,1,101.999996887207,4|0,2:0|3:3,0:0:0:0:
398,113,59122,2,0,P|349:105|319:66,1,101.999996887207,4|0,2:0|3:3,0:0:0:0:
244,26,59393,1,2,1:2:0:0:
244,26,59483,2,2,P|254:11|272:6,2,21.25
146,190,59935,6,0,P|198:161|213:116,1,85,2|0,0:0|0:0,0:0:0:0:
266,64,60296,6,0,P|252:138|249:215,1,152.999995330811,2|0,0:0|0:0,0:0:0:0:
427,326,61019,6,0,B|389:272|340:283|340:283|308:328|251:329,1,203.999993774414,6|0,3:2|1:0,0:0:0:0:
249,215,61562,1,0,3:0:0:0:
151,305,61742,2,0,P|143:250|129:197,1,101.999996887207,2|0,3:2|3:0,0:0:0:0:
57,27,62104,1,0,1:0:0:0:
0,136,62284,6,0,B|116:159|86:74|202:88,1,203.999993774414,2|2,3:2|3:2,0:0:0:0:
255,186,62827,1,2,1:2:0:0:
362,52,63007,2,0,P|353:173|360:286,1,203.999993774414,4|0,3:1|3:0,0:0:0:0:
372,304,63459,1,0,3:0:0:0:
372,304,63549,1,2,1:2:0:0:
453,250,63730,1,0,3:0:0:0:
288,357,63911,5,2,3:2:0:0:
207,303,64092,1,2,3:2:0:0:
116,355,64272,1,2,1:2:0:0:
203,208,64453,1,0,3:0:0:0:
44,206,64634,5,2,3:2:0:0:
207,303,64815,1,2,3:2:0:0:
373,231,64995,1,2,1:2:0:0:
302,69,65176,1,0,3:0:0:0:
302,69,65266,1,0,3:0:0:0:
302,69,65357,6,0,P|293:121|290:179,1,101.999996887207,0|2,3:0|3:2,0:0:0:0:
412,145,65718,1,2,1:2:0:0:
382,320,65899,2,0,B|262:338|299:250|194:267,1,203.999993774414,4|0,3:2|3:2,3:3:0:0:
22,304,66441,1,0,1:0:0:0:
22,304,66531,1,0,1:0:0:0:
22,304,66622,1,0,3:0:0:0:
101,244,66803,6,0,P|110:190|111:115,1,93.5000028533936,2|0,3:2|3:0,0:0:0:0:
33,66,67164,1,2,1:2:0:0:
33,66,67345,2,0,P|87:61|121:6,1,93.5000028533936,2|0,3:2|3:0,0:0:0:0:
192,182,67706,2,0,P|138:177|104:122,1,93.5000028533936,2|0,3:2|1:0,0:0:0:0:
282,44,68068,6,0,P|292:89|272:130,1,93.5000028533936,2|0,3:2|3:2,0:0:0:0:
221,274,68429,2,0,P|267:280|306:256,1,93.5000028533936,2|0,3:2|1:0,0:0:0:0:
110,347,68790,2,0,P|74:317|65:272,1,93.5000028533936,2|0,3:2|3:0,0:0:0:0:
52,111,69152,2,0,P|13:135|0:178,1,93.5000028533936,2|0,3:2|1:0,0:0:0:0:
201,42,69513,1,2,3:2:0:0:
201,42,69604,1,0,3:0:0:0:
201,42,69694,5,4,3:1:0:0:
118,191,69875,1,2,3:2:0:0:
234,317,70056,1,0,1:2:0:0:
181,135,70236,2,0,P|134:108|73:119,1,93.5000028533936,2|0,3:2|1:0,0:0:0:0:
234,317,70598,2,0,P|280:294|345:307,1,93.5000028533936,2|0,3:2|1:0,0:0:0:0:
445,42,70959,6,0,P|427:138|416:253,1,187.000005706787,4|4,3:2|3:0,0:0:0:0:
427,273,71411,1,0,3:0:0:0:
427,273,71501,1,2,1:2:0:0:
322,181,71682,1,0,1:0:0:0:
190,230,71863,1,2,3:2:0:0:
190,230,72043,2,0,B|167:169|209:172|186:103,1,118.999996368408,2|2,3:2|3:2,0:0:0:0:
265,0,72586,6,0,P|219:81|115:50,1,203.999993774414,6|0,3:2|1:0,0:0:0:0:
103,169,73128,1,0,3:0:0:0:
27,30,73309,2,0,L|6:168,1,101.999996887207,2|0,3:2|0:0,0:0:0:0:
110,318,73670,1,2,1:2:0:0:
16,274,73851,6,0,P|81:195|170:235,1,203.999993774414,2|4,3:2|3:0,0:0:0:0:
252,347,74393,1,2,1:2:0:0:
373,270,74574,2,0,B|401:161|313:182|350:76,1,203.999993774414,4|0,0:1|3:0,0:0:0:0:
370,30,75025,1,0,0:0:0:0:
370,30,75115,1,2,1:2:0:0:
273,56,75296,1,2,3:2:0:0:
163,178,75477,5,6,3:2:0:0:
259,154,75658,1,4,3:0:0:0:
338,215,75839,1,2,1:2:0:0:
249,370,76019,1,4,3:0:0:0:
475,312,76200,6,0,P|399:287|352:308,1,101.999996887207,6|0,1:2|3:0,0:0:0:0:
330,311,76471,1,0,3:0:0:0:
330,311,76562,1,2,1:2:0:0:
158,200,76742,2,0,B|182:210|206:252|206:252|195:172|230:84,1,203.999993774414,6|2,1:2|1:2,0:0:0:0:
425,95,77284,2,0,P|331:92|312:0,1,203.999993774414,6|0,3:2|3:0,0:0:0:0:
417,205,77827,5,0,3:0:0:0:
370,190,77917,1,0,3:0:0:0:
323,208,78008,1,0,1:0:0:0:
297,251,78098,1,0,3:0:0:0:
304,301,78188,1,0,3:0:0:0:
429,384,78369,5,2,3:2:0:0:
429,384,78550,2,0,P|379:331|270:352,1,170,0|4,3:0|3:0,0:0:0:0:
256,366,79001,1,4,3:0:0:0:
256,366,79092,1,0,1:0:0:0:
80,328,79272,2,0,P|86:272|93:208,1,85
51,135,79634,1,2,0:0:0:0:
51,135,79724,1,0,0:0:0:0:
51,135,79815,6,0,B|120:129|104:177|182:165,2,127.5,0|0|0,3:0|3:0|3:0,0:0:0:0:
194,47,80537,1,0,1:0:0:0:
194,47,80718,2,0,L|236:37,1,42.5,4|4,3:0|3:0,0:0:0:0:
339,128,80899,1,0,1:0:0:0:
339,128,81080,2,0,L|297:118,1,42.5,4|4,3:0|3:0,0:0:0:0:
185,182,81260,5,2,1:2:0:0:
235,37,81441,1,0,3:0:0:0:
296,239,81622,5,2,1:2:0:0:
152,59,81803,1,0,3:0:0:0:
113,230,81983,5,8,3:0:0:0:
113,230,82074,1,8,3:0:0:0:
113,230,82164,1,4,3:0:0:0:
370,162,82345,5,8,3:0:0:0:
370,162,82436,1,8,3:0:0:0:
370,162,82526,1,4,3:0:0:0:
174,278,82706,6,0,P|155:235|159:158,1,85,4|0,0:0|0:0,0:0:0:0:
275,69,83068,1,2,3:2:0:0:
80,138,83248,2,0,P|37:133|0:115,1,85,4|0,0:0|0:0,0:0:0:0:
252,264,83610,2,0,P|294:259|332:241,1,85,4|0,0:0|0:0,0:0:0:0:
283,42,83971,6,0,B|243:49|231:76|231:133|298:163|344:145|332:77|414:63|471:111|471:111|379:170|402:244|452:266|435:368|435:368|349:276|304:365|302:221|265:255|265:255|250:264|250:264|245:251|245:251|223:226|179:197|113:242|131:323|196:325,1,1060.80002589844,4|0,0:0|0:0,0:0:0:0:
