osu file format v14

[General]
AudioFilename: audio.mp3
AudioLeadIn: 0
PreviewTime: 59231
Countdown: 0
SampleSet: Soft
StackLeniency: 0.7
Mode: 3
LetterboxInBreaks: 0
SpecialStyle: 0
WidescreenStoryboard: 0

[Editor]
Bookmarks: 12966,36098,60677,95375,118508,143086,166219,192062,215375,228387,241399
DistanceSpacing: 1.5
BeatDivisor: 6
GridSize: 8
TimelineZoom: 1.4

[Metadata]
Title:Eternal Star
TitleUnicode:Eternal Star
Artist:Asaka
ArtistUnicode:Asaka
Creator:Raveille
Version:Yakusoku No Eien
Source:Island
Tags:misterluka luka ln
BeatmapID:1760973
BeatmapSetID:841478

[Difficulty]
HPDrainRate:7.5
CircleSize:4
OverallDifficulty:7
ApproachRate:5
SliderMultiplier:1.4
SliderTickRate:1

[Events]
//Background and Video events
0,0,"island.png",0,0
//Break Periods
//Storyboard Layer 0 (Background)
//Storyboard Layer 1 (Fail)
//Storyboard Layer 2 (Pass)
//Storyboard Layer 3 (Foreground)
//Storyboard Sound Samples

[TimingPoints]
135,361.44578313253,4,2,0,25,1,0
1400,361.44578313253,4,2,0,25,1,0
60677,-100,4,2,0,25,0,1
83809,-100,4,2,0,25,0,0
143086,-100,4,2,0,25,0,1
166219,-100,4,2,0,25,0,0
228749,-100,4,2,0,25,0,1
239954,-100,4,2,0,25,0,0

[HitObjects]
64,192,135,128,0,225:0:0:0:0:
192,192,135,128,0,225:0:0:0:0:
320,192,315,128,0,586:0:0:0:0:
448,192,315,128,0,586:0:0:0:0:
64,192,586,128,0,677:0:0:0:0:
192,192,586,128,0,677:0:0:0:0:
320,192,677,1,0,0:0:0:0:
448,192,677,1,0,0:0:0:0:
320,192,857,128,0,948:0:0:0:0:
192,192,857,128,0,948:0:0:0:0:
64,192,1038,1,0,0:0:0:0:
448,192,1038,1,0,0:0:0:0:
192,192,1128,1,0,0:0:0:0:
320,192,1219,1,0,0:0:0:0:
448,192,1219,1,0,0:0:0:0:
64,192,1264,1,0,0:0:0:0:
192,192,1309,1,0,0:0:0:0:
320,192,1354,1,0,0:0:0:0:
448,192,1400,1,0,0:0:0:0:
64,192,1400,128,0,1761:0:0:0:0:
192,192,1580,128,0,1761:0:0:0:0:
320,192,1761,128,0,2122:0:0:0:0:
448,192,1761,128,0,2122:0:0:0:0:
192,192,1942,1,0,0:0:0:0:
64,192,2122,1,0,0:0:0:0:
192,192,2122,128,0,2484:0:0:0:0:
448,192,2213,1,0,0:0:0:0:
64,192,2303,128,0,2484:0:0:0:0:
320,192,2484,128,0,2665:0:0:0:0:
448,192,2484,128,0,2665:0:0:0:0:
192,192,2665,1,0,0:0:0:0:
64,192,2845,1,0,0:0:0:0:
448,192,2845,128,0,3207:0:0:0:0:
320,192,3026,128,0,3207:0:0:0:0:
64,192,3207,128,0,3568:0:0:0:0:
192,192,3207,128,0,3568:0:0:0:0:
320,192,3387,1,0,0:0:0:0:
448,192,3568,1,0,0:0:0:0:
320,192,3568,128,0,3930:0:0:0:0:
64,192,3659,1,0,0:0:0:0:
448,192,3749,128,0,3930:0:0:0:0:
192,192,3930,128,0,4110:0:0:0:0:
64,192,3930,128,0,4291:0:0:0:0:
320,192,4110,1,0,0:0:0:0:
192,192,4291,128,0,4653:0:0:0:0:
448,192,4291,1,0,0:0:0:0:
64,192,4472,128,0,4653:0:0:0:0:
320,192,4653,128,0,5014:0:0:0:0:
448,192,4653,128,0,5014:0:0:0:0:
192,192,4833,1,0,0:0:0:0:
192,192,5014,128,0,5375:0:0:0:0:
64,192,5014,1,0,0:0:0:0:
448,192,5104,1,0,0:0:0:0:
64,192,5195,128,0,5375:0:0:0:0:
320,192,5375,128,0,5556:0:0:0:0:
448,192,5375,128,0,5556:0:0:0:0:
192,192,5556,1,0,0:0:0:0:
64,192,5737,1,0,0:0:0:0:
448,192,5737,128,0,6098:0:0:0:0:
320,192,5918,128,0,6098:0:0:0:0:
64,192,6098,128,0,6460:0:0:0:0:
192,192,6098,128,0,6460:0:0:0:0:
320,192,6279,1,0,0:0:0:0:
448,192,6460,1,0,0:0:0:0:
320,192,6460,128,0,6821:0:0:0:0:
64,192,6550,1,0,0:0:0:0:
448,192,6640,128,0,6821:0:0:0:0:
64,192,6821,128,0,7002:0:0:0:0:
192,192,6912,128,0,7092:0:0:0:0:
320,192,7002,128,0,7183:0:0:0:0:
448,192,7092,128,0,7273:0:0:0:0:
64,192,7183,128,0,7544:0:0:0:0:
192,192,7183,1,0,0:0:0:0:
320,192,7363,128,0,7544:0:0:0:0:
192,192,7544,128,0,7906:0:0:0:0:
448,192,7544,128,0,7906:0:0:0:0:
320,192,7725,1,0,0:0:0:0:
320,192,7906,128,0,8267:0:0:0:0:
64,192,7906,1,0,0:0:0:0:
448,192,7996,1,0,0:0:0:0:
64,192,8086,128,0,8267:0:0:0:0:
192,192,8267,128,0,8448:0:0:0:0:
448,192,8267,128,0,8448:0:0:0:0:
320,192,8448,1,0,0:0:0:0:
448,192,8628,128,0,8990:0:0:0:0:
64,192,8628,1,0,0:0:0:0:
192,192,8809,128,0,8990:0:0:0:0:
320,192,8990,128,0,9351:0:0:0:0:
64,192,8990,128,0,9351:0:0:0:0:
192,192,9171,1,0,0:0:0:0:
192,192,9351,128,0,9713:0:0:0:0:
448,192,9351,1,0,0:0:0:0:
64,192,9442,1,0,0:0:0:0:
448,192,9532,128,0,9713:0:0:0:0:
320,192,9713,128,0,9893:0:0:0:0:
64,192,9713,128,0,9893:0:0:0:0:
192,192,9893,1,0,0:0:0:0:
448,192,9893,1,0,0:0:0:0:
64,192,10074,128,0,10255:0:0:0:0:
448,192,10074,1,0,0:0:0:0:
320,192,10255,1,0,0:0:0:0:
192,192,10255,128,0,10436:0:0:0:0:
64,192,10436,1,0,0:0:0:0:
320,192,10436,128,0,10616:0:0:0:0:
64,192,10616,128,0,10707:0:0:0:0:
192,192,10616,128,0,10797:0:0:0:0:
448,192,10616,128,0,10887:0:0:0:0:
64,192,10978,128,0,11249:0:0:0:0:
320,192,10978,128,0,11159:0:0:0:0:
448,192,10978,128,0,11068:0:0:0:0:
64,192,11339,128,0,11610:0:0:0:0:
320,192,11339,128,0,11430:0:0:0:0:
192,192,11339,128,0,11610:0:0:0:0:
448,192,11339,128,0,11881:0:0:0:0:
64,192,11701,128,0,11791:0:0:0:0:
192,192,11701,128,0,11791:0:0:0:0:
64,192,11881,128,0,11972:0:0:0:0:
192,192,11881,128,0,11972:0:0:0:0:
320,192,12062,128,0,12153:0:0:0:0:
448,192,12062,128,0,12153:0:0:0:0:
448,192,12243,128,0,12333:0:0:0:0:
320,192,12288,128,0,12378:0:0:0:0:
192,192,12333,128,0,12424:0:0:0:0:
64,192,12378,128,0,12469:0:0:0:0:
448,192,12424,128,0,12604:0:0:0:0:
320,192,12424,128,0,12514:0:0:0:0:
64,192,12604,128,0,12695:0:0:0:0:
192,192,12604,128,0,12695:0:0:0:0:
64,192,12785,128,0,12875:0:0:0:0:
192,192,12785,128,0,12875:0:0:0:0:
320,192,12875,1,0,0:0:0:0:
448,192,12875,1,0,0:0:0:0:
192,192,12966,5,0,0:0:0:0:
64,192,12966,1,0,0:0:0:0:
64,192,13327,1,0,0:0:0:0:
448,192,13327,128,0,13689:0:0:0:0:
64,192,13689,1,0,0:0:0:0:
320,192,13689,128,0,14050:0:0:0:0:
64,192,14050,1,0,0:0:0:0:
192,192,14050,128,0,14231:0:0:0:0:
320,192,14231,128,0,14773:0:0:0:0:
64,192,14412,1,0,0:0:0:0:
448,192,14412,1,0,0:0:0:0:
448,192,14773,1,0,0:0:0:0:
448,192,15134,1,0,0:0:0:0:
64,192,15134,128,0,15496:0:0:0:0:
448,192,15496,1,0,0:0:0:0:
192,192,15496,128,0,15857:0:0:0:0:
448,192,15857,1,0,0:0:0:0:
64,192,15857,1,0,0:0:0:0:
320,192,15857,128,0,16219:0:0:0:0:
64,192,16219,1,0,0:0:0:0:
448,192,16219,128,0,16309:0:0:0:0:
448,192,16399,128,0,16761:0:0:0:0:
64,192,16580,1,0,0:0:0:0:
320,192,16761,128,0,17122:0:0:0:0:
64,192,16942,1,0,0:0:0:0:
192,192,17122,128,0,18568:0:0:0:0:
64,192,17303,1,0,0:0:0:0:
448,192,17303,1,0,0:0:0:0:
448,192,17665,1,0,0:0:0:0:
448,192,18026,1,0,0:0:0:0:
448,192,18387,1,0,0:0:0:0:
448,192,18749,1,0,0:0:0:0:
64,192,18749,1,0,0:0:0:0:
64,192,19110,1,0,0:0:0:0:
192,192,19110,128,0,19472:0:0:0:0:
64,192,19472,1,0,0:0:0:0:
320,192,19472,128,0,19833:0:0:0:0:
64,192,19833,1,0,0:0:0:0:
448,192,19833,128,0,20014:0:0:0:0:
192,192,20014,128,0,20556:0:0:0:0:
64,192,20195,1,0,0:0:0:0:
448,192,20195,1,0,0:0:0:0:
448,192,20556,1,0,0:0:0:0:
448,192,20918,1,0,0:0:0:0:
64,192,20918,128,0,21279:0:0:0:0:
448,192,21279,1,0,0:0:0:0:
192,192,21279,128,0,21640:0:0:0:0:
448,192,21640,1,0,0:0:0:0:
64,192,21640,1,0,0:0:0:0:
320,192,21731,1,0,0:0:0:0:
192,192,21821,1,0,0:0:0:0:
64,192,21821,1,0,0:0:0:0:
320,192,21912,1,0,0:0:0:0:
448,192,22002,1,0,0:0:0:0:
64,192,22002,1,0,0:0:0:0:
192,192,22092,1,0,0:0:0:0:
448,192,22183,1,0,0:0:0:0:
320,192,22183,1,0,0:0:0:0:
192,192,22273,1,0,0:0:0:0:
448,192,22363,1,0,0:0:0:0:
64,192,22363,1,0,0:0:0:0:
320,192,22454,1,0,0:0:0:0:
192,192,22544,1,0,0:0:0:0:
64,192,22544,1,0,0:0:0:0:
320,192,22634,1,0,0:0:0:0:
448,192,22634,1,0,0:0:0:0:
64,192,22725,1,0,0:0:0:0:
192,192,22725,1,0,0:0:0:0:
448,192,22815,1,0,0:0:0:0:
320,192,22815,1,0,0:0:0:0:
64,192,22906,1,0,0:0:0:0:
192,192,22906,1,0,0:0:0:0:
448,192,22996,1,0,0:0:0:0:
320,192,22996,1,0,0:0:0:0:
448,192,23086,1,0,0:0:0:0:
192,192,23086,1,0,0:0:0:0:
64,192,23086,128,0,23448:0:0:0:0:
192,192,23267,128,0,23628:0:0:0:0:
320,192,23448,128,0,23809:0:0:0:0:
448,192,23628,128,0,23899:0:0:0:0:
64,192,23628,128,0,23899:0:0:0:0:
320,192,23899,1,0,0:0:0:0:
448,192,23990,1,0,0:0:0:0:
64,192,23990,128,0,24171:0:0:0:0:
192,192,24171,1,0,0:0:0:0:
448,192,24171,128,0,24442:0:0:0:0:
320,192,24261,1,0,0:0:0:0:
192,192,24351,1,0,0:0:0:0:
64,192,24351,1,0,0:0:0:0:
320,192,24442,1,0,0:0:0:0:
448,192,24532,1,0,0:0:0:0:
64,192,24532,128,0,24803:0:0:0:0:
192,192,24713,128,0,24984:0:0:0:0:
64,192,24893,128,0,25165:0:0:0:0:
448,192,24893,128,0,25165:0:0:0:0:
192,192,25074,128,0,25345:0:0:0:0:
320,192,25074,1,0,0:0:0:0:
64,192,25255,128,0,25526:0:0:0:0:
448,192,25255,128,0,25526:0:0:0:0:
192,192,25436,128,0,25707:0:0:0:0:
320,192,25436,1,0,0:0:0:0:
64,192,25616,128,0,25887:0:0:0:0:
320,192,25616,1,0,0:0:0:0:
448,192,25616,128,0,25887:0:0:0:0:
192,192,25797,128,0,25978:0:0:0:0:
64,192,25978,1,0,0:0:0:0:
448,192,25978,128,0,26249:0:0:0:0:
320,192,26159,128,0,26430:0:0:0:0:
192,192,26159,1,0,0:0:0:0:
448,192,26339,128,0,26610:0:0:0:0:
320,192,26520,128,0,26791:0:0:0:0:
192,192,26520,1,0,0:0:0:0:
448,192,26701,128,0,26972:0:0:0:0:
64,192,26701,128,0,26972:0:0:0:0:
320,192,26881,128,0,27153:0:0:0:0:
192,192,26881,1,0,0:0:0:0:
448,192,27062,128,0,27333:0:0:0:0:
192,192,27062,1,0,0:0:0:0:
64,192,27062,128,0,27333:0:0:0:0:
320,192,27243,128,0,27424:0:0:0:0:
192,192,27243,1,0,0:0:0:0:
64,192,27424,128,0,27514:0:0:0:0:
448,192,27424,128,0,27514:0:0:0:0:
64,192,27604,128,0,27785:0:0:0:0:
448,192,27604,128,0,27785:0:0:0:0:
192,192,27785,1,0,0:0:0:0:
320,192,27785,1,0,0:0:0:0:
192,192,27966,128,0,28056:0:0:0:0:
320,192,27966,128,0,28056:0:0:0:0:
64,192,28146,1,0,0:0:0:0:
448,192,28146,1,0,0:0:0:0:
192,192,28327,128,0,28418:0:0:0:0:
320,192,28327,128,0,28418:0:0:0:0:
64,192,28508,1,0,0:0:0:0:
448,192,28508,1,0,0:0:0:0:
64,192,28689,128,0,29050:0:0:0:0:
448,192,28689,128,0,29050:0:0:0:0:
192,192,29050,1,0,0:0:0:0:
320,192,29050,1,0,0:0:0:0:
64,192,29231,1,0,0:0:0:0:
192,192,29231,1,0,0:0:0:0:
448,192,29412,1,0,0:0:0:0:
320,192,29592,1,0,0:0:0:0:
64,192,29592,128,0,29954:0:0:0:0:
448,192,29773,1,0,0:0:0:0:
320,192,29954,1,0,0:0:0:0:
192,192,29954,128,0,30315:0:0:0:0:
448,192,30134,1,0,0:0:0:0:
64,192,30315,1,0,0:0:0:0:
320,192,30315,128,0,30496:0:0:0:0:
448,192,30496,128,0,30677:0:0:0:0:
192,192,30496,1,0,0:0:0:0:
192,192,30677,128,0,30857:0:0:0:0:
64,192,30677,1,0,0:0:0:0:
64,192,30857,128,0,31038:0:0:0:0:
320,192,30857,1,0,0:0:0:0:
320,192,31038,128,0,31399:0:0:0:0:
448,192,31038,1,0,0:0:0:0:
192,192,31219,1,0,0:0:0:0:
64,192,31399,128,0,31761:0:0:0:0:
448,192,31580,128,0,31942:0:0:0:0:
192,192,31942,1,0,0:0:0:0:
64,192,32122,1,0,0:0:0:0:
448,192,32122,1,0,0:0:0:0:
448,192,32303,128,0,32574:0:0:0:0:
64,192,32303,128,0,32574:0:0:0:0:
64,192,32665,128,0,32845:0:0:0:0:
448,192,32665,128,0,32845:0:0:0:0:
192,192,32845,1,0,0:0:0:0:
320,192,32845,1,0,0:0:0:0:
192,192,33026,128,0,33207:0:0:0:0:
320,192,33026,128,0,33207:0:0:0:0:
64,192,33207,1,0,0:0:0:0:
448,192,33207,1,0,0:0:0:0:
320,192,33297,1,0,0:0:0:0:
192,192,33387,1,0,0:0:0:0:
64,192,33387,1,0,0:0:0:0:
448,192,33478,1,0,0:0:0:0:
320,192,33568,1,0,0:0:0:0:
192,192,33568,1,0,0:0:0:0:
64,192,33659,1,0,0:0:0:0:
448,192,33749,128,0,33930:0:0:0:0:
192,192,33749,128,0,33930:0:0:0:0:
320,192,33749,128,0,33930:0:0:0:0:
320,192,34110,128,0,34291:0:0:0:0:
64,192,34110,128,0,34291:0:0:0:0:
192,192,34110,128,0,34291:0:0:0:0:
192,192,34472,128,0,34833:0:0:0:0:
320,192,34472,128,0,34924:0:0:0:0:
448,192,34472,128,0,35014:0:0:0:0:
64,192,34833,1,0,0:0:0:0:
192,192,34924,5,0,0:0:0:0:
320,192,35014,1,0,0:0:0:0:
64,192,35014,1,0,0:0:0:0:
448,192,35104,1,0,0:0:0:0:
64,192,35195,128,0,35827:0:0:0:0:
192,192,35195,128,0,35646:0:0:0:0:
320,192,35195,128,0,35375:0:0:0:0:
320,192,35466,1,0,0:0:0:0:
448,192,35556,128,0,35737:0:0:0:0:
320,192,35737,128,0,35918:0:0:0:0:
192,192,35737,1,0,0:0:0:0:
64,192,35918,1,0,0:0:0:0:
192,192,35918,1,0,0:0:0:0:
320,192,36008,1,0,0:0:0:0:
448,192,36008,1,0,0:0:0:0:
64,192,36098,128,0,36279:0:0:0:0:
192,192,36098,128,0,36460:0:0:0:0:
320,192,36279,128,0,36460:0:0:0:0:
64,192,36460,128,0,36640:0:0:0:0:
448,192,36460,128,0,36821:0:0:0:0:
192,192,36640,1,0,0:0:0:0:
320,192,36640,128,0,36821:0:0:0:0:
192,192,36821,128,0,37183:0:0:0:0:
64,192,36821,128,0,37002:0:0:0:0:
320,192,37002,128,0,37183:0:0:0:0:
448,192,37183,128,0,37544:0:0:0:0:
64,192,37183,128,0,37363:0:0:0:0:
320,192,37363,128,0,37725:0:0:0:0:
192,192,37544,128,0,37725:0:0:0:0:
64,192,37544,128,0,37725:0:0:0:0:
448,192,37725,128,0,38086:0:0:0:0:
192,192,37906,128,0,38086:0:0:0:0:
320,192,37906,128,0,38086:0:0:0:0:
64,192,38086,128,0,38448:0:0:0:0:
320,192,38267,128,0,38448:0:0:0:0:
448,192,38267,128,0,38448:0:0:0:0:
192,192,38448,128,0,38628:0:0:0:0:
64,192,38628,128,0,38899:0:0:0:0:
320,192,38628,128,0,38899:0:0:0:0:
192,192,38809,128,0,38899:0:0:0:0:
448,192,38809,128,0,38899:0:0:0:0:
320,192,38990,128,0,39171:0:0:0:0:
448,192,38990,128,0,39171:0:0:0:0:
192,192,39171,128,0,39351:0:0:0:0:
64,192,39351,128,0,39532:0:0:0:0:
448,192,39351,128,0,39532:0:0:0:0:
320,192,39532,1,0,0:0:0:0:
192,192,39532,128,0,39713:0:0:0:0:
320,192,39713,128,0,40074:0:0:0:0:
448,192,39713,128,0,39893:0:0:0:0:
192,192,39893,128,0,40074:0:0:0:0:
64,192,40074,128,0,40255:0:0:0:0:
448,192,40074,128,0,40255:0:0:0:0:
192,192,40255,128,0,40616:0:0:0:0:
64,192,40345,1,0,0:0:0:0:
320,192,40436,128,0,40616:0:0:0:0:
448,192,40436,128,0,40616:0:0:0:0:
64,192,40616,128,0,40978:0:0:0:0:
192,192,40797,128,0,40978:0:0:0:0:
320,192,40797,128,0,40978:0:0:0:0:
448,192,40978,128,0,41339:0:0:0:0:
64,192,41159,128,0,41339:0:0:0:0:
192,192,41159,128,0,41339:0:0:0:0:
320,192,41339,128,0,41520:0:0:0:0:
192,192,41520,128,0,41701:0:0:0:0:
448,192,41520,128,0,41701:0:0:0:0:
320,192,41701,1,0,0:0:0:0:
64,192,41701,1,0,0:0:0:0:
64,192,41881,128,0,42062:0:0:0:0:
448,192,41881,128,0,42424:0:0:0:0:
320,192,42062,128,0,42243:0:0:0:0:
64,192,42243,1,0,0:0:0:0:
192,192,42243,128,0,42424:0:0:0:0:
64,192,42424,128,0,42604:0:0:0:0:
320,192,42604,128,0,43146:0:0:0:0:
448,192,42604,128,0,42785:0:0:0:0:
64,192,42785,128,0,42966:0:0:0:0:
192,192,42966,128,0,43146:0:0:0:0:
448,192,42966,128,0,43146:0:0:0:0:
64,192,43146,128,0,43327:0:0:0:0:
192,192,43237,128,0,43327:0:0:0:0:
320,192,43327,128,0,43508:0:0:0:0:
448,192,43327,128,0,43418:0:0:0:0:
448,192,43508,128,0,43689:0:0:0:0:
320,192,43598,128,0,43689:0:0:0:0:
64,192,43689,128,0,44050:0:0:0:0:
192,192,43689,128,0,43960:0:0:0:0:
448,192,43869,128,0,44050:0:0:0:0:
192,192,44050,128,0,44321:0:0:0:0:
320,192,44050,128,0,44321:0:0:0:0:
64,192,44231,128,0,44412:0:0:0:0:
320,192,44412,128,0,44592:0:0:0:0:
448,192,44412,128,0,44683:0:0:0:0:
192,192,44592,128,0,44773:0:0:0:0:
320,192,44683,128,0,44773:0:0:0:0:
64,192,44773,128,0,44954:0:0:0:0:
448,192,44773,128,0,45225:0:0:0:0:
192,192,44954,128,0,45134:0:0:0:0:
320,192,45134,1,0,0:0:0:0:
64,192,45134,128,0,45315:0:0:0:0:
320,192,45315,128,0,45496:0:0:0:0:
448,192,45315,128,0,45496:0:0:0:0:
64,192,45496,128,0,45948:0:0:0:0:
192,192,45496,128,0,45677:0:0:0:0:
448,192,45677,128,0,45857:0:0:0:0:
192,192,45857,128,0,46038:0:0:0:0:
320,192,45857,128,0,46038:0:0:0:0:
64,192,46038,1,0,0:0:0:0:
64,192,46219,128,0,46460:0:0:0:0:
192,192,46219,128,0,46339:0:0:0:0:
448,192,46219,128,0,46309:0:0:0:0:
192,192,46460,128,0,46701:0:0:0:0:
320,192,46460,128,0,46580:0:0:0:0:
320,192,46701,128,0,46821:0:0:0:0:
448,192,46701,128,0,46821:0:0:0:0:
448,192,46942,128,0,47183:0:0:0:0:
320,192,46942,128,0,47062:0:0:0:0:
64,192,46942,128,0,47032:0:0:0:0:
320,192,47183,128,0,47424:0:0:0:0:
192,192,47183,128,0,47303:0:0:0:0:
192,192,47424,128,0,47544:0:0:0:0:
64,192,47424,128,0,47544:0:0:0:0:
320,192,47665,128,0,48026:0:0:0:0:
448,192,47665,128,0,48026:0:0:0:0:
64,192,47845,128,0,47936:0:0:0:0:
192,192,47845,128,0,48026:0:0:0:0:
64,192,48026,128,0,48207:0:0:0:0:
192,192,48207,128,0,48387:0:0:0:0:
320,192,48207,128,0,48387:0:0:0:0:
64,192,48387,128,0,48659:0:0:0:0:
448,192,48387,128,0,48659:0:0:0:0:
64,192,48749,128,0,48930:0:0:0:0:
192,192,48749,128,0,48930:0:0:0:0:
320,192,48930,128,0,49201:0:0:0:0:
448,192,48930,128,0,49201:0:0:0:0:
192,192,49291,128,0,49472:0:0:0:0:
320,192,49291,128,0,49472:0:0:0:0:
64,192,49472,1,0,0:0:0:0:
448,192,49472,1,0,0:0:0:0:
64,192,49653,128,0,49924:0:0:0:0:
192,192,49653,128,0,49833:0:0:0:0:
320,192,49653,128,0,49743:0:0:0:0:
192,192,50014,128,0,50104:0:0:0:0:
320,192,50014,128,0,50195:0:0:0:0:
448,192,50014,128,0,50285:0:0:0:0:
64,192,50195,128,0,50375:0:0:0:0:
448,192,50375,128,0,50556:0:0:0:0:
64,192,50556,128,0,50918:0:0:0:0:
192,192,50556,128,0,50918:0:0:0:0:
320,192,50737,128,0,50918:0:0:0:0:
448,192,50737,128,0,50918:0:0:0:0:
192,192,51098,128,0,51279:0:0:0:0:
320,192,51098,128,0,51189:0:0:0:0:
64,192,51189,1,0,0:0:0:0:
320,192,51279,128,0,51460:0:0:0:0:
448,192,51279,128,0,51460:0:0:0:0:
192,192,51460,128,0,51640:0:0:0:0:
64,192,51640,128,0,52002:0:0:0:0:
320,192,51640,128,0,51731:0:0:0:0:
192,192,51821,128,0,52002:0:0:0:0:
320,192,51821,128,0,52002:0:0:0:0:
448,192,51821,128,0,52002:0:0:0:0:
64,192,52183,128,0,52363:0:0:0:0:
192,192,52183,128,0,52363:0:0:0:0:
320,192,52363,128,0,52454:0:0:0:0:
448,192,52363,128,0,52544:0:0:0:0:
64,192,52544,128,0,52634:0:0:0:0:
192,192,52544,128,0,52725:0:0:0:0:
320,192,52544,128,0,52815:0:0:0:0:
192,192,52906,128,0,52996:0:0:0:0:
320,192,52906,128,0,52996:0:0:0:0:
448,192,52906,128,0,52996:0:0:0:0:
448,192,53086,128,0,53177:0:0:0:0:
320,192,53131,128,0,53222:0:0:0:0:
192,192,53177,128,0,53267:0:0:0:0:
64,192,53222,128,0,53312:0:0:0:0:
320,192,53267,128,0,53357:0:0:0:0:
192,192,53357,128,0,53448:0:0:0:0:
320,192,53448,128,0,53719:0:0:0:0:
448,192,53448,128,0,53719:0:0:0:0:
64,192,53628,128,0,53899:0:0:0:0:
320,192,53809,128,0,54080:0:0:0:0:
448,192,53809,128,0,54080:0:0:0:0:
192,192,53990,128,0,54261:0:0:0:0:
320,192,54171,128,0,54442:0:0:0:0:
448,192,54171,128,0,54442:0:0:0:0:
64,192,54351,128,0,54622:0:0:0:0:
320,192,54532,128,0,54803:0:0:0:0:
448,192,54532,128,0,54803:0:0:0:0:
192,192,54713,128,0,54984:0:0:0:0:
64,192,54893,128,0,55165:0:0:0:0:
448,192,54893,128,0,55165:0:0:0:0:
320,192,55074,128,0,55345:0:0:0:0:
64,192,55255,128,0,55526:0:0:0:0:
448,192,55255,128,0,55526:0:0:0:0:
192,192,55436,128,0,55707:0:0:0:0:
64,192,55616,128,0,55887:0:0:0:0:
448,192,55616,128,0,55887:0:0:0:0:
320,192,55797,128,0,56068:0:0:0:0:
64,192,55978,128,0,56249:0:0:0:0:
448,192,55978,128,0,56249:0:0:0:0:
192,192,56159,128,0,56430:0:0:0:0:
64,192,56339,128,0,56610:0:0:0:0:
320,192,56339,128,0,56610:0:0:0:0:
448,192,56520,128,0,56791:0:0:0:0:
64,192,56701,128,0,56972:0:0:0:0:
320,192,56701,128,0,56972:0:0:0:0:
192,192,56881,128,0,57153:0:0:0:0:
64,192,57062,128,0,57333:0:0:0:0:
320,192,57062,128,0,57333:0:0:0:0:
448,192,57243,128,0,57514:0:0:0:0:
64,192,57424,128,0,57695:0:0:0:0:
320,192,57424,128,0,57695:0:0:0:0:
192,192,57604,128,0,57875:0:0:0:0:
448,192,57785,128,0,58056:0:0:0:0:
320,192,57785,128,0,58056:0:0:0:0:
192,192,57966,128,0,58056:0:0:0:0:
64,192,57966,128,0,58418:0:0:0:0:
320,192,58146,128,0,58237:0:0:0:0:
192,192,58146,128,0,58418:0:0:0:0:
448,192,58327,128,0,58508:0:0:0:0:
320,192,58327,128,0,58508:0:0:0:0:
192,192,58508,128,0,58598:0:0:0:0:
64,192,58508,128,0,58598:0:0:0:0:
320,192,58689,128,0,58869:0:0:0:0:
64,192,58779,128,0,58869:0:0:0:0:
448,192,58779,128,0,58869:0:0:0:0:
192,192,58960,128,0,59050:0:0:0:0:
448,192,59050,1,0,0:0:0:0:
64,192,59050,1,0,0:0:0:0:
192,192,59095,1,0,0:0:0:0:
320,192,59140,1,0,0:0:0:0:
448,192,59186,1,0,0:0:0:0:
64,192,59231,1,0,0:0:0:0:
64,192,59592,128,0,60315:0:0:0:0:
448,192,59954,128,0,60496:0:0:0:0:
192,192,60496,128,0,60677:0:0:0:0:
320,192,60677,5,4,0:0:0:0:
64,192,60677,128,8,60948:0:0:0:0:
448,192,60677,128,8,60948:0:0:0:0:
320,192,60857,128,0,61038:0:0:0:0:
192,192,60857,1,0,0:0:0:0:
64,192,61038,1,0,0:0:0:0:
448,192,61038,1,0,0:0:0:0:
192,192,61038,1,0,0:0:0:0:
320,192,61128,1,0,0:0:0:0:
192,192,61219,1,0,0:0:0:0:
448,192,61219,1,0,0:0:0:0:
64,192,61309,1,0,0:0:0:0:
448,192,61399,1,0,0:0:0:0:
192,192,61399,128,0,61490:0:0:0:0:
320,192,61490,128,0,61580:0:0:0:0:
448,192,61580,128,0,61671:0:0:0:0:
64,192,61580,1,0,0:0:0:0:
192,192,61671,1,0,0:0:0:0:
448,192,61761,1,0,0:0:0:0:
320,192,61761,128,0,61851:0:0:0:0:
192,192,61851,128,0,61942:0:0:0:0:
64,192,61942,128,0,62032:0:0:0:0:
448,192,61942,128,0,62213:0:0:0:0:
320,192,62032,128,0,62122:0:0:0:0:
192,192,62122,128,0,62303:0:0:0:0:
64,192,62122,128,0,62213:0:0:0:0:
320,192,62213,128,0,62303:0:0:0:0:
448,192,62303,128,0,62393:0:0:0:0:
64,192,62303,128,0,62393:0:0:0:0:
320,192,62393,128,0,62484:0:0:0:0:
192,192,62393,128,0,62484:0:0:0:0:
448,192,62484,1,0,0:0:0:0:
64,192,62484,1,0,0:0:0:0:
192,192,62574,1,0,0:0:0:0:
448,192,62665,1,0,0:0:0:0:
320,192,62665,1,0,0:0:0:0:
192,192,62755,1,0,0:0:0:0:
64,192,62845,1,0,0:0:0:0:
448,192,62845,1,0,0:0:0:0:
320,192,62936,1,0,0:0:0:0:
192,192,63026,1,0,0:0:0:0:
64,192,63026,1,0,0:0:0:0:
320,192,63116,1,0,0:0:0:0:
448,192,63207,128,0,63297:0:0:0:0:
64,192,63207,128,0,63297:0:0:0:0:
192,192,63297,128,0,63387:0:0:0:0:
448,192,63387,128,0,63478:0:0:0:0:
64,192,63387,128,0,63478:0:0:0:0:
320,192,63478,128,0,63568:0:0:0:0:
448,192,63568,128,0,63659:0:0:0:0:
64,192,63568,128,0,63659:0:0:0:0:
192,192,63659,128,0,63749:0:0:0:0:
320,192,63749,128,0,63839:0:0:0:0:
448,192,63749,128,0,63839:0:0:0:0:
64,192,63839,128,0,63930:0:0:0:0:
192,192,63930,128,0,64020:0:0:0:0:
320,192,63930,128,0,64020:0:0:0:0:
448,192,64020,128,0,64110:0:0:0:0:
192,192,64110,128,0,64201:0:0:0:0:
64,192,64110,128,0,64201:0:0:0:0:
320,192,64201,128,0,64291:0:0:0:0:
448,192,64291,128,0,64562:0:0:0:0:
64,192,64291,128,0,64562:0:0:0:0:
192,192,64381,128,0,64472:0:0:0:0:
320,192,64472,128,0,64562:0:0:0:0:
192,192,64562,1,0,0:0:0:0:
448,192,64653,1,0,0:0:0:0:
64,192,64653,1,0,0:0:0:0:
320,192,64743,1,0,0:0:0:0:
192,192,64743,1,0,0:0:0:0:
448,192,64833,128,0,65104:0:0:0:0:
64,192,64833,128,0,65104:0:0:0:0:
320,192,64924,128,0,65014:0:0:0:0:
192,192,65014,128,0,65104:0:0:0:0:
320,192,65104,1,0,0:0:0:0:
448,192,65195,1,0,0:0:0:0:
64,192,65195,1,0,0:0:0:0:
320,192,65285,1,0,0:0:0:0:
192,192,65285,1,0,0:0:0:0:
448,192,65375,128,0,65646:0:0:0:0:
64,192,65375,128,0,65646:0:0:0:0:
192,192,65466,128,0,65556:0:0:0:0:
320,192,65556,128,0,65737:0:0:0:0:
192,192,65646,128,0,65827:0:0:0:0:
64,192,65737,128,0,65827:0:0:0:0:
448,192,65737,128,0,66008:0:0:0:0:
320,192,65827,128,0,65918:0:0:0:0:
192,192,65918,128,0,66098:0:0:0:0:
64,192,65918,128,0,66008:0:0:0:0:
320,192,66008,128,0,66098:0:0:0:0:
448,192,66098,1,0,0:0:0:0:
64,192,66098,1,0,0:0:0:0:
192,192,66189,1,0,0:0:0:0:
448,192,66279,1,0,0:0:0:0:
320,192,66279,1,0,0:0:0:0:
192,192,66369,1,0,0:0:0:0:
64,192,66460,128,0,66731:0:0:0:0:
448,192,66460,1,0,0:0:0:0:
320,192,66550,1,0,0:0:0:0:
192,192,66640,1,0,0:0:0:0:
320,192,66731,1,0,0:0:0:0:
64,192,66821,128,0,66912:0:0:0:0:
448,192,66821,1,0,0:0:0:0:
320,192,66912,1,0,0:0:0:0:
64,192,67002,128,0,67363:0:0:0:0:
448,192,67002,1,0,0:0:0:0:
320,192,67092,1,0,0:0:0:0:
192,192,67183,1,0,0:0:0:0:
320,192,67273,1,0,0:0:0:0:
192,192,67363,128,0,67725:0:0:0:0:
448,192,67363,1,0,0:0:0:0:
64,192,67454,1,0,0:0:0:0:
320,192,67544,1,0,0:0:0:0:
448,192,67634,1,0,0:0:0:0:
320,192,67725,128,0,68086:0:0:0:0:
64,192,67725,1,0,0:0:0:0:
192,192,67815,1,0,0:0:0:0:
448,192,67906,1,0,0:0:0:0:
64,192,67996,1,0,0:0:0:0:
448,192,68086,128,0,68357:0:0:0:0:
192,192,68086,1,0,0:0:0:0:
320,192,68177,1,0,0:0:0:0:
64,192,68267,1,0,0:0:0:0:
192,192,68357,1,0,0:0:0:0:
448,192,68448,128,0,68719:0:0:0:0:
320,192,68448,1,0,0:0:0:0:
192,192,68538,1,0,0:0:0:0:
64,192,68628,1,0,0:0:0:0:
320,192,68719,1,0,0:0:0:0:
64,192,68809,128,0,69171:0:0:0:0:
192,192,68809,1,0,0:0:0:0:
448,192,68899,1,0,0:0:0:0:
320,192,68990,1,0,0:0:0:0:
192,192,69080,1,0,0:0:0:0:
320,192,69171,1,0,0:0:0:0:
448,192,69171,1,0,0:0:0:0:
192,192,69261,1,0,0:0:0:0:
448,192,69351,128,0,69622:0:0:0:0:
64,192,69351,128,0,69622:0:0:0:0:
320,192,69351,1,0,0:0:0:0:
192,192,69532,128,0,69622:0:0:0:0:
320,192,69532,128,0,69803:0:0:0:0:
448,192,69713,128,0,69984:0:0:0:0:
192,192,69713,128,0,69803:0:0:0:0:
64,192,69713,128,0,69984:0:0:0:0:
320,192,69893,128,0,69984:0:0:0:0:
192,192,69893,128,0,70074:0:0:0:0:
448,192,70074,1,0,0:0:0:0:
64,192,70074,1,0,0:0:0:0:
320,192,70074,1,0,0:0:0:0:
448,192,70255,128,0,70436:0:0:0:0:
320,192,70255,128,0,70436:0:0:0:0:
64,192,70255,128,0,70436:0:0:0:0:
192,192,70436,1,0,0:0:0:0:
192,192,70616,128,0,70797:0:0:0:0:
448,192,70616,128,0,70978:0:0:0:0:
64,192,70616,128,0,71159:0:0:0:0:
320,192,70797,128,0,70978:0:0:0:0:
192,192,70978,128,0,71159:0:0:0:0:
448,192,71159,5,0,0:0:0:0:
320,192,71159,1,0,0:0:0:0:
192,192,71249,1,0,0:0:0:0:
64,192,71249,1,0,0:0:0:0:
448,192,71339,1,0,0:0:0:0:
320,192,71339,1,0,0:0:0:0:
192,192,71430,1,0,0:0:0:0:
64,192,71430,1,0,0:0:0:0:
448,192,71520,1,0,0:0:0:0:
320,192,71565,1,0,0:0:0:0:
192,192,71610,1,0,0:0:0:0:
64,192,71656,1,0,0:0:0:0:
448,192,71701,1,0,0:0:0:0:
320,192,71746,1,0,0:0:0:0:
192,192,71791,1,0,0:0:0:0:
64,192,71836,1,0,0:0:0:0:
448,192,71881,1,0,0:0:0:0:
320,192,71927,1,0,0:0:0:0:
192,192,71972,1,0,0:0:0:0:
64,192,72017,1,0,0:0:0:0:
448,192,72062,1,0,0:0:0:0:
320,192,72062,128,0,72243:0:0:0:0:
192,192,72243,5,0,0:0:0:0:
64,192,72243,128,0,72514:0:0:0:0:
448,192,72243,128,0,72514:0:0:0:0:
320,192,72424,1,0,0:0:0:0:
192,192,72424,128,0,72604:0:0:0:0:
448,192,72604,1,0,0:0:0:0:
320,192,72604,1,0,0:0:0:0:
64,192,72604,1,0,0:0:0:0:
192,192,72695,1,0,0:0:0:0:
320,192,72785,1,0,0:0:0:0:
64,192,72785,1,0,0:0:0:0:
448,192,72875,1,0,0:0:0:0:
64,192,72966,1,0,0:0:0:0:
320,192,72966,128,0,73056:0:0:0:0:
192,192,73056,128,0,73146:0:0:0:0:
64,192,73146,128,0,73237:0:0:0:0:
448,192,73146,1,0,0:0:0:0:
320,192,73237,1,0,0:0:0:0:
64,192,73327,1,0,0:0:0:0:
192,192,73327,128,0,73418:0:0:0:0:
320,192,73418,128,0,73508:0:0:0:0:
448,192,73508,128,0,73598:0:0:0:0:
64,192,73508,128,0,73779:0:0:0:0:
192,192,73598,128,0,73689:0:0:0:0:
320,192,73689,128,0,73869:0:0:0:0:
448,192,73689,128,0,73779:0:0:0:0:
192,192,73779,128,0,73869:0:0:0:0:
64,192,73869,128,0,73960:0:0:0:0:
448,192,73869,128,0,73960:0:0:0:0:
192,192,73960,128,0,74050:0:0:0:0:
320,192,73960,128,0,74050:0:0:0:0:
64,192,74050,1,0,0:0:0:0:
448,192,74050,1,0,0:0:0:0:
320,192,74140,1,0,0:0:0:0:
64,192,74231,1,0,0:0:0:0:
192,192,74231,1,0,0:0:0:0:
320,192,74321,1,0,0:0:0:0:
448,192,74412,1,0,0:0:0:0:
64,192,74412,1,0,0:0:0:0:
192,192,74502,1,0,0:0:0:0:
320,192,74592,1,0,0:0:0:0:
448,192,74592,1,0,0:0:0:0:
192,192,74683,1,0,0:0:0:0:
64,192,74773,128,0,74863:0:0:0:0:
448,192,74773,128,0,74863:0:0:0:0:
320,192,74863,128,0,74954:0:0:0:0:
64,192,74954,128,0,75044:0:0:0:0:
448,192,74954,128,0,75044:0:0:0:0:
192,192,75044,128,0,75134:0:0:0:0:
64,192,75134,128,0,75225:0:0:0:0:
448,192,75134,128,0,75225:0:0:0:0:
320,192,75225,128,0,75315:0:0:0:0:
192,192,75315,128,0,75406:0:0:0:0:
64,192,75315,128,0,75406:0:0:0:0:
448,192,75406,128,0,75496:0:0:0:0:
320,192,75496,128,0,75586:0:0:0:0:
192,192,75496,128,0,75586:0:0:0:0:
64,192,75586,128,0,75677:0:0:0:0:
320,192,75677,128,0,75767:0:0:0:0:
448,192,75677,128,0,75767:0:0:0:0:
192,192,75767,128,0,75857:0:0:0:0:
64,192,75857,128,0,76128:0:0:0:0:
448,192,75857,128,0,76128:0:0:0:0:
320,192,75948,128,0,76038:0:0:0:0:
192,192,76038,128,0,76128:0:0:0:0:
320,192,76128,1,0,0:0:0:0:
64,192,76219,1,0,0:0:0:0:
448,192,76219,1,0,0:0:0:0:
192,192,76309,1,0,0:0:0:0:
320,192,76309,1,0,0:0:0:0:
64,192,76399,128,0,76671:0:0:0:0:
448,192,76399,128,0,76671:0:0:0:0:
192,192,76490,128,0,76580:0:0:0:0:
320,192,76580,128,0,76671:0:0:0:0:
192,192,76671,1,0,0:0:0:0:
64,192,76761,1,0,0:0:0:0:
448,192,76761,1,0,0:0:0:0:
192,192,76851,1,0,0:0:0:0:
320,192,76851,1,0,0:0:0:0:
64,192,76942,128,0,77213:0:0:0:0:
448,192,76942,128,0,77213:0:0:0:0:
320,192,77032,128,0,77122:0:0:0:0:
192,192,77122,128,0,77303:0:0:0:0:
320,192,77213,128,0,77393:0:0:0:0:
448,192,77303,128,0,77393:0:0:0:0:
64,192,77303,128,0,77574:0:0:0:0:
192,192,77393,128,0,77484:0:0:0:0:
320,192,77484,128,0,77665:0:0:0:0:
448,192,77484,128,0,77574:0:0:0:0:
192,192,77574,128,0,77665:0:0:0:0:
64,192,77665,1,0,0:0:0:0:
448,192,77665,1,0,0:0:0:0:
320,192,77755,1,0,0:0:0:0:
64,192,77845,1,0,0:0:0:0:
192,192,77845,1,0,0:0:0:0:
320,192,77936,1,0,0:0:0:0:
448,192,78026,128,0,78297:0:0:0:0:
64,192,78026,128,0,78478:0:0:0:0:
192,192,78207,128,0,78568:0:0:0:0:
448,192,78387,128,0,78478:0:0:0:0:
320,192,78387,128,0,78659:0:0:0:0:
448,192,78568,128,0,78930:0:0:0:0:
64,192,78568,1,0,0:0:0:0:
192,192,78659,1,0,0:0:0:0:
64,192,78749,1,0,0:0:0:0:
320,192,78749,1,0,0:0:0:0:
320,192,78930,128,0,79291:0:0:0:0:
192,192,78930,128,0,79201:0:0:0:0:
64,192,79110,128,0,79562:0:0:0:0:
192,192,79291,128,0,79653:0:0:0:0:
448,192,79472,128,0,79653:0:0:0:0:
64,192,79653,128,0,79924:0:0:0:0:
448,192,79743,128,0,79924:0:0:0:0:
192,192,79833,128,0,80014:0:0:0:0:
64,192,80014,128,0,80285:0:0:0:0:
448,192,80014,1,0,0:0:0:0:
320,192,80104,1,0,0:0:0:0:
192,192,80195,1,0,0:0:0:0:
448,192,80195,1,0,0:0:0:0:
448,192,80375,128,0,80737:0:0:0:0:
64,192,80375,1,0,0:0:0:0:
192,192,80466,1,0,0:0:0:0:
64,192,80556,1,0,0:0:0:0:
320,192,80556,1,0,0:0:0:0:
192,192,80737,1,0,0:0:0:0:
64,192,80737,1,0,0:0:0:0:
320,192,80827,1,0,0:0:0:0:
64,192,80918,128,0,81189:0:0:0:0:
448,192,80918,128,0,81189:0:0:0:0:
192,192,80918,1,0,0:0:0:0:
320,192,81098,128,0,81189:0:0:0:0:
192,192,81098,128,0,81369:0:0:0:0:
64,192,81279,128,0,81550:0:0:0:0:
320,192,81279,128,0,81369:0:0:0:0:
448,192,81279,128,0,81550:0:0:0:0:
192,192,81460,128,0,81550:0:0:0:0:
320,192,81460,128,0,81731:0:0:0:0:
448,192,81640,128,0,81912:0:0:0:0:
192,192,81640,128,0,81731:0:0:0:0:
64,192,81640,128,0,81912:0:0:0:0:
320,192,81821,128,0,81912:0:0:0:0:
192,192,81821,128,0,82092:0:0:0:0:
320,192,82002,128,0,82092:0:0:0:0:
448,192,82002,1,0,0:0:0:0:
64,192,82002,128,0,82273:0:0:0:0:
192,192,82183,128,0,82273:0:0:0:0:
320,192,82183,1,0,0:0:0:0:
192,192,82363,1,0,0:0:0:0:
64,192,82363,128,0,82634:0:0:0:0:
448,192,82363,1,0,0:0:0:0:
320,192,82544,1,0,0:0:0:0:
64,192,82725,128,0,82815:0:0:0:0:
192,192,82725,1,0,0:0:0:0:
448,192,82725,1,0,0:0:0:0:
192,192,82906,128,0,83086:0:0:0:0:
320,192,82906,1,0,0:0:0:0:
64,192,83086,1,0,0:0:0:0:
448,192,83086,1,0,0:0:0:0:
320,192,83267,128,0,83448:0:0:0:0:
192,192,83267,1,0,0:0:0:0:
64,192,83448,1,0,0:0:0:0:
448,192,83448,1,0,0:0:0:0:
448,192,83628,128,0,83809:0:0:0:0:
192,192,83628,1,0,0:0:0:0:
64,192,83809,128,0,84442:0:0:0:0:
320,192,83809,128,0,84080:0:0:0:0:
192,192,84171,128,0,84261:0:0:0:0:
448,192,84171,128,0,84261:0:0:0:0:
320,192,84351,128,0,84532:0:0:0:0:
64,192,84532,1,0,0:0:0:0:
448,192,84532,1,0,0:0:0:0:
320,192,84622,1,0,0:0:0:0:
192,192,84713,1,0,0:0:0:0:
64,192,84893,128,0,84984:0:0:0:0:
320,192,84893,128,0,84984:0:0:0:0:
448,192,85074,128,0,85526:0:0:0:0:
192,192,85074,1,0,0:0:0:0:
64,192,85255,128,0,85345:0:0:0:0:
320,192,85255,128,0,85345:0:0:0:0:
192,192,85436,128,0,85616:0:0:0:0:
64,192,85616,1,0,0:0:0:0:
448,192,85616,1,0,0:0:0:0:
192,192,85707,1,0,0:0:0:0:
320,192,85797,1,0,0:0:0:0:
64,192,85978,1,0,0:0:0:0:
448,192,85978,1,0,0:0:0:0:
320,192,86068,1,0,0:0:0:0:
192,192,86159,1,0,0:0:0:0:
64,192,86339,1,0,0:0:0:0:
448,192,86339,1,0,0:0:0:0:
192,192,86430,1,0,0:0:0:0:
320,192,86520,1,0,0:0:0:0:
448,192,86520,1,0,0:0:0:0:
64,192,86610,1,0,0:0:0:0:
448,192,86701,128,0,87333:0:0:0:0:
192,192,86701,128,0,86972:0:0:0:0:
64,192,87062,128,0,87153:0:0:0:0:
320,192,87062,128,0,87153:0:0:0:0:
192,192,87243,128,0,87424:0:0:0:0:
64,192,87424,1,0,0:0:0:0:
448,192,87424,1,0,0:0:0:0:
192,192,87514,1,0,0:0:0:0:
320,192,87604,1,0,0:0:0:0:
192,192,87785,128,0,87875:0:0:0:0:
448,192,87785,128,0,87875:0:0:0:0:
320,192,87966,1,0,0:0:0:0:
64,192,87966,128,0,88418:0:0:0:0:
192,192,88146,128,0,88237:0:0:0:0:
448,192,88146,128,0,88237:0:0:0:0:
320,192,88327,128,0,88508:0:0:0:0:
64,192,88508,1,0,0:0:0:0:
448,192,88508,1,0,0:0:0:0:
320,192,88598,1,0,0:0:0:0:
192,192,88689,1,0,0:0:0:0:
64,192,88869,1,0,0:0:0:0:
448,192,88869,1,0,0:0:0:0:
192,192,88960,1,0,0:0:0:0:
320,192,89050,1,0,0:0:0:0:
448,192,89231,128,0,89412:0:0:0:0:
64,192,89231,128,0,89321:0:0:0:0:
320,192,89321,128,0,89502:0:0:0:0:
64,192,89412,128,0,89502:0:0:0:0:
192,192,89412,128,0,89592:0:0:0:0:
448,192,89502,128,0,89592:0:0:0:0:
64,192,89592,128,0,90225:0:0:0:0:
320,192,89592,128,0,89863:0:0:0:0:
192,192,89954,128,0,90044:0:0:0:0:
448,192,89954,128,0,90044:0:0:0:0:
320,192,90134,128,0,90315:0:0:0:0:
64,192,90315,1,0,0:0:0:0:
448,192,90315,1,0,0:0:0:0:
320,192,90406,1,0,0:0:0:0:
192,192,90496,1,0,0:0:0:0:
64,192,90677,128,0,90767:0:0:0:0:
320,192,90677,128,0,90767:0:0:0:0:
448,192,90857,128,0,91309:0:0:0:0:
192,192,90857,1,0,0:0:0:0:
64,192,91038,128,0,91128:0:0:0:0:
320,192,91038,128,0,91128:0:0:0:0:
192,192,91219,128,0,91399:0:0:0:0:
64,192,91399,1,0,0:0:0:0:
448,192,91399,1,0,0:0:0:0:
192,192,91490,1,0,0:0:0:0:
320,192,91580,1,0,0:0:0:0:
64,192,91761,1,0,0:0:0:0:
448,192,91761,1,0,0:0:0:0:
320,192,91851,1,0,0:0:0:0:
192,192,91942,1,0,0:0:0:0:
64,192,92122,128,0,92393:0:0:0:0:
448,192,92122,128,0,92393:0:0:0:0:
192,192,92303,128,0,92936:0:0:0:0:
320,192,92303,128,0,92755:0:0:0:0:
64,192,92484,128,0,92755:0:0:0:0:
448,192,92484,128,0,92755:0:0:0:0:
64,192,92845,128,0,92936:0:0:0:0:
320,192,92845,128,0,93297:0:0:0:0:
448,192,92845,128,0,92936:0:0:0:0:
192,192,93026,128,0,93297:0:0:0:0:
64,192,93026,128,0,93297:0:0:0:0:
448,192,93026,128,0,93297:0:0:0:0:
64,192,93387,128,0,93659:0:0:0:0:
192,192,93387,128,0,93659:0:0:0:0:
320,192,93387,128,0,93659:0:0:0:0:
448,192,93387,128,0,93659:0:0:0:0:
192,192,93749,1,0,0:0:0:0:
320,192,93749,1,0,0:0:0:0:
64,192,93749,1,0,0:0:0:0:
448,192,93749,1,0,0:0:0:0:
64,192,93930,1,0,0:0:0:0:
448,192,93930,1,0,0:0:0:0:
64,192,94110,1,0,0:0:0:0:
448,192,94110,1,0,0:0:0:0:
64,192,94291,5,0,0:0:0:0:
448,192,94291,1,0,0:0:0:0:
64,192,94472,1,0,0:0:0:0:
448,192,94472,1,0,0:0:0:0:
64,192,94653,1,0,0:0:0:0:
448,192,94653,1,0,0:0:0:0:
192,192,94698,1,0,0:0:0:0:
320,192,94743,1,0,0:0:0:0:
448,192,94788,1,0,0:0:0:0:
64,192,94833,1,0,0:0:0:0:
192,192,94878,1,0,0:0:0:0:
320,192,94924,1,0,0:0:0:0:
448,192,94969,1,0,0:0:0:0:
64,192,95014,1,0,0:0:0:0:
192,192,95014,1,0,0:0:0:0:
320,192,95104,1,0,0:0:0:0:
448,192,95104,1,0,0:0:0:0:
192,192,95195,1,0,0:0:0:0:
64,192,95195,1,0,0:0:0:0:
320,192,95285,1,0,0:0:0:0:
448,192,95285,1,0,0:0:0:0:
64,192,95375,128,0,95737:0:0:0:0:
192,192,95375,128,0,95737:0:0:0:0:
320,192,95556,1,0,0:0:0:0:
448,192,95737,128,0,96098:0:0:0:0:
64,192,95918,128,0,96098:0:0:0:0:
192,192,95918,128,0,96098:0:0:0:0:
320,192,96098,128,0,96640:0:0:0:0:
448,192,96279,1,0,0:0:0:0:
64,192,96460,128,0,96550:0:0:0:0:
192,192,96460,128,0,96550:0:0:0:0:
192,192,96640,128,0,97092:0:0:0:0:
320,192,96731,1,0,0:0:0:0:
64,192,96821,128,0,96912:0:0:0:0:
448,192,96821,128,0,96912:0:0:0:0:
320,192,97002,128,0,97092:0:0:0:0:
448,192,97002,128,0,97092:0:0:0:0:
64,192,97363,128,0,97544:0:0:0:0:
192,192,97363,128,0,97544:0:0:0:0:
448,192,97544,128,0,97906:0:0:0:0:
320,192,97725,1,0,0:0:0:0:
64,192,97906,128,0,98267:0:0:0:0:
192,192,97906,128,0,98086:0:0:0:0:
320,192,98267,128,0,98628:0:0:0:0:
448,192,98267,128,0,98357:0:0:0:0:
64,192,98448,128,0,98538:0:0:0:0:
448,192,98448,128,0,98538:0:0:0:0:
192,192,98628,128,0,98809:0:0:0:0:
64,192,98809,128,0,99171:0:0:0:0:
448,192,98809,128,0,98899:0:0:0:0:
320,192,99171,128,0,99532:0:0:0:0:
64,192,99351,128,0,99442:0:0:0:0:
448,192,99351,128,0,99442:0:0:0:0:
448,192,99532,128,0,101068:0:0:0:0:
192,192,99622,128,0,99713:0:0:0:0:
64,192,99713,128,0,99803:0:0:0:0:
320,192,99713,128,0,99803:0:0:0:0:
64,192,99893,128,0,99984:0:0:0:0:
192,192,99893,128,0,99984:0:0:0:0:
192,192,100255,128,0,100436:0:0:0:0:
320,192,100255,128,0,100436:0:0:0:0:
64,192,100616,1,0,0:0:0:0:
192,192,100797,128,0,100978:0:0:0:0:
320,192,100797,128,0,100978:0:0:0:0:
64,192,100978,1,0,0:0:0:0:
320,192,101159,128,0,101520:0:0:0:0:
448,192,101159,128,0,101339:0:0:0:0:
192,192,101339,128,0,101520:0:0:0:0:
64,192,101520,128,0,101881:0:0:0:0:
448,192,101520,1,0,0:0:0:0:
192,192,101701,128,0,101881:0:0:0:0:
448,192,101701,128,0,101881:0:0:0:0:
320,192,101881,128,0,102243:0:0:0:0:
448,192,102062,1,0,0:0:0:0:
192,192,102243,128,0,102424:0:0:0:0:
64,192,102243,128,0,102424:0:0:0:0:
448,192,102424,128,0,102966:0:0:0:0:
320,192,102514,128,0,102604:0:0:0:0:
64,192,102604,128,0,102695:0:0:0:0:
192,192,102604,128,0,102695:0:0:0:0:
320,192,102785,128,0,102875:0:0:0:0:
192,192,102785,128,0,102875:0:0:0:0:
64,192,102966,128,0,103146:0:0:0:0:
320,192,103146,128,0,103327:0:0:0:0:
448,192,103146,128,0,103327:0:0:0:0:
192,192,103327,128,0,103689:0:0:0:0:
448,192,103508,1,0,0:0:0:0:
320,192,103689,128,0,104050:0:0:0:0:
64,192,103689,128,0,103869:0:0:0:0:
448,192,103869,128,0,104050:0:0:0:0:
192,192,103960,128,0,104050:0:0:0:0:
64,192,104050,128,0,104231:0:0:0:0:
320,192,104231,128,0,104412:0:0:0:0:
192,192,104412,128,0,104954:0:0:0:0:
448,192,104412,1,0,0:0:0:0:
320,192,104592,128,0,104773:0:0:0:0:
64,192,104592,128,0,104773:0:0:0:0:
448,192,104773,1,0,0:0:0:0:
64,192,104954,128,0,105044:0:0:0:0:
320,192,104954,128,0,105134:0:0:0:0:
64,192,105134,128,0,105406:0:0:0:0:
448,192,105134,128,0,105315:0:0:0:0:
192,192,105225,128,0,105406:0:0:0:0:
320,192,105315,128,0,105406:0:0:0:0:
448,192,105406,1,0,0:0:0:0:
64,192,105496,128,0,105586:0:0:0:0:
320,192,105857,128,0,105948:0:0:0:0:
64,192,106038,128,0,106128:0:0:0:0:
192,192,106038,128,0,106128:0:0:0:0:
448,192,106038,128,0,106309:0:0:0:0:
64,192,106219,128,0,106399:0:0:0:0:
192,192,106219,128,0,106399:0:0:0:0:
320,192,106399,128,0,106490:0:0:0:0:
448,192,106399,128,0,106490:0:0:0:0:
64,192,106580,128,0,106761:0:0:0:0:
192,192,106580,128,0,106761:0:0:0:0:
448,192,106580,128,0,106671:0:0:0:0:
320,192,106761,128,0,106851:0:0:0:0:
448,192,106761,128,0,106851:0:0:0:0:
64,192,106851,1,0,0:0:0:0:
192,192,106851,1,0,0:0:0:0:
320,192,106942,128,0,107303:0:0:0:0:
448,192,106942,128,0,107122:0:0:0:0:
192,192,107122,128,0,107484:0:0:0:0:
64,192,107303,128,0,107484:0:0:0:0:
448,192,107303,128,0,107845:0:0:0:0:
320,192,107484,128,0,107665:0:0:0:0:
64,192,107665,128,0,107845:0:0:0:0:
192,192,107665,128,0,108026:0:0:0:0:
320,192,107845,128,0,108207:0:0:0:0:
448,192,108026,128,0,108387:0:0:0:0:
64,192,108026,128,0,108207:0:0:0:0:
192,192,108207,128,0,108568:0:0:0:0:
64,192,108387,128,0,108749:0:0:0:0:
320,192,108387,128,0,108568:0:0:0:0:
448,192,108568,128,0,108930:0:0:0:0:
192,192,108749,1,0,0:0:0:0:
320,192,108749,128,0,109110:0:0:0:0:
192,192,108930,128,0,109291:0:0:0:0:
64,192,108930,128,0,109291:0:0:0:0:
448,192,109110,128,0,109472:0:0:0:0:
320,192,109291,128,0,109653:0:0:0:0:
64,192,109472,128,0,109653:0:0:0:0:
192,192,109472,128,0,109653:0:0:0:0:
448,192,109653,128,0,110014:0:0:0:0:
64,192,109833,128,0,110195:0:0:0:0:
192,192,109833,128,0,110014:0:0:0:0:
320,192,110014,128,0,110195:0:0:0:0:
192,192,110195,1,0,0:0:0:0:
448,192,110195,1,0,0:0:0:0:
64,192,110375,128,0,110466:0:0:0:0:
192,192,110375,128,0,110556:0:0:0:0:
320,192,110375,128,0,110646:0:0:0:0:
64,192,110556,1,0,0:0:0:0:
192,192,110737,128,0,111008:0:0:0:0:
320,192,110737,128,0,110918:0:0:0:0:
448,192,110737,128,0,110827:0:0:0:0:
448,192,110918,1,0,0:0:0:0:
192,192,111098,128,0,111460:0:0:0:0:
320,192,111098,128,0,111460:0:0:0:0:
64,192,111098,128,0,111640:0:0:0:0:
448,192,111460,128,0,111821:0:0:0:0:
192,192,111640,128,0,111821:0:0:0:0:
320,192,111640,128,0,111821:0:0:0:0:
64,192,111821,128,0,112002:0:0:0:0:
320,192,112002,128,0,112183:0:0:0:0:
448,192,112002,128,0,112183:0:0:0:0:
192,192,112092,128,0,112183:0:0:0:0:
64,192,112183,1,0,0:0:0:0:
192,192,112363,128,0,112454:0:0:0:0:
320,192,112363,128,0,112454:0:0:0:0:
64,192,112544,128,0,112634:0:0:0:0:
192,192,112544,128,0,112634:0:0:0:0:
320,192,112634,128,0,112725:0:0:0:0:
448,192,112634,128,0,112725:0:0:0:0:
192,192,112725,128,0,112906:0:0:0:0:
64,192,112725,128,0,113086:0:0:0:0:
320,192,112906,128,0,113267:0:0:0:0:
192,192,113086,128,0,113267:0:0:0:0:
448,192,113086,128,0,113448:0:0:0:0:
64,192,113267,128,0,113628:0:0:0:0:
192,192,113448,128,0,113628:0:0:0:0:
320,192,113448,128,0,113628:0:0:0:0:
448,192,113628,128,0,113809:0:0:0:0:
192,192,113809,128,0,114171:0:0:0:0:
64,192,113809,128,0,114351:0:0:0:0:
320,192,113990,128,0,114351:0:0:0:0:
448,192,113990,128,0,114351:0:0:0:0:
192,192,114351,128,0,114532:0:0:0:0:
64,192,114532,128,0,114622:0:0:0:0:
448,192,114532,128,0,114622:0:0:0:0:
64,192,114713,128,0,114984:0:0:0:0:
192,192,114713,128,0,114893:0:0:0:0:
320,192,114713,128,0,114803:0:0:0:0:
192,192,115074,128,0,115165:0:0:0:0:
320,192,115074,128,0,115255:0:0:0:0:
448,192,115074,128,0,115345:0:0:0:0:
64,192,115255,128,0,115526:0:0:0:0:
448,192,115436,128,0,115526:0:0:0:0:
64,192,115616,128,0,115797:0:0:0:0:
192,192,115616,128,0,115797:0:0:0:0:
320,192,115797,128,0,115978:0:0:0:0:
448,192,115797,128,0,115887:0:0:0:0:
192,192,115887,128,0,115978:0:0:0:0:
64,192,115978,128,0,116068:0:0:0:0:
448,192,115978,128,0,116068:0:0:0:0:
64,192,116159,128,0,116249:0:0:0:0:
320,192,116159,128,0,116339:0:0:0:0:
448,192,116159,128,0,116430:0:0:0:0:
64,192,116520,128,0,116791:0:0:0:0:
192,192,116520,128,0,116701:0:0:0:0:
448,192,116520,128,0,116610:0:0:0:0:
320,192,116701,128,0,116881:0:0:0:0:
64,192,116881,128,0,117153:0:0:0:0:
192,192,116881,128,0,117153:0:0:0:0:
448,192,116881,128,0,117153:0:0:0:0:
64,192,117243,128,0,117424:0:0:0:0:
192,192,117333,128,0,117514:0:0:0:0:
320,192,117333,128,0,117514:0:0:0:0:
448,192,117424,128,0,117604:0:0:0:0:
64,192,117604,128,0,117875:0:0:0:0:
192,192,117604,128,0,117875:0:0:0:0:
320,192,117875,128,0,117966:0:0:0:0:
448,192,117875,128,0,117966:0:0:0:0:
64,192,117966,1,0,0:0:0:0:
192,192,117966,1,0,0:0:0:0:
192,192,118146,128,0,118327:0:0:0:0:
320,192,118146,128,0,118327:0:0:0:0:
64,192,118327,1,0,0:0:0:0:
448,192,118327,1,0,0:0:0:0:
64,192,118508,128,0,119954:0:0:0:0:
448,192,118508,128,0,118779:0:0:0:0:
320,192,118689,128,0,118960:0:0:0:0:
448,192,118869,128,0,119321:0:0:0:0:
192,192,118869,128,0,119140:0:0:0:0:
320,192,119050,128,0,119140:0:0:0:0:
192,192,119231,128,0,119502:0:0:0:0:
320,192,119231,128,0,119683:0:0:0:0:
448,192,119412,128,0,119502:0:0:0:0:
192,192,119592,128,0,119863:0:0:0:0:
448,192,119592,128,0,119863:0:0:0:0:
320,192,119773,128,0,119954:0:0:0:0:
448,192,119954,128,0,121399:0:0:0:0:
192,192,119954,1,0,0:0:0:0:
320,192,120134,1,0,0:0:0:0:
64,192,120315,1,0,0:0:0:0:
192,192,120315,1,0,0:0:0:0:
320,192,120496,1,0,0:0:0:0:
320,192,120677,1,0,0:0:0:0:
64,192,120677,1,0,0:0:0:0:
192,192,120857,1,0,0:0:0:0:
64,192,121038,1,0,0:0:0:0:
192,192,121038,1,0,0:0:0:0:
320,192,121219,1,0,0:0:0:0:
192,192,121399,128,0,122845:0:0:0:0:
64,192,121399,128,0,121671:0:0:0:0:
320,192,121580,128,0,121851:0:0:0:0:
448,192,121761,128,0,122032:0:0:0:0:
64,192,121761,128,0,122213:0:0:0:0:
320,192,121942,128,0,122032:0:0:0:0:
320,192,122122,128,0,122574:0:0:0:0:
448,192,122122,128,0,122393:0:0:0:0:
64,192,122303,128,0,122393:0:0:0:0:
64,192,122484,128,0,122845:0:0:0:0:
448,192,122484,128,0,122755:0:0:0:0:
320,192,122665,128,0,122755:0:0:0:0:
320,192,122845,128,0,124291:0:0:0:0:
448,192,122845,1,0,0:0:0:0:
64,192,123026,1,0,0:0:0:0:
192,192,123207,1,0,0:0:0:0:
448,192,123207,1,0,0:0:0:0:
64,192,123387,1,0,0:0:0:0:
192,192,123568,1,0,0:0:0:0:
64,192,123568,1,0,0:0:0:0:
448,192,123749,1,0,0:0:0:0:
64,192,123930,1,0,0:0:0:0:
448,192,123930,1,0,0:0:0:0:
192,192,124110,1,0,0:0:0:0:
64,192,124291,128,0,124562:0:0:0:0:
448,192,124291,128,0,124472:0:0:0:0:
320,192,124472,128,0,124653:0:0:0:0:
192,192,124653,128,0,124833:0:0:0:0:
64,192,124653,128,0,124833:0:0:0:0:
320,192,124833,1,0,0:0:0:0:
64,192,125014,128,0,125195:0:0:0:0:
448,192,125014,128,0,125285:0:0:0:0:
192,192,125195,128,0,125375:0:0:0:0:
320,192,125375,128,0,125556:0:0:0:0:
448,192,125375,128,0,125556:0:0:0:0:
192,192,125556,1,0,0:0:0:0:
64,192,125737,128,0,126008:0:0:0:0:
448,192,125737,128,0,126008:0:0:0:0:
320,192,125918,128,0,126550:0:0:0:0:
448,192,126098,128,0,126369:0:0:0:0:
64,192,126098,128,0,126369:0:0:0:0:
192,192,126279,128,0,126731:0:0:0:0:
64,192,126460,128,0,126731:0:0:0:0:
448,192,126460,128,0,126821:0:0:0:0:
320,192,126640,128,0,126821:0:0:0:0:
192,192,126821,1,0,0:0:0:0:
64,192,126821,1,0,0:0:0:0:
320,192,127002,1,0,0:0:0:0:
64,192,127183,128,0,127815:0:0:0:0:
448,192,127183,128,0,127454:0:0:0:0:
192,192,127363,128,0,127634:0:0:0:0:
320,192,127544,128,0,127996:0:0:0:0:
448,192,127544,128,0,127815:0:0:0:0:
192,192,127725,128,0,127996:0:0:0:0:
64,192,127906,128,0,128177:0:0:0:0:
448,192,127906,128,0,128177:0:0:0:0:
192,192,128086,128,0,128177:0:0:0:0:
320,192,128086,128,0,128357:0:0:0:0:
192,192,128267,128,0,128357:0:0:0:0:
64,192,128267,128,0,128538:0:0:0:0:
448,192,128267,128,0,128538:0:0:0:0:
192,192,128448,128,0,128628:0:0:0:0:
320,192,128448,128,0,128538:0:0:0:0:
64,192,128628,128,0,128809:0:0:0:0:
320,192,128628,128,0,128749:0:0:0:0:
448,192,128628,128,0,128689:0:0:0:0:
192,192,128869,128,0,128930:0:0:0:0:
320,192,128869,128,0,128990:0:0:0:0:
448,192,128869,128,0,129050:0:0:0:0:
320,192,129110,128,0,129291:0:0:0:0:
192,192,129110,128,0,129231:0:0:0:0:
64,192,129110,128,0,129171:0:0:0:0:
192,192,129351,128,0,129532:0:0:0:0:
64,192,129351,128,0,129472:0:0:0:0:
448,192,129351,128,0,129412:0:0:0:0:
64,192,129592,128,0,129773:0:0:0:0:
320,192,129592,128,0,129713:0:0:0:0:
448,192,129592,128,0,129653:0:0:0:0:
192,192,129833,128,0,130014:0:0:0:0:
320,192,129833,128,0,129954:0:0:0:0:
448,192,129833,128,0,129893:0:0:0:0:
64,192,130074,128,0,130345:0:0:0:0:
448,192,130074,128,0,131520:0:0:0:0:
192,192,130074,1,0,0:0:0:0:
320,192,130074,1,0,0:0:0:0:
192,192,130255,128,0,130526:0:0:0:0:
64,192,130436,128,0,130887:0:0:0:0:
320,192,130436,128,0,130707:0:0:0:0:
192,192,130616,128,0,130707:0:0:0:0:
320,192,130797,128,0,131068:0:0:0:0:
192,192,130797,128,0,131249:0:0:0:0:
64,192,130978,128,0,131068:0:0:0:0:
320,192,131159,128,0,131430:0:0:0:0:
64,192,131159,128,0,131430:0:0:0:0:
192,192,131339,128,0,131520:0:0:0:0:
64,192,131520,128,0,132966:0:0:0:0:
320,192,131520,1,0,0:0:0:0:
192,192,131701,128,0,131791:0:0:0:0:
320,192,131701,128,0,131791:0:0:0:0:
192,192,131881,1,0,0:0:0:0:
320,192,132062,128,0,132153:0:0:0:0:
448,192,132062,128,0,132153:0:0:0:0:
320,192,132243,1,0,0:0:0:0:
192,192,132424,128,0,132514:0:0:0:0:
448,192,132424,128,0,132514:0:0:0:0:
448,192,132604,1,0,0:0:0:0:
192,192,132785,128,0,132875:0:0:0:0:
320,192,132785,128,0,132875:0:0:0:0:
320,192,132966,128,0,134412:0:0:0:0:
448,192,132966,128,0,133237:0:0:0:0:
192,192,133146,128,0,133418:0:0:0:0:
64,192,133327,128,0,133598:0:0:0:0:
448,192,133327,128,0,133779:0:0:0:0:
192,192,133508,128,0,133598:0:0:0:0:
192,192,133689,128,0,134140:0:0:0:0:
64,192,133689,128,0,133960:0:0:0:0:
448,192,133869,128,0,133960:0:0:0:0:
448,192,134050,128,0,134412:0:0:0:0:
64,192,134050,128,0,134321:0:0:0:0:
192,192,134231,128,0,134321:0:0:0:0:
64,192,134412,1,0,0:0:0:0:
192,192,134412,128,0,135406:0:0:0:0:
320,192,134592,128,0,134683:0:0:0:0:
448,192,134592,128,0,134683:0:0:0:0:
448,192,134773,128,0,134863:0:0:0:0:
64,192,134954,128,0,135044:0:0:0:0:
320,192,134954,128,0,135044:0:0:0:0:
320,192,135134,128,0,135225:0:0:0:0:
448,192,135315,128,0,135406:0:0:0:0:
64,192,135315,128,0,135406:0:0:0:0:
448,192,135496,1,0,0:0:0:0:
320,192,135541,1,0,0:0:0:0:
192,192,135586,1,0,0:0:0:0:
64,192,135631,1,0,0:0:0:0:
448,192,135677,1,0,0:0:0:0:
320,192,135722,1,0,0:0:0:0:
192,192,135767,1,0,0:0:0:0:
64,192,135812,1,0,0:0:0:0:
320,192,135857,128,0,136309:0:0:0:0:
448,192,135857,128,0,136309:0:0:0:0:
320,192,136399,128,0,136851:0:0:0:0:
448,192,136399,128,0,136851:0:0:0:0:
192,192,136580,128,0,137213:0:0:0:0:
64,192,136580,128,0,137213:0:0:0:0:
320,192,136942,128,0,137936:0:0:0:0:
448,192,136942,128,0,137574:0:0:0:0:
192,192,137303,128,0,137936:0:0:0:0:
64,192,137303,128,0,137574:0:0:0:0:
64,192,137665,128,0,138297:0:0:0:0:
448,192,137665,128,0,138297:0:0:0:0:
320,192,138026,128,0,138839:0:0:0:0:
192,192,138026,128,0,138659:0:0:0:0:
64,192,138387,128,0,138659:0:0:0:0:
448,192,138387,128,0,138659:0:0:0:0:
192,192,138749,128,0,138839:0:0:0:0:
64,192,138749,128,0,139020:0:0:0:0:
448,192,138749,128,0,139020:0:0:0:0:
192,192,138930,128,0,139201:0:0:0:0:
320,192,138930,128,0,139020:0:0:0:0:
320,192,139110,128,0,139201:0:0:0:0:
448,192,139110,128,0,139381:0:0:0:0:
64,192,139110,128,0,139381:0:0:0:0:
192,192,139291,128,0,139381:0:0:0:0:
320,192,139291,128,0,139562:0:0:0:0:
192,192,139472,128,0,139562:0:0:0:0:
64,192,139472,128,0,139743:0:0:0:0:
448,192,139472,128,0,139743:0:0:0:0:
320,192,139653,128,0,139743:0:0:0:0:
192,192,139653,128,0,139924:0:0:0:0:
64,192,139833,128,0,140104:0:0:0:0:
320,192,139833,128,0,139924:0:0:0:0:
448,192,139833,128,0,140104:0:0:0:0:
192,192,140014,128,0,140104:0:0:0:0:
320,192,140014,128,0,140195:0:0:0:0:
64,192,140195,1,0,0:0:0:0:
192,192,140195,1,0,0:0:0:0:
448,192,140195,1,0,0:0:0:0:
64,192,140375,1,0,0:0:0:0:
448,192,140375,1,0,0:0:0:0:
320,192,140375,1,0,0:0:0:0:
192,192,140556,1,0,0:0:0:0:
320,192,140556,1,0,0:0:0:0:
448,192,140556,1,0,0:0:0:0:
64,192,140737,1,0,0:0:0:0:
192,192,140737,1,0,0:0:0:0:
320,192,140737,1,0,0:0:0:0:
192,192,140918,1,0,0:0:0:0:
320,192,140918,1,0,0:0:0:0:
448,192,140918,1,0,0:0:0:0:
64,192,141098,1,0,0:0:0:0:
192,192,141098,1,0,0:0:0:0:
320,192,141189,1,0,0:0:0:0:
448,192,141189,1,0,0:0:0:0:
192,192,141460,1,0,0:0:0:0:
64,192,141460,1,0,0:0:0:0:
448,192,141550,1,0,0:0:0:0:
320,192,141595,1,0,0:0:0:0:
192,192,141640,1,0,0:0:0:0:
64,192,141686,1,0,0:0:0:0:
64,192,142002,128,0,142273:0:0:0:0:
448,192,142002,128,0,142273:0:0:0:0:
64,192,142363,128,0,142996:0:0:0:0:
448,192,142363,128,0,142996:0:0:0:0:
64,192,143086,128,8,143357:0:0:0:0:
192,192,143086,128,4,143177:0:0:0:0:
320,192,143086,128,4,143357:0:0:0:0:
448,192,143086,128,8,143357:0:0:0:0:
192,192,143267,128,0,143357:0:0:0:0:
320,192,143448,128,0,143628:0:0:0:0:
448,192,143448,128,0,143719:0:0:0:0:
192,192,143448,128,0,143538:0:0:0:0:
64,192,143538,128,0,143719:0:0:0:0:
192,192,143628,128,0,143719:0:0:0:0:
320,192,143719,128,0,143809:0:0:0:0:
64,192,143809,128,0,144080:0:0:0:0:
448,192,143809,128,0,144080:0:0:0:0:
192,192,143990,128,0,144080:0:0:0:0:
320,192,144171,128,0,144351:0:0:0:0:
448,192,144171,128,0,144442:0:0:0:0:
192,192,144171,128,0,144261:0:0:0:0:
64,192,144261,128,0,144442:0:0:0:0:
192,192,144351,128,0,144442:0:0:0:0:
320,192,144442,128,0,144532:0:0:0:0:
64,192,144532,128,0,144803:0:0:0:0:
448,192,144532,128,0,144803:0:0:0:0:
192,192,144713,128,0,144803:0:0:0:0:
64,192,144893,128,0,145165:0:0:0:0:
320,192,144893,128,0,145074:0:0:0:0:
192,192,144893,128,0,144984:0:0:0:0:
448,192,144984,128,0,145165:0:0:0:0:
192,192,145074,128,0,145165:0:0:0:0:
320,192,145165,128,0,145255:0:0:0:0:
64,192,145255,128,0,145526:0:0:0:0:
192,192,145255,128,0,145526:0:0:0:0:
448,192,145436,128,0,145526:0:0:0:0:
192,192,145616,128,0,145797:0:0:0:0:
320,192,145616,128,0,145707:0:0:0:0:
448,192,145616,128,0,145887:0:0:0:0:
64,192,145707,128,0,145887:0:0:0:0:
320,192,145797,128,0,145887:0:0:0:0:
192,192,145887,128,0,145978:0:0:0:0:
320,192,145978,128,0,146249:0:0:0:0:
448,192,145978,128,0,146249:0:0:0:0:
64,192,146159,128,0,146249:0:0:0:0:
320,192,146339,128,0,146610:0:0:0:0:
192,192,146339,128,0,146520:0:0:0:0:
64,192,146339,128,0,146430:0:0:0:0:
448,192,146430,128,0,146610:0:0:0:0:
64,192,146520,128,0,146610:0:0:0:0:
192,192,146610,128,0,146701:0:0:0:0:
320,192,146701,128,0,146972:0:0:0:0:
448,192,146701,128,0,146972:0:0:0:0:
192,192,146881,128,0,146972:0:0:0:0:
64,192,147062,128,0,147243:0:0:0:0:
448,192,147062,128,0,147333:0:0:0:0:
192,192,147062,128,0,147153:0:0:0:0:
320,192,147153,128,0,147333:0:0:0:0:
192,192,147243,128,0,147333:0:0:0:0:
64,192,147333,128,0,147424:0:0:0:0:
192,192,147424,128,0,147695:0:0:0:0:
320,192,147424,128,0,147695:0:0:0:0:
448,192,147604,128,0,147695:0:0:0:0:
64,192,147785,128,0,147875:0:0:0:0:
448,192,147785,128,0,147875:0:0:0:0:
320,192,147785,128,0,147875:0:0:0:0:
192,192,147875,128,0,147966:0:0:0:0:
64,192,147966,128,0,148327:0:0:0:0:
448,192,147966,128,0,148327:0:0:0:0:
320,192,148237,128,0,148327:0:0:0:0:
192,192,148327,128,0,148508:0:0:0:0:
64,192,148508,128,0,148689:0:0:0:0:
320,192,148508,128,0,148598:0:0:0:0:
448,192,148508,128,0,148689:0:0:0:0:
192,192,148598,128,0,148689:0:0:0:0:
320,192,148689,128,0,148869:0:0:0:0:
64,192,148869,128,0,149140:0:0:0:0:
192,192,148869,128,0,149140:0:0:0:0:
320,192,149050,128,0,149140:0:0:0:0:
448,192,149050,128,0,149140:0:0:0:0:
64,192,149231,128,0,149502:0:0:0:0:
192,192,149231,128,0,149502:0:0:0:0:
448,192,149231,128,0,149502:0:0:0:0:
320,192,149412,128,0,149502:0:0:0:0:
192,192,149592,128,0,149863:0:0:0:0:
448,192,149592,128,0,149863:0:0:0:0:
320,192,149773,128,0,149863:0:0:0:0:
64,192,149773,128,0,149863:0:0:0:0:
448,192,149954,128,0,150225:0:0:0:0:
320,192,149954,128,0,150225:0:0:0:0:
64,192,149954,128,0,150225:0:0:0:0:
192,192,150134,128,0,150225:0:0:0:0:
64,192,150315,128,0,150586:0:0:0:0:
192,192,150315,128,0,150406:0:0:0:0:
192,192,150496,128,0,150586:0:0:0:0:
320,192,150496,128,0,150586:0:0:0:0:
64,192,150677,128,0,150948:0:0:0:0:
320,192,150677,128,0,150948:0:0:0:0:
448,192,150677,128,0,150948:0:0:0:0:
192,192,150857,128,0,150948:0:0:0:0:
320,192,151038,128,0,151128:0:0:0:0:
448,192,151038,128,0,151309:0:0:0:0:
192,192,151219,128,0,151309:0:0:0:0:
320,192,151219,128,0,151309:0:0:0:0:
64,192,151399,128,0,151671:0:0:0:0:
192,192,151399,128,0,151671:0:0:0:0:
448,192,151399,128,0,151671:0:0:0:0:
320,192,151580,128,0,151671:0:0:0:0:
64,192,151761,128,0,151851:0:0:0:0:
192,192,151761,128,0,152032:0:0:0:0:
64,192,151942,128,0,152032:0:0:0:0:
448,192,151942,128,0,152032:0:0:0:0:
192,192,152122,128,0,152213:0:0:0:0:
320,192,152122,128,0,152213:0:0:0:0:
448,192,152122,128,0,152213:0:0:0:0:
64,192,152303,128,0,152574:0:0:0:0:
192,192,152303,128,0,152484:0:0:0:0:
320,192,152303,128,0,152393:0:0:0:0:
448,192,152484,128,0,152665:0:0:0:0:
64,192,152665,128,0,152755:0:0:0:0:
192,192,152665,128,0,152845:0:0:0:0:
320,192,152665,128,0,152936:0:0:0:0:
448,192,152845,128,0,153026:0:0:0:0:
64,192,153026,128,0,153297:0:0:0:0:
192,192,153026,128,0,153297:0:0:0:0:
320,192,153026,128,0,153478:0:0:0:0:
64,192,153387,128,0,153659:0:0:0:0:
192,192,153387,128,0,153659:0:0:0:0:
320,192,153568,128,0,153839:0:0:0:0:
448,192,153568,128,0,153839:0:0:0:0:
192,192,153749,128,0,153930:0:0:0:0:
64,192,153930,128,0,154381:0:0:0:0:
448,192,153930,128,0,154110:0:0:0:0:
192,192,154020,128,0,154291:0:0:0:0:
320,192,154110,128,0,154201:0:0:0:0:
448,192,154201,128,0,154562:0:0:0:0:
320,192,154291,128,0,154562:0:0:0:0:
192,192,154381,128,0,154472:0:0:0:0:
64,192,154472,128,0,154562:0:0:0:0:
192,192,154562,128,0,154653:0:0:0:0:
320,192,154653,128,0,154924:0:0:0:0:
448,192,154653,128,0,154924:0:0:0:0:
64,192,154833,128,0,154924:0:0:0:0:
192,192,155014,128,0,155195:0:0:0:0:
320,192,155014,128,0,155104:0:0:0:0:
448,192,155014,128,0,155285:0:0:0:0:
64,192,155104,128,0,155285:0:0:0:0:
320,192,155195,128,0,155285:0:0:0:0:
192,192,155285,128,0,155375:0:0:0:0:
64,192,155375,128,0,155646:0:0:0:0:
448,192,155375,128,0,155646:0:0:0:0:
320,192,155556,128,0,155646:0:0:0:0:
64,192,155737,128,0,156008:0:0:0:0:
192,192,155737,128,0,155827:0:0:0:0:
320,192,155737,128,0,155918:0:0:0:0:
448,192,155827,128,0,156008:0:0:0:0:
192,192,155918,128,0,156008:0:0:0:0:
320,192,156008,128,0,156098:0:0:0:0:
64,192,156098,128,0,156369:0:0:0:0:
448,192,156098,128,0,156369:0:0:0:0:
192,192,156279,128,0,156369:0:0:0:0:
64,192,156460,128,0,156731:0:0:0:0:
320,192,156460,128,0,156550:0:0:0:0:
448,192,156460,128,0,156731:0:0:0:0:
192,192,156550,128,0,156640:0:0:0:0:
320,192,156640,128,0,156731:0:0:0:0:
192,192,156731,128,0,156821:0:0:0:0:
64,192,156821,128,0,157092:0:0:0:0:
448,192,156821,128,0,157092:0:0:0:0:
320,192,157002,128,0,157092:0:0:0:0:
64,192,157183,128,0,157454:0:0:0:0:
192,192,157183,128,0,157273:0:0:0:0:
448,192,157183,128,0,157454:0:0:0:0:
320,192,157273,128,0,157363:0:0:0:0:
192,192,157363,128,0,157454:0:0:0:0:
320,192,157454,128,0,157544:0:0:0:0:
64,192,157544,128,0,157815:0:0:0:0:
448,192,157544,128,0,157815:0:0:0:0:
320,192,157725,128,0,157815:0:0:0:0:
64,192,157906,128,0,158177:0:0:0:0:
192,192,157906,128,0,157996:0:0:0:0:
448,192,157906,128,0,158086:0:0:0:0:
320,192,157996,128,0,158177:0:0:0:0:
192,192,158086,128,0,158177:0:0:0:0:
448,192,158177,128,0,158267:0:0:0:0:
320,192,158267,128,0,158448:0:0:0:0:
64,192,158267,128,0,158448:0:0:0:0:
192,192,158267,128,0,158357:0:0:0:0:
192,192,158448,1,0,0:0:0:0:
64,192,158628,128,0,158809:0:0:0:0:
320,192,158628,128,0,158719:0:0:0:0:
448,192,158628,128,0,158809:0:0:0:0:
192,192,158809,128,0,159080:0:0:0:0:
320,192,158809,128,0,159080:0:0:0:0:
64,192,159171,128,0,159442:0:0:0:0:
192,192,159171,128,0,159442:0:0:0:0:
320,192,159351,128,0,159442:0:0:0:0:
448,192,159351,128,0,159442:0:0:0:0:
192,192,159532,128,0,159803:0:0:0:0:
64,192,159532,128,0,159803:0:0:0:0:
448,192,159532,128,0,159803:0:0:0:0:
64,192,159893,128,0,159984:0:0:0:0:
448,192,159893,128,0,159984:0:0:0:0:
192,192,159984,128,0,160074:0:0:0:0:
320,192,159984,128,0,160074:0:0:0:0:
64,192,160074,128,0,160165:0:0:0:0:
448,192,160074,128,0,160345:0:0:0:0:
320,192,160165,128,0,160345:0:0:0:0:
192,192,160255,128,0,160345:0:0:0:0:
64,192,160255,128,0,160345:0:0:0:0:
320,192,160436,128,0,160707:0:0:0:0:
448,192,160436,128,0,160707:0:0:0:0:
64,192,160616,128,0,160707:0:0:0:0:
192,192,160616,128,0,160978:0:0:0:0:
448,192,160797,128,0,161068:0:0:0:0:
64,192,160978,128,0,161068:0:0:0:0:
192,192,161068,128,0,161159:0:0:0:0:
64,192,161159,128,0,161701:0:0:0:0:
320,192,161159,128,0,161249:0:0:0:0:
448,192,161159,128,0,161249:0:0:0:0:
192,192,161339,128,0,161701:0:0:0:0:
320,192,161701,128,0,161972:0:0:0:0:
64,192,161881,128,0,162153:0:0:0:0:
192,192,161881,128,0,162062:0:0:0:0:
320,192,162062,128,0,162243:0:0:0:0:
192,192,162153,128,0,162514:0:0:0:0:
448,192,162243,128,0,162514:0:0:0:0:
64,192,162243,128,0,162514:0:0:0:0:
320,192,162424,128,0,162695:0:0:0:0:
192,192,162604,128,0,162785:0:0:0:0:
64,192,162604,128,0,162875:0:0:0:0:
448,192,162604,128,0,162875:0:0:0:0:
320,192,162785,128,0,162875:0:0:0:0:
192,192,162875,128,0,162966:0:0:0:0:
64,192,162966,128,0,163237:0:0:0:0:
320,192,162966,128,0,163056:0:0:0:0:
448,192,162966,128,0,163237:0:0:0:0:
192,192,163146,128,0,163237:0:0:0:0:
320,192,163237,128,0,163327:0:0:0:0:
64,192,163327,128,0,163508:0:0:0:0:
192,192,163327,128,0,163689:0:0:0:0:
320,192,163508,128,0,163689:0:0:0:0:
64,192,163689,128,0,163869:0:0:0:0:
448,192,163689,128,0,163869:0:0:0:0:
192,192,163869,128,0,164050:0:0:0:0:
320,192,163960,128,0,164140:0:0:0:0:
64,192,164050,128,0,164231:0:0:0:0:
448,192,164050,128,0,164231:0:0:0:0:
192,192,164140,128,0,164321:0:0:0:0:
320,192,164231,128,0,164412:0:0:0:0:
64,192,164412,128,0,164502:0:0:0:0:
192,192,164412,128,0,164502:0:0:0:0:
320,192,164502,128,0,164592:0:0:0:0:
448,192,164502,128,0,164592:0:0:0:0:
64,192,164592,128,0,164683:0:0:0:0:
192,192,164592,128,0,164683:0:0:0:0:
64,192,164773,128,0,164954:0:0:0:0:
448,192,164773,128,0,164863:0:0:0:0:
192,192,164863,128,0,165044:0:0:0:0:
320,192,164954,128,0,165134:0:0:0:0:
448,192,164954,128,0,165044:0:0:0:0:
64,192,165044,128,0,165134:0:0:0:0:
192,192,165134,128,0,165225:0:0:0:0:
448,192,165134,128,0,165225:0:0:0:0:
64,192,165315,128,0,165586:0:0:0:0:
192,192,165315,128,0,165586:0:0:0:0:
320,192,165315,128,0,165586:0:0:0:0:
192,192,165677,128,0,165948:0:0:0:0:
320,192,165677,128,0,165948:0:0:0:0:
448,192,165677,128,0,165948:0:0:0:0:
64,192,166038,128,0,166128:0:0:0:0:
192,192,166038,128,0,166128:0:0:0:0:
320,192,166038,128,0,166128:0:0:0:0:
192,192,166219,5,0,0:0:0:0:
320,192,166219,1,0,0:0:0:0:
448,192,166219,1,0,0:0:0:0:
64,192,166219,128,0,166490:0:0:0:0:
320,192,166399,128,0,166671:0:0:0:0:
64,192,166580,128,0,166851:0:0:0:0:
192,192,166580,1,0,0:0:0:0:
448,192,166761,128,0,167032:0:0:0:0:
64,192,166942,128,0,167213:0:0:0:0:
320,192,166942,1,0,0:0:0:0:
192,192,167122,128,0,167393:0:0:0:0:
64,192,167303,128,0,167574:0:0:0:0:
448,192,167303,1,0,0:0:0:0:
192,192,167484,128,0,167755:0:0:0:0:
64,192,167665,128,0,167936:0:0:0:0:
320,192,167665,1,0,0:0:0:0:
448,192,167845,128,0,168116:0:0:0:0:
64,192,168026,128,0,168297:0:0:0:0:
192,192,168026,1,0,0:0:0:0:
448,192,168207,128,0,168478:0:0:0:0:
64,192,168387,128,0,168659:0:0:0:0:
320,192,168387,1,0,0:0:0:0:
192,192,168568,128,0,168839:0:0:0:0:
64,192,168749,128,0,169020:0:0:0:0:
448,192,168749,1,0,0:0:0:0:
320,192,168930,128,0,169201:0:0:0:0:
448,192,169110,128,0,169381:0:0:0:0:
64,192,169110,1,0,0:0:0:0:
192,192,169291,128,0,169562:0:0:0:0:
448,192,169472,128,0,169743:0:0:0:0:
320,192,169472,1,0,0:0:0:0:
64,192,169653,128,0,169924:0:0:0:0:
448,192,169833,128,0,170104:0:0:0:0:
192,192,169833,1,0,0:0:0:0:
320,192,170014,128,0,170285:0:0:0:0:
448,192,170195,128,0,170466:0:0:0:0:
64,192,170195,1,0,0:0:0:0:
320,192,170375,128,0,170646:0:0:0:0:
448,192,170556,128,0,170827:0:0:0:0:
192,192,170556,1,0,0:0:0:0:
64,192,170737,128,0,171008:0:0:0:0:
448,192,170918,128,0,171189:0:0:0:0:
320,192,170918,1,0,0:0:0:0:
64,192,171098,128,0,171369:0:0:0:0:
448,192,171279,128,0,171550:0:0:0:0:
192,192,171279,1,0,0:0:0:0:
320,192,171460,128,0,171731:0:0:0:0:
448,192,171640,128,0,171912:0:0:0:0:
64,192,171640,1,0,0:0:0:0:
192,192,171821,128,0,172092:0:0:0:0:
64,192,172002,128,0,172273:0:0:0:0:
448,192,172002,128,0,172273:0:0:0:0:
320,192,172183,128,0,172454:0:0:0:0:
64,192,172363,128,0,172634:0:0:0:0:
192,192,172363,128,0,172634:0:0:0:0:
448,192,172544,128,0,172815:0:0:0:0:
64,192,172725,128,0,172996:0:0:0:0:
320,192,172725,128,0,172996:0:0:0:0:
192,192,172906,128,0,173177:0:0:0:0:
64,192,173086,128,0,173357:0:0:0:0:
448,192,173086,128,0,173357:0:0:0:0:
192,192,173267,128,0,173538:0:0:0:0:
64,192,173448,128,0,173719:0:0:0:0:
320,192,173448,128,0,173719:0:0:0:0:
448,192,173628,128,0,173899:0:0:0:0:
64,192,173809,128,0,174080:0:0:0:0:
192,192,173809,128,0,174080:0:0:0:0:
448,192,173990,128,0,174261:0:0:0:0:
64,192,174171,128,0,174442:0:0:0:0:
320,192,174171,128,0,174442:0:0:0:0:
192,192,174351,128,0,174622:0:0:0:0:
64,192,174532,128,0,174803:0:0:0:0:
448,192,174532,128,0,174803:0:0:0:0:
320,192,174713,128,0,174984:0:0:0:0:
448,192,174893,128,0,175165:0:0:0:0:
64,192,174893,128,0,175165:0:0:0:0:
192,192,175074,128,0,175345:0:0:0:0:
448,192,175255,128,0,175526:0:0:0:0:
320,192,175255,128,0,175526:0:0:0:0:
64,192,175436,128,0,175707:0:0:0:0:
448,192,175616,128,0,175887:0:0:0:0:
192,192,175616,128,0,175887:0:0:0:0:
320,192,175797,128,0,176068:0:0:0:0:
448,192,175978,128,0,176249:0:0:0:0:
64,192,175978,128,0,176249:0:0:0:0:
320,192,176159,128,0,176610:0:0:0:0:
448,192,176339,128,0,176610:0:0:0:0:
192,192,176339,128,0,176972:0:0:0:0:
64,192,176520,128,0,176791:0:0:0:0:
448,192,176701,128,0,176972:0:0:0:0:
320,192,176701,128,0,177153:0:0:0:0:
64,192,176881,128,0,177153:0:0:0:0:
448,192,177062,128,0,177333:0:0:0:0:
192,192,177062,128,0,177333:0:0:0:0:
320,192,177243,128,0,177424:0:0:0:0:
64,192,177424,1,0,0:0:0:0:
448,192,177424,1,0,0:0:0:0:
192,192,177469,1,0,0:0:0:0:
320,192,177514,1,0,0:0:0:0:
448,192,177559,1,0,0:0:0:0:
64,192,177604,1,0,0:0:0:0:
192,192,177649,1,0,0:0:0:0:
320,192,177695,1,0,0:0:0:0:
448,192,177740,1,0,0:0:0:0:
64,192,177785,1,0,0:0:0:0:
192,192,177785,128,0,178237:0:0:0:0:
320,192,177966,128,0,178418:0:0:0:0:
448,192,178146,128,0,178418:0:0:0:0:
64,192,178146,128,0,178779:0:0:0:0:
192,192,178327,128,0,178598:0:0:0:0:
320,192,178508,128,0,178960:0:0:0:0:
448,192,178508,128,0,178779:0:0:0:0:
192,192,178689,128,0,179140:0:0:0:0:
64,192,178869,128,0,179140:0:0:0:0:
448,192,178869,128,0,179321:0:0:0:0:
320,192,179050,128,0,179321:0:0:0:0:
192,192,179231,128,0,179321:0:0:0:0:
64,192,179231,128,0,179321:0:0:0:0:
192,192,179412,128,0,179683:0:0:0:0:
320,192,179592,128,0,179683:0:0:0:0:
448,192,179592,128,0,179683:0:0:0:0:
448,192,179773,128,0,180044:0:0:0:0:
192,192,179954,128,0,180044:0:0:0:0:
320,192,179954,128,0,180044:0:0:0:0:
320,192,180134,128,0,180406:0:0:0:0:
192,192,180315,128,0,180406:0:0:0:0:
64,192,180315,128,0,180406:0:0:0:0:
64,192,180496,128,0,180767:0:0:0:0:
320,192,180677,128,0,181128:0:0:0:0:
448,192,180677,128,0,180948:0:0:0:0:
192,192,180857,128,0,181309:0:0:0:0:
64,192,181038,128,0,181309:0:0:0:0:
448,192,181038,128,0,181671:0:0:0:0:
320,192,181219,128,0,181490:0:0:0:0:
192,192,181399,128,0,181851:0:0:0:0:
64,192,181399,128,0,181671:0:0:0:0:
320,192,181580,128,0,182032:0:0:0:0:
448,192,181761,128,0,182032:0:0:0:0:
64,192,181761,128,0,182213:0:0:0:0:
192,192,181942,128,0,182213:0:0:0:0:
320,192,182122,128,0,182213:0:0:0:0:
448,192,182122,128,0,182213:0:0:0:0:
320,192,182303,128,0,182574:0:0:0:0:
192,192,182484,128,0,182574:0:0:0:0:
64,192,182484,128,0,182574:0:0:0:0:
64,192,182665,128,0,182936:0:0:0:0:
192,192,182845,128,0,182936:0:0:0:0:
320,192,182845,128,0,182936:0:0:0:0:
192,192,183026,128,0,183297:0:0:0:0:
320,192,183207,128,0,183297:0:0:0:0:
448,192,183207,128,0,183297:0:0:0:0:
448,192,183387,128,0,183659:0:0:0:0:
192,192,183568,128,0,183659:0:0:0:0:
64,192,183568,128,0,183659:0:0:0:0:
192,192,183749,128,0,184020:0:0:0:0:
320,192,183749,128,0,183839:0:0:0:0:
64,192,183930,128,0,184020:0:0:0:0:
320,192,183930,128,0,184020:0:0:0:0:
448,192,183930,128,0,184020:0:0:0:0:
320,192,184110,128,0,184201:0:0:0:0:
448,192,184110,128,0,184201:0:0:0:0:
192,192,184291,128,0,184381:0:0:0:0:
320,192,184291,128,0,184562:0:0:0:0:
192,192,184472,128,0,184562:0:0:0:0:
64,192,184472,128,0,184562:0:0:0:0:
448,192,184472,128,0,184562:0:0:0:0:
64,192,184653,128,0,184743:0:0:0:0:
192,192,184653,128,0,184743:0:0:0:0:
192,192,184833,128,0,185104:0:0:0:0:
320,192,184833,128,0,184924:0:0:0:0:
64,192,185014,128,0,185104:0:0:0:0:
320,192,185014,128,0,185104:0:0:0:0:
448,192,185014,128,0,185104:0:0:0:0:
320,192,185195,128,0,185285:0:0:0:0:
448,192,185195,128,0,185285:0:0:0:0:
320,192,185375,128,0,185646:0:0:0:0:
192,192,185375,128,0,185466:0:0:0:0:
192,192,185556,128,0,185646:0:0:0:0:
64,192,185556,128,0,185646:0:0:0:0:
448,192,185556,128,0,185646:0:0:0:0:
64,192,185737,128,0,185827:0:0:0:0:
192,192,185737,128,0,185827:0:0:0:0:
320,192,185918,128,0,186008:0:0:0:0:
192,192,185918,128,0,186189:0:0:0:0:
64,192,186098,128,0,186189:0:0:0:0:
320,192,186098,128,0,186189:0:0:0:0:
448,192,186098,128,0,186189:0:0:0:0:
192,192,186279,128,0,186369:0:0:0:0:
320,192,186279,128,0,186369:0:0:0:0:
448,192,186460,1,0,0:0:0:0:
64,192,186460,128,0,186550:0:0:0:0:
192,192,186460,1,0,0:0:0:0:
64,192,186640,128,0,186731:0:0:0:0:
320,192,186640,1,0,0:0:0:0:
64,192,186821,128,0,186912:0:0:0:0:
192,192,186821,1,0,0:0:0:0:
320,192,186821,1,0,0:0:0:0:
64,192,187002,128,0,187092:0:0:0:0:
448,192,187002,1,0,0:0:0:0:
64,192,187183,128,0,187273:0:0:0:0:
320,192,187183,1,0,0:0:0:0:
448,192,187183,1,0,0:0:0:0:
64,192,187363,128,0,187454:0:0:0:0:
192,192,187363,1,0,0:0:0:0:
64,192,187544,128,0,187634:0:0:0:0:
448,192,187544,1,0,0:0:0:0:
192,192,187544,1,0,0:0:0:0:
64,192,187725,128,0,187815:0:0:0:0:
320,192,187725,1,0,0:0:0:0:
64,192,187906,1,0,0:0:0:0:
448,192,187906,128,0,187996:0:0:0:0:
320,192,187906,1,0,0:0:0:0:
448,192,188086,128,0,188177:0:0:0:0:
192,192,188086,1,0,0:0:0:0:
448,192,188267,128,0,188357:0:0:0:0:
320,192,188267,1,0,0:0:0:0:
192,192,188267,1,0,0:0:0:0:
448,192,188448,128,0,188538:0:0:0:0:
64,192,188448,1,0,0:0:0:0:
448,192,188628,128,0,188719:0:0:0:0:
192,192,188628,1,0,0:0:0:0:
64,192,188628,1,0,0:0:0:0:
448,192,188809,128,0,188899:0:0:0:0:
320,192,188809,1,0,0:0:0:0:
448,192,188990,128,0,189080:0:0:0:0:
64,192,188990,1,0,0:0:0:0:
320,192,188990,1,0,0:0:0:0:
448,192,189171,128,0,189261:0:0:0:0:
192,192,189171,1,0,0:0:0:0:
64,192,189351,128,0,189532:0:0:0:0:
448,192,189351,128,0,189442:0:0:0:0:
192,192,189442,128,0,189622:0:0:0:0:
320,192,189532,128,0,189622:0:0:0:0:
448,192,189532,128,0,189713:0:0:0:0:
64,192,189622,128,0,189803:0:0:0:0:
192,192,189713,128,0,189803:0:0:0:0:
320,192,189713,128,0,189893:0:0:0:0:
448,192,189803,128,0,189984:0:0:0:0:
64,192,189893,128,0,189984:0:0:0:0:
192,192,189893,128,0,190165:0:0:0:0:
320,192,189984,128,0,190074:0:0:0:0:
64,192,190074,128,0,190165:0:0:0:0:
448,192,190074,128,0,190255:0:0:0:0:
320,192,190165,128,0,190345:0:0:0:0:
192,192,190255,128,0,190345:0:0:0:0:
64,192,190255,128,0,190436:0:0:0:0:
448,192,190345,128,0,190526:0:0:0:0:
320,192,190436,128,0,190526:0:0:0:0:
192,192,190436,128,0,190616:0:0:0:0:
64,192,190526,128,0,190707:0:0:0:0:
320,192,190616,128,0,190797:0:0:0:0:
448,192,190616,128,0,190707:0:0:0:0:
192,192,190707,128,0,190797:0:0:0:0:
64,192,190797,1,0,0:0:0:0:
448,192,190797,1,0,0:0:0:0:
64,192,190978,128,0,191068:0:0:0:0:
192,192,190978,128,0,191068:0:0:0:0:
320,192,190978,128,0,191068:0:0:0:0:
448,192,190978,128,0,191068:0:0:0:0:
64,192,191159,128,0,191249:0:0:0:0:
192,192,191159,128,0,191249:0:0:0:0:
320,192,191159,128,0,191249:0:0:0:0:
448,192,191159,128,0,191249:0:0:0:0:
192,192,191339,1,0,0:0:0:0:
320,192,191339,1,0,0:0:0:0:
64,192,191520,1,0,0:0:0:0:
448,192,191520,1,0,0:0:0:0:
64,192,191701,128,0,191791:0:0:0:0:
320,192,191701,128,0,191791:0:0:0:0:
448,192,191701,128,0,191791:0:0:0:0:
64,192,191881,1,0,0:0:0:0:
448,192,191881,1,0,0:0:0:0:
64,192,192062,128,0,192514:0:0:0:0:
192,192,192062,128,0,192514:0:0:0:0:
448,192,192062,128,0,192514:0:0:0:0:
320,192,192424,128,0,192514:0:0:0:0:
64,192,192604,128,0,192875:0:0:0:0:
448,192,192604,128,0,192875:0:0:0:0:
192,192,192785,128,0,192875:0:0:0:0:
448,192,192966,128,0,193056:0:0:0:0:
320,192,192966,128,0,193237:0:0:0:0:
192,192,193056,128,0,193237:0:0:0:0:
64,192,193146,128,0,193237:0:0:0:0:
448,192,193146,128,0,193237:0:0:0:0:
192,192,193327,128,0,193598:0:0:0:0:
320,192,193327,128,0,193598:0:0:0:0:
64,192,193508,128,0,193598:0:0:0:0:
192,192,193689,128,0,193960:0:0:0:0:
448,192,193689,128,0,193960:0:0:0:0:
320,192,193869,128,0,193960:0:0:0:0:
64,192,194050,128,0,194321:0:0:0:0:
448,192,194050,128,0,194321:0:0:0:0:
192,192,194231,128,0,194321:0:0:0:0:
64,192,194412,128,0,194502:0:0:0:0:
320,192,194412,128,0,194683:0:0:0:0:
448,192,194502,128,0,194683:0:0:0:0:
64,192,194592,128,0,194683:0:0:0:0:
192,192,194592,128,0,194683:0:0:0:0:
320,192,194773,128,0,195044:0:0:0:0:
448,192,194773,128,0,195044:0:0:0:0:
192,192,194954,128,0,195044:0:0:0:0:
64,192,195134,128,0,195406:0:0:0:0:
448,192,195134,128,0,195406:0:0:0:0:
320,192,195315,128,0,195406:0:0:0:0:
64,192,195496,128,0,195767:0:0:0:0:
192,192,195496,128,0,195586:0:0:0:0:
448,192,195586,1,0,0:0:0:0:
320,192,195631,1,0,0:0:0:0:
192,192,195677,128,0,195767:0:0:0:0:
320,192,195857,128,0,195948:0:0:0:0:
448,192,195857,128,0,196128:0:0:0:0:
64,192,195948,128,0,196128:0:0:0:0:
192,192,196038,128,0,196128:0:0:0:0:
320,192,196038,128,0,196128:0:0:0:0:
64,192,196219,128,0,196490:0:0:0:0:
448,192,196219,128,0,196490:0:0:0:0:
192,192,196399,128,0,196490:0:0:0:0:
320,192,196580,128,0,196851:0:0:0:0:
448,192,196580,128,0,196851:0:0:0:0:
64,192,196761,128,0,196851:0:0:0:0:
192,192,196942,128,0,197213:0:0:0:0:
448,192,196942,128,0,197213:0:0:0:0:
320,192,197122,128,0,197213:0:0:0:0:
64,192,197303,128,0,197393:0:0:0:0:
192,192,197303,128,0,197574:0:0:0:0:
320,192,197393,128,0,197574:0:0:0:0:
64,192,197484,128,0,197574:0:0:0:0:
448,192,197484,128,0,197574:0:0:0:0:
192,192,197665,128,0,197936:0:0:0:0:
320,192,197665,128,0,197936:0:0:0:0:
64,192,197845,128,0,198026:0:0:0:0:
192,192,198026,128,0,198207:0:0:0:0:
320,192,198026,128,0,198297:0:0:0:0:
448,192,198026,128,0,198297:0:0:0:0:
64,192,198207,128,0,198297:0:0:0:0:
192,192,198297,128,0,198387:0:0:0:0:
320,192,198387,128,0,198659:0:0:0:0:
448,192,198387,128,0,198568:0:0:0:0:
64,192,198568,128,0,198659:0:0:0:0:
448,192,198659,128,0,198749:0:0:0:0:
64,192,198749,128,0,198930:0:0:0:0:
192,192,198749,128,0,198839:0:0:0:0:
448,192,198839,128,0,199020:0:0:0:0:
192,192,198930,128,0,199020:0:0:0:0:
320,192,198930,128,0,199020:0:0:0:0:
320,192,199110,128,0,199381:0:0:0:0:
448,192,199110,128,0,199381:0:0:0:0:
192,192,199201,128,0,199381:0:0:0:0:
64,192,199291,128,0,199381:0:0:0:0:
192,192,199472,128,0,199653:0:0:0:0:
320,192,199472,128,0,199743:0:0:0:0:
64,192,199653,128,0,199743:0:0:0:0:
192,192,199743,128,0,199833:0:0:0:0:
320,192,199833,128,0,200104:0:0:0:0:
448,192,199833,128,0,200014:0:0:0:0:
64,192,199924,128,0,200104:0:0:0:0:
192,192,200014,128,0,200104:0:0:0:0:
448,192,200104,128,0,200195:0:0:0:0:
64,192,200195,128,0,200375:0:0:0:0:
320,192,200255,1,0,0:0:0:0:
448,192,200285,1,0,0:0:0:0:
192,192,200375,128,0,200556:0:0:0:0:
320,192,200466,128,0,200556:0:0:0:0:
64,192,200556,128,0,200827:0:0:0:0:
448,192,200556,128,0,200827:0:0:0:0:
320,192,200646,128,0,200827:0:0:0:0:
192,192,200737,128,0,200827:0:0:0:0:
320,192,200918,128,0,201189:0:0:0:0:
448,192,200918,128,0,201189:0:0:0:0:
64,192,201098,128,0,201189:0:0:0:0:
192,192,201279,128,0,201550:0:0:0:0:
320,192,201279,128,0,201550:0:0:0:0:
448,192,201460,128,0,201550:0:0:0:0:
64,192,201640,128,0,201731:0:0:0:0:
192,192,201640,128,0,201821:0:0:0:0:
320,192,201731,128,0,201912:0:0:0:0:
64,192,201821,128,0,201912:0:0:0:0:
448,192,201821,128,0,202002:0:0:0:0:
192,192,201912,128,0,202002:0:0:0:0:
64,192,202002,128,0,202273:0:0:0:0:
320,192,202002,128,0,202092:0:0:0:0:
448,192,202092,128,0,202273:0:0:0:0:
320,192,202183,128,0,202273:0:0:0:0:
192,192,202273,128,0,202363:0:0:0:0:
64,192,202363,128,0,202634:0:0:0:0:
448,192,202363,128,0,202634:0:0:0:0:
320,192,202454,128,0,202544:0:0:0:0:
192,192,202544,128,0,202634:0:0:0:0:
320,192,202634,128,0,202725:0:0:0:0:
64,192,202725,128,0,202906:0:0:0:0:
448,192,202725,128,0,202996:0:0:0:0:
192,192,202815,128,0,202996:0:0:0:0:
320,192,202906,128,0,202996:0:0:0:0:
64,192,202996,128,0,203086:0:0:0:0:
320,192,203086,128,0,203177:0:0:0:0:
448,192,203086,128,0,203177:0:0:0:0:
64,192,203177,128,0,203267:0:0:0:0:
192,192,203177,128,0,203267:0:0:0:0:
320,192,203267,128,0,203357:0:0:0:0:
448,192,203267,128,0,203357:0:0:0:0:
64,192,203357,128,0,203448:0:0:0:0:
192,192,203357,128,0,203448:0:0:0:0:
448,192,203448,128,0,203538:0:0:0:0:
320,192,203493,128,0,203583:0:0:0:0:
192,192,203538,128,0,203628:0:0:0:0:
64,192,203583,128,0,203674:0:0:0:0:
448,192,203628,128,0,203719:0:0:0:0:
320,192,203674,128,0,203764:0:0:0:0:
192,192,203719,128,0,203809:0:0:0:0:
64,192,203764,128,0,203854:0:0:0:0:
320,192,203809,128,0,204080:0:0:0:0:
448,192,203809,128,0,204080:0:0:0:0:
192,192,203990,128,0,204080:0:0:0:0:
64,192,204171,128,0,204442:0:0:0:0:
448,192,204171,128,0,204442:0:0:0:0:
192,192,204351,128,0,204442:0:0:0:0:
320,192,204532,128,0,204803:0:0:0:0:
448,192,204532,128,0,204622:0:0:0:0:
192,192,204622,128,0,204803:0:0:0:0:
64,192,204713,128,0,204803:0:0:0:0:
448,192,204713,128,0,204803:0:0:0:0:
192,192,204893,128,0,205165:0:0:0:0:
320,192,204893,128,0,205165:0:0:0:0:
64,192,205074,128,0,205165:0:0:0:0:
192,192,205255,128,0,205526:0:0:0:0:
320,192,205255,128,0,205526:0:0:0:0:
448,192,205436,128,0,205526:0:0:0:0:
64,192,205616,128,0,205887:0:0:0:0:
192,192,205616,128,0,205887:0:0:0:0:
320,192,205797,128,0,205887:0:0:0:0:
64,192,205978,128,0,206249:0:0:0:0:
448,192,205978,128,0,206068:0:0:0:0:
192,192,206068,128,0,206249:0:0:0:0:
320,192,206159,128,0,206249:0:0:0:0:
448,192,206159,128,0,206249:0:0:0:0:
320,192,206339,128,0,206520:0:0:0:0:
64,192,206339,128,0,206520:0:0:0:0:
64,192,206701,128,0,206881:0:0:0:0:
448,192,206701,128,0,206881:0:0:0:0:
192,192,206791,128,0,206972:0:0:0:0:
320,192,206881,128,0,207062:0:0:0:0:
64,192,206972,128,0,207153:0:0:0:0:
192,192,207062,128,0,207243:0:0:0:0:
448,192,207062,128,0,207243:0:0:0:0:
320,192,207153,128,0,207333:0:0:0:0:
64,192,207243,128,0,207333:0:0:0:0:
448,192,207333,128,0,207424:0:0:0:0:
64,192,207424,128,0,207604:0:0:0:0:
192,192,207424,128,0,207514:0:0:0:0:
448,192,207514,128,0,207695:0:0:0:0:
320,192,207604,128,0,207695:0:0:0:0:
192,192,207604,128,0,207695:0:0:0:0:
64,192,207695,128,0,207785:0:0:0:0:
320,192,207785,128,0,208056:0:0:0:0:
448,192,207785,128,0,208056:0:0:0:0:
192,192,207875,128,0,208056:0:0:0:0:
64,192,207966,128,0,208056:0:0:0:0:
192,192,208146,128,0,208418:0:0:0:0:
448,192,208146,128,0,208418:0:0:0:0:
64,192,208327,128,0,208418:0:0:0:0:
192,192,208508,128,0,208779:0:0:0:0:
448,192,208508,128,0,208779:0:0:0:0:
320,192,208689,128,0,208779:0:0:0:0:
64,192,208869,128,0,209140:0:0:0:0:
192,192,208869,128,0,208960:0:0:0:0:
448,192,208960,128,0,209140:0:0:0:0:
192,192,209050,128,0,209140:0:0:0:0:
320,192,209050,128,0,209140:0:0:0:0:
64,192,209231,128,0,209502:0:0:0:0:
448,192,209231,128,0,209502:0:0:0:0:
192,192,209412,128,0,209502:0:0:0:0:
320,192,209592,128,0,209863:0:0:0:0:
448,192,209592,128,0,209863:0:0:0:0:
192,192,209773,128,0,209863:0:0:0:0:
64,192,209954,128,0,210225:0:0:0:0:
448,192,209954,128,0,210225:0:0:0:0:
320,192,210134,128,0,210225:0:0:0:0:
64,192,210315,128,0,210406:0:0:0:0:
448,192,210315,128,0,210586:0:0:0:0:
192,192,210406,128,0,210586:0:0:0:0:
64,192,210496,128,0,210586:0:0:0:0:
320,192,210496,128,0,210586:0:0:0:0:
192,192,210677,128,0,210948:0:0:0:0:
448,192,210677,128,0,210948:0:0:0:0:
320,192,210857,128,0,211219:0:0:0:0:
64,192,211038,128,0,211309:0:0:0:0:
192,192,211038,128,0,211219:0:0:0:0:
448,192,211219,128,0,211309:0:0:0:0:
320,192,211309,128,0,211399:0:0:0:0:
448,192,211399,128,0,211671:0:0:0:0:
192,192,211399,128,0,211580:0:0:0:0:
64,192,211490,128,0,211671:0:0:0:0:
320,192,211580,128,0,211671:0:0:0:0:
192,192,211671,128,0,211761:0:0:0:0:
448,192,211761,128,0,212032:0:0:0:0:
64,192,211761,128,0,211851:0:0:0:0:
192,192,211851,128,0,212032:0:0:0:0:
320,192,211942,128,0,212032:0:0:0:0:
64,192,211942,128,0,212032:0:0:0:0:
64,192,212122,128,0,212303:0:0:0:0:
320,192,212122,128,0,212303:0:0:0:0:
64,192,212484,128,0,212665:0:0:0:0:
192,192,212484,128,0,212665:0:0:0:0:
320,192,212484,128,0,212574:0:0:0:0:
448,192,212665,128,0,212755:0:0:0:0:
320,192,212755,128,0,212845:0:0:0:0:
64,192,212845,128,0,212936:0:0:0:0:
192,192,212845,128,0,213026:0:0:0:0:
448,192,212845,128,0,213026:0:0:0:0:
64,192,213026,128,0,213116:0:0:0:0:
192,192,213116,128,0,213207:0:0:0:0:
64,192,213207,128,0,213478:0:0:0:0:
320,192,213207,128,0,213297:0:0:0:0:
448,192,213207,128,0,213387:0:0:0:0:
192,192,213297,128,0,213478:0:0:0:0:
320,192,213387,128,0,213478:0:0:0:0:
448,192,213478,128,0,213568:0:0:0:0:
64,192,213568,128,0,213659:0:0:0:0:
192,192,213568,128,0,213659:0:0:0:0:
448,192,213749,128,0,214020:0:0:0:0:
192,192,213749,128,0,213839:0:0:0:0:
320,192,213749,128,0,213930:0:0:0:0:
192,192,214110,128,0,214291:0:0:0:0:
320,192,214201,128,0,214291:0:0:0:0:
64,192,214291,128,0,214381:0:0:0:0:
448,192,214291,128,0,214472:0:0:0:0:
320,192,214381,128,0,214562:0:0:0:0:
64,192,214472,128,0,214562:0:0:0:0:
192,192,214472,128,0,214562:0:0:0:0:
448,192,214562,128,0,214653:0:0:0:0:
64,192,214653,128,0,214743:0:0:0:0:
192,192,214698,128,0,214788:0:0:0:0:
320,192,214743,128,0,214833:0:0:0:0:
448,192,214788,128,0,214878:0:0:0:0:
192,192,214833,128,0,214924:0:0:0:0:
64,192,214878,128,0,214969:0:0:0:0:
320,192,214924,128,0,215014:0:0:0:0:
192,192,214969,128,0,215059:0:0:0:0:
448,192,215014,128,0,215104:0:0:0:0:
320,192,215059,128,0,215149:0:0:0:0:
192,192,215104,128,0,215195:0:0:0:0:
64,192,215149,128,0,215240:0:0:0:0:
320,192,215195,128,0,215285:0:0:0:0:
448,192,215240,128,0,215330:0:0:0:0:
192,192,215285,128,0,215375:0:0:0:0:
320,192,215330,128,0,215421:0:0:0:0:
64,192,215375,5,0,0:0:0:0:
64,192,215737,128,2,216008:0:0:0:0:
64,192,216098,128,2,216731:0:0:0:0:
64,192,216821,128,2,216912:0:0:0:0:
192,192,217183,128,2,217273:0:0:0:0:
320,192,217544,128,2,217634:0:0:0:0:
448,192,217906,128,2,217996:0:0:0:0:
320,192,218267,128,2,218357:0:0:0:0:
192,192,218628,128,2,218719:0:0:0:0:
64,192,218990,128,2,219080:0:0:0:0:
448,192,219351,128,2,219442:0:0:0:0:
192,192,219713,128,2,219803:0:0:0:0:
320,192,220074,128,2,220165:0:0:0:0:
192,192,220436,128,2,220526:0:0:0:0:
64,192,220797,128,2,220887:0:0:0:0:
320,192,221159,128,2,221249:0:0:0:0:
448,192,221520,128,2,221610:0:0:0:0:
320,192,221881,128,2,221972:0:0:0:0:
192,192,222243,128,2,222604:0:0:0:0:
64,192,222604,128,0,223418:0:0:0:0:
448,192,222604,128,2,222875:0:0:0:0:
192,192,222966,128,0,223056:0:0:0:0:
320,192,222966,128,2,223056:0:0:0:0:
320,192,223146,128,0,223237:0:0:0:0:
448,192,223146,128,2,223237:0:0:0:0:
64,192,223508,128,0,223779:0:0:0:0:
448,192,223508,128,2,223779:0:0:0:0:
64,192,223869,128,0,224140:0:0:0:0:
320,192,223869,128,2,224140:0:0:0:0:
64,192,224231,128,0,224502:0:0:0:0:
192,192,224231,128,2,224502:0:0:0:0:
64,192,224592,1,0,0:0:0:0:
192,192,224592,1,2,0:0:0:0:
320,192,224954,128,2,225225:0:0:0:0:
448,192,224954,128,0,225225:0:0:0:0:
448,192,225315,1,0,0:0:0:0:
64,192,225315,1,2,0:0:0:0:
64,192,225496,128,0,225948:0:0:0:0:
192,192,225496,128,0,225767:0:0:0:0:
448,192,225496,128,0,225767:0:0:0:0:
320,192,225677,128,0,226128:0:0:0:0:
192,192,225857,128,0,226671:0:0:0:0:
448,192,225857,128,0,226128:0:0:0:0:
64,192,226038,128,0,226309:0:0:0:0:
320,192,226219,128,0,226309:0:0:0:0:
448,192,226219,128,0,226309:0:0:0:0:
64,192,226399,128,0,226671:0:0:0:0:
448,192,226399,128,0,226671:0:0:0:0:
320,192,226399,128,0,227122:0:0:0:0:
64,192,226761,128,0,227213:0:0:0:0:
192,192,226761,128,0,227213:0:0:0:0:
448,192,226761,128,0,227032:0:0:0:0:
448,192,227122,1,0,0:0:0:0:
320,192,227213,5,0,0:0:0:0:
64,192,227303,1,0,0:0:0:0:
192,192,227303,1,0,0:0:0:0:
320,192,227393,1,0,0:0:0:0:
448,192,227484,1,0,0:0:0:0:
64,192,227484,1,0,0:0:0:0:
192,192,227574,1,0,0:0:0:0:
320,192,227665,128,0,227845:0:0:0:0:
448,192,227665,128,0,227755:0:0:0:0:
192,192,227755,128,0,227936:0:0:0:0:
64,192,227845,128,0,227936:0:0:0:0:
448,192,227845,128,0,228026:0:0:0:0:
320,192,227936,128,0,228116:0:0:0:0:
192,192,228026,128,0,228116:0:0:0:0:
64,192,228026,128,0,228207:0:0:0:0:
448,192,228116,128,0,228297:0:0:0:0:
320,192,228207,128,0,228297:0:0:0:0:
192,192,228207,128,0,228297:0:0:0:0:
64,192,228297,128,0,228387:0:0:0:0:
320,192,228387,1,0,0:0:0:0:
448,192,228387,1,0,0:0:0:0:
192,192,228387,128,0,228749:0:0:0:0:
64,192,228749,128,8,229020:0:0:0:0:
320,192,228749,128,4,228839:0:0:0:0:
448,192,228749,128,8,228930:0:0:0:0:
192,192,228839,128,0,229020:0:0:0:0:
320,192,228930,128,0,229110:0:0:0:0:
448,192,229020,128,0,229110:0:0:0:0:
64,192,229110,128,0,229381:0:0:0:0:
192,192,229110,128,0,229291:0:0:0:0:
320,192,229201,128,0,229381:0:0:0:0:
448,192,229291,128,0,229381:0:0:0:0:
192,192,229381,128,0,229472:0:0:0:0:
64,192,229472,128,0,229653:0:0:0:0:
448,192,229472,128,0,229743:0:0:0:0:
320,192,229472,128,0,229562:0:0:0:0:
192,192,229562,128,0,229743:0:0:0:0:
320,192,229653,128,0,229743:0:0:0:0:
64,192,229743,128,0,229833:0:0:0:0:
320,192,229833,128,0,230014:0:0:0:0:
448,192,229833,128,0,230104:0:0:0:0:
192,192,229924,128,0,230104:0:0:0:0:
64,192,230014,128,0,230104:0:0:0:0:
320,192,230104,128,0,230195:0:0:0:0:
192,192,230195,128,0,230466:0:0:0:0:
448,192,230195,128,0,230375:0:0:0:0:
64,192,230195,128,0,230285:0:0:0:0:
320,192,230285,128,0,230466:0:0:0:0:
64,192,230375,128,0,230466:0:0:0:0:
448,192,230466,128,0,230556:0:0:0:0:
64,192,230556,128,0,230827:0:0:0:0:
192,192,230556,128,0,230737:0:0:0:0:
320,192,230646,128,0,230827:0:0:0:0:
448,192,230737,128,0,230827:0:0:0:0:
192,192,230827,128,0,230918:0:0:0:0:
64,192,230918,128,0,231098:0:0:0:0:
448,192,230918,128,0,231189:0:0:0:0:
320,192,230918,128,0,231008:0:0:0:0:
192,192,231008,128,0,231189:0:0:0:0:
320,192,231098,128,0,231189:0:0:0:0:
64,192,231189,128,0,231279:0:0:0:0:
320,192,231279,128,0,231460:0:0:0:0:
448,192,231279,128,0,231550:0:0:0:0:
192,192,231369,128,0,231550:0:0:0:0:
64,192,231460,128,0,231550:0:0:0:0:
320,192,231550,128,0,231640:0:0:0:0:
192,192,231640,128,0,231912:0:0:0:0:
448,192,231640,128,0,231821:0:0:0:0:
64,192,231640,128,0,231731:0:0:0:0:
320,192,231731,128,0,231912:0:0:0:0:
64,192,231821,128,0,231912:0:0:0:0:
448,192,231912,128,0,232002:0:0:0:0:
64,192,232002,128,0,232273:0:0:0:0:
192,192,232002,128,0,232273:0:0:0:0:
320,192,232183,128,0,232273:0:0:0:0:
448,192,232183,128,0,232273:0:0:0:0:
192,192,232363,128,0,232454:0:0:0:0:
320,192,232363,128,0,232454:0:0:0:0:
64,192,232544,128,0,232815:0:0:0:0:
192,192,232544,128,0,232815:0:0:0:0:
448,192,232544,128,0,232815:0:0:0:0:
64,192,232906,128,0,233177:0:0:0:0:
192,192,232906,128,0,233177:0:0:0:0:
320,192,233086,128,0,233177:0:0:0:0:
448,192,233086,128,0,233177:0:0:0:0:
64,192,233267,128,0,233538:0:0:0:0:
192,192,233267,128,0,233538:0:0:0:0:
320,192,233267,128,0,233538:0:0:0:0:
320,192,233628,128,0,233719:0:0:0:0:
192,192,233719,128,0,233809:0:0:0:0:
448,192,233809,128,0,234080:0:0:0:0:
320,192,233899,128,0,234080:0:0:0:0:
64,192,233990,128,0,234080:0:0:0:0:
192,192,233990,128,0,234080:0:0:0:0:
192,192,234171,128,0,234351:0:0:0:0:
320,192,234171,128,0,234351:0:0:0:0:
64,192,234171,128,0,234351:0:0:0:0:
448,192,234351,128,0,234532:0:0:0:0:
64,192,234532,128,0,234622:0:0:0:0:
192,192,234532,128,0,234622:0:0:0:0:
320,192,234622,128,0,234803:0:0:0:0:
192,192,234713,128,0,234803:0:0:0:0:
448,192,234803,128,0,234984:0:0:0:0:
64,192,234893,128,0,234984:0:0:0:0:
192,192,234893,128,0,234984:0:0:0:0:
320,192,234984,128,0,235165:0:0:0:0:
64,192,235074,128,0,235165:0:0:0:0:
448,192,235165,128,0,235345:0:0:0:0:
64,192,235255,128,0,235345:0:0:0:0:
192,192,235255,128,0,235345:0:0:0:0:
320,192,235345,128,0,235526:0:0:0:0:
64,192,235436,128,0,235526:0:0:0:0:
192,192,235526,128,0,235616:0:0:0:0:
448,192,235616,128,0,235707:0:0:0:0:
320,192,235616,128,0,235707:0:0:0:0:
64,192,235707,128,0,235887:0:0:0:0:
448,192,235797,128,0,235887:0:0:0:0:
192,192,235887,128,0,236068:0:0:0:0:
320,192,235978,128,0,236068:0:0:0:0:
448,192,235978,128,0,236068:0:0:0:0:
64,192,236068,128,0,236249:0:0:0:0:
320,192,236159,128,0,236249:0:0:0:0:
192,192,236249,128,0,236430:0:0:0:0:
320,192,236339,128,0,236430:0:0:0:0:
448,192,236339,128,0,236430:0:0:0:0:
64,192,236430,128,0,236610:0:0:0:0:
448,192,236520,128,0,236610:0:0:0:0:
192,192,236610,128,0,236791:0:0:0:0:
320,192,236701,128,0,236791:0:0:0:0:
448,192,236701,128,0,236791:0:0:0:0:
64,192,236791,128,0,236972:0:0:0:0:
320,192,236881,128,0,236972:0:0:0:0:
192,192,236972,128,0,237062:0:0:0:0:
320,192,237062,128,0,237243:0:0:0:0:
448,192,237062,128,0,237243:0:0:0:0:
64,192,237153,128,0,237243:0:0:0:0:
192,192,237243,128,0,237333:0:0:0:0:
64,192,237333,128,0,237424:0:0:0:0:
320,192,237424,128,0,237514:0:0:0:0:
192,192,237424,128,0,237604:0:0:0:0:
448,192,237514,128,0,237604:0:0:0:0:
320,192,237604,128,0,237695:0:0:0:0:
448,192,237695,128,0,237785:0:0:0:0:
64,192,237785,128,0,237966:0:0:0:0:
192,192,237785,128,0,237966:0:0:0:0:
320,192,237875,128,0,237966:0:0:0:0:
448,192,237966,128,0,238056:0:0:0:0:
320,192,238056,128,0,238146:0:0:0:0:
192,192,238146,128,0,238237:0:0:0:0:
448,192,238146,128,0,238327:0:0:0:0:
64,192,238237,128,0,238418:0:0:0:0:
192,192,238327,128,0,238418:0:0:0:0:
320,192,238418,128,0,238508:0:0:0:0:
64,192,238508,128,0,238598:0:0:0:0:
192,192,238508,128,0,238598:0:0:0:0:
448,192,238508,128,0,238779:0:0:0:0:
64,192,238689,128,0,238779:0:0:0:0:
192,192,238689,128,0,238779:0:0:0:0:
320,192,238869,128,0,238960:0:0:0:0:
448,192,238869,128,0,238960:0:0:0:0:
64,192,239050,128,0,239321:0:0:0:0:
320,192,239050,128,0,239321:0:0:0:0:
448,192,239050,128,0,239321:0:0:0:0:
192,192,239231,128,0,239321:0:0:0:0:
64,192,239412,128,0,239683:0:0:0:0:
192,192,239412,128,0,239683:0:0:0:0:
448,192,239412,128,0,239683:0:0:0:0:
320,192,239592,128,0,239683:0:0:0:0:
448,192,239773,128,0,241219:0:0:0:0:
64,192,239773,128,0,239863:0:0:0:0:
192,192,239773,128,0,239863:0:0:0:0:
320,192,239954,128,0,240134:0:0:0:0:
64,192,240134,128,0,240225:0:0:0:0:
192,192,240134,128,0,240225:0:0:0:0:
64,192,240315,128,0,240406:0:0:0:0:
320,192,240315,128,0,240406:0:0:0:0:
64,192,240586,1,0,0:0:0:0:
192,192,240586,1,0,0:0:0:0:
64,192,240677,128,0,240767:0:0:0:0:
192,192,240677,128,0,240767:0:0:0:0:
192,192,240857,128,0,241038:0:0:0:0:
320,192,240857,128,0,241038:0:0:0:0:
64,192,241038,128,0,241309:0:0:0:0:
192,192,241128,128,0,241309:0:0:0:0:
320,192,241219,128,0,241309:0:0:0:0:
448,192,241309,1,0,0:0:0:0:
64,192,241399,128,0,242032:0:0:0:0:
320,192,241399,128,0,241671:0:0:0:0:
192,192,241399,128,0,241671:0:0:0:0:
192,192,241761,128,0,241851:0:0:0:0:
448,192,241761,128,0,241851:0:0:0:0:
320,192,241942,128,0,242122:0:0:0:0:
448,192,242122,1,0,0:0:0:0:
64,192,242122,128,0,242393:0:0:0:0:
320,192,242213,1,0,0:0:0:0:
192,192,242303,128,0,242393:0:0:0:0:
64,192,242484,128,0,242574:0:0:0:0:
320,192,242484,128,0,242574:0:0:0:0:
448,192,242665,128,0,243116:0:0:0:0:
192,192,242665,128,0,242755:0:0:0:0:
64,192,242845,128,0,242936:0:0:0:0:
320,192,242845,128,0,242936:0:0:0:0:
192,192,243026,128,0,243207:0:0:0:0:
64,192,243207,1,0,0:0:0:0:
448,192,243207,128,0,243478:0:0:0:0:
192,192,243297,1,0,0:0:0:0:
320,192,243387,128,0,243478:0:0:0:0:
448,192,243568,1,0,0:0:0:0:
64,192,243568,128,0,243839:0:0:0:0:
320,192,243659,1,0,0:0:0:0:
192,192,243749,128,0,243839:0:0:0:0:
64,192,243930,128,0,244020:0:0:0:0:
448,192,243930,128,0,244020:0:0:0:0:
192,192,244020,128,0,244110:0:0:0:0:
320,192,244110,128,0,244201:0:0:0:0:
448,192,244110,128,0,244201:0:0:0:0:
64,192,244201,128,0,244291:0:0:0:0:
448,192,244291,128,0,244924:0:0:0:0:
192,192,244291,128,0,244562:0:0:0:0:
320,192,244291,128,0,244562:0:0:0:0:
64,192,244653,128,0,244743:0:0:0:0:
320,192,244653,128,0,244743:0:0:0:0:
192,192,244833,128,0,245014:0:0:0:0:
64,192,245014,1,0,0:0:0:0:
448,192,245014,128,0,245285:0:0:0:0:
192,192,245104,1,0,0:0:0:0:
320,192,245195,128,0,245285:0:0:0:0:
192,192,245375,128,0,245466:0:0:0:0:
448,192,245375,128,0,245466:0:0:0:0:
64,192,245556,128,0,246008:0:0:0:0:
320,192,245556,128,0,245646:0:0:0:0:
192,192,245737,128,0,245827:0:0:0:0:
448,192,245737,128,0,245827:0:0:0:0:
320,192,245918,128,0,246098:0:0:0:0:
448,192,246098,1,0,0:0:0:0:
64,192,246098,128,0,246369:0:0:0:0:
320,192,246189,1,0,0:0:0:0:
192,192,246279,128,0,246369:0:0:0:0:
64,192,246460,1,0,0:0:0:0:
448,192,246460,128,0,246731:0:0:0:0:
192,192,246550,1,0,0:0:0:0:
320,192,246640,128,0,246731:0:0:0:0:
448,192,246821,128,0,247002:0:0:0:0:
64,192,246821,128,0,246912:0:0:0:0:
320,192,246912,128,0,247092:0:0:0:0:
64,192,247002,128,0,247092:0:0:0:0:
192,192,247002,128,0,247092:0:0:0:0:
448,192,247092,128,0,247183:0:0:0:0:
64,192,247183,128,0,247815:0:0:0:0:
320,192,247183,128,0,247454:0:0:0:0:
192,192,247183,128,0,247454:0:0:0:0:
192,192,247544,128,0,247634:0:0:0:0:
448,192,247544,128,0,247634:0:0:0:0:
320,192,247725,128,0,247906:0:0:0:0:
64,192,247906,128,0,248177:0:0:0:0:
448,192,247906,1,0,0:0:0:0:
320,192,247996,1,0,0:0:0:0:
192,192,248086,128,0,248177:0:0:0:0:
64,192,248267,128,0,248357:0:0:0:0:
320,192,248267,128,0,248357:0:0:0:0:
448,192,248448,128,0,248899:0:0:0:0:
192,192,248448,128,0,248538:0:0:0:0:
64,192,248628,128,0,248719:0:0:0:0:
320,192,248628,128,0,248719:0:0:0:0:
192,192,248809,128,0,248990:0:0:0:0:
64,192,248990,1,0,0:0:0:0:
448,192,248990,128,0,249261:0:0:0:0:
192,192,249080,1,0,0:0:0:0:
320,192,249171,128,0,249261:0:0:0:0:
448,192,249351,1,0,0:0:0:0:
64,192,249351,128,0,249622:0:0:0:0:
320,192,249442,1,0,0:0:0:0:
192,192,249532,128,0,249622:0:0:0:0:
64,192,249713,128,0,249984:0:0:0:0:
448,192,249713,128,0,249984:0:0:0:0:
192,192,249893,128,0,250165:0:0:0:0:
320,192,249893,128,0,250165:0:0:0:0:
64,192,250074,128,0,250345:0:0:0:0:
448,192,250074,128,0,250345:0:0:0:0:
192,192,250255,128,0,250526:0:0:0:0:
320,192,250255,128,0,250345:0:0:0:0:
64,192,250436,128,0,250526:0:0:0:0:
320,192,250436,128,0,250887:0:0:0:0:
448,192,250436,128,0,250526:0:0:0:0:
192,192,250616,128,0,250887:0:0:0:0:
64,192,250616,128,0,250887:0:0:0:0:
448,192,250616,128,0,250887:0:0:0:0:
64,192,250978,128,0,251249:0:0:0:0:
192,192,250978,128,0,251249:0:0:0:0:
320,192,250978,128,0,251249:0:0:0:0:
448,192,250978,128,0,251249:0:0:0:0:
192,192,251339,1,0,0:0:0:0:
320,192,251339,1,0,0:0:0:0:
64,192,251339,1,0,0:0:0:0:
448,192,251339,1,0,0:0:0:0:
64,192,251520,1,0,0:0:0:0:
448,192,251520,1,0,0:0:0:0:
64,192,251701,1,0,0:0:0:0:
448,192,251701,1,0,0:0:0:0:
64,192,251881,1,0,0:0:0:0:
448,192,251881,1,0,0:0:0:0:
64,192,252062,1,0,0:0:0:0:
448,192,252062,1,0,0:0:0:0:
64,192,252243,1,0,0:0:0:0:
448,192,252243,1,0,0:0:0:0:
192,192,252288,1,0,0:0:0:0:
320,192,252333,1,0,0:0:0:0:
448,192,252378,1,0,0:0:0:0:
64,192,252424,1,0,0:0:0:0:
192,192,252469,1,0,0:0:0:0:
320,192,252514,1,0,0:0:0:0:
448,192,252559,1,0,0:0:0:0:
64,192,252604,1,0,0:0:0:0:
192,192,252604,1,0,0:0:0:0:
320,192,252695,1,0,0:0:0:0:
448,192,252695,1,0,0:0:0:0:
192,192,252785,1,0,0:0:0:0:
64,192,252785,1,0,0:0:0:0:
320,192,252875,1,0,0:0:0:0:
448,192,252875,1,0,0:0:0:0:
64,192,252966,1,0,0:0:0:0:
192,192,252966,1,0,0:0:0:0:
448,192,252966,1,0,0:0:0:0:
