osu file format v14

[General]
AudioFilename: audio (3).mp3
AudioLeadIn: 0
PreviewTime: 215779
Countdown: 0
SampleSet: Soft
StackLeniency: 0.7
Mode: 0
LetterboxInBreaks: 0
WidescreenStoryboard: 0

[Editor]
Bookmarks: 78016,80908,83618,95365,192052,203799,216811,228739,241389,257112
DistanceSpacing: 0.3
BeatDivisor: 4
GridSize: 32
TimelineZoom: 3.099999

[Metadata]
Title:Eternal Star
TitleUnicode:Eternal Star
Artist:Asaka
ArtistUnicode:亜咲花
Creator:Cami
Version:Rinne
Source:ISLAND
Tags:frontwing feel. front wing アイランド anime ending
BeatmapID:2002273
BeatmapSetID:956424

[Difficulty]
HPDrainRate:5
CircleSize:4.2
OverallDifficulty:7
ApproachRate:8.6
SliderMultiplier:1.4
SliderTickRate:1

[Events]
//Background and Video events
0,0,"BG.jpg",0,0
//Break Periods
//Storyboard Layer 0 (Background)
//Storyboard Layer 1 (Fail)
//Storyboard Layer 2 (Pass)
//Storyboard Layer 3 (Foreground)
//Storyboard Sound Samples

[TimingPoints]
1442,361.44578313253,4,2,1,60,1,0
10116,-83.3333333333333,4,2,1,60,0,0
11381,-125,4,2,1,60,0,0
13008,-125,4,2,1,44,0,0
22225,-111.111111111111,4,2,1,48,0,0
22586,-100,4,2,1,52,0,0
22948,-100,4,2,1,56,0,0
23128,-100,4,2,1,60,0,0
24574,-111.111111111111,4,2,1,50,0,0
33249,-100,4,2,1,60,0,0
36140,-108.695652173913,4,2,1,50,0,0
46261,-108.695652173913,4,2,1,55,0,0
47707,-117.647058823529,4,2,1,50,0,0
53490,-100,4,2,1,55,0,0
56381,-100,4,2,1,60,0,0
58550,-90.9090909090909,4,2,1,70,0,0
60357,-100,4,2,1,5,0,0
60719,-90.9090909090909,4,2,1,75,0,1
78068,-125,4,2,1,55,0,0
80960,-111.111111111111,4,2,1,66,0,1
82405,-100,4,2,1,60,0,1
83670,-100,4,2,1,50,0,0
83851,-100,4,2,1,60,0,0
92526,-83.3333333333333,4,2,1,60,0,0
93791,-125,4,2,1,60,0,0
95417,-117.647058823529,4,2,1,44,0,0
104092,-117.647058823529,4,2,1,48,0,0
106080,-100,4,2,1,60,0,0
106984,-111.111111111111,4,2,1,50,0,0
115658,-99.9999999999999,4,2,1,60,0,0
118550,-108.695652173913,4,2,1,50,0,0
128670,-108.695652173913,4,2,1,55,0,0
130116,-117.647058823529,4,2,1,50,0,0
135899,-125,4,2,1,40,0,0
138791,-100,4,2,1,60,0,0
140960,-90.9090909090909,4,2,1,70,0,0
142767,-100,4,2,1,5,0,0
143128,-90.9090909090909,4,2,1,75,0,1
160478,-125,4,2,1,55,0,0
163369,-111.111111111111,4,2,1,66,0,1
164815,-100,4,2,1,60,0,1
166080,-100,4,2,1,60,0,0
186502,-95.2380952380952,4,2,1,65,0,0
191020,-95.2380952380952,4,2,1,70,0,0
192104,-85.1063829787234,4,2,1,60,0,0
192285,-90.9090909090909,4,2,1,60,0,0
203851,-90.9090909090909,4,2,1,65,0,0
212526,-83.3333333333333,4,2,1,70,0,0
215056,-83.3333333333333,4,2,1,75,0,0
215237,-83.3333333333333,4,2,1,80,0,0
216863,-250.000000000001,4,2,1,35,0,0
222646,-153.846153846154,4,2,1,40,0,0
225538,-100,4,2,1,60,0,0
227707,-100,4,2,1,70,0,0
228429,-100,4,2,1,50,0,0
228701,-100,4,2,1,5,0,0
228791,-83.3333333333333,4,2,1,80,0,1
229514,-90.9090909090909,4,2,1,80,0,1
234213,-100,4,2,1,80,0,1
237104,-90.9090909090909,4,2,1,80,0,1
238550,-90.9090909090909,4,2,1,70,0,1
239815,-133.333333333333,4,2,1,60,0,0
240357,-100,4,2,1,60,0,0
250116,-83.3333333333333,4,2,1,60,0,0
251381,-125,4,2,1,60,0,0
257164,-100,4,2,1,25,0,0

[Colours]
Combo1 : 112,108,225
Combo2 : 194,207,218
Combo3 : 147,130,215
Combo4 : 214,207,184

[HitObjects]
171,170,176,5,8,0:3:0:0:
275,255,357,2,0,L|181:263,1,70,8|0,0:0|0:0,0:0:0:0:
178,282,628,1,8,0:0:0:0:
178,282,719,1,8,1:2:0:0:
234,334,899,1,0,1:0:0:0:
70,253,1080,5,10,0:0:0:0:
83,221,1170,1,10,0:0:0:0:
106,194,1261,1,2,1:2:0:0:
137,177,1351,1,10,0:0:0:0:
171,170,1442,6,0,B|137:196|137:196|71:182|45:148,1,140,6|10,1:2|0:0,0:0:0:0:
240,107,1984,2,0,L|257:195,1,70,2|0,0:0|1:0,0:0:0:0:
261,206,2255,1,8,0:0:0:0:
261,206,2345,1,2,0:0:0:0:
162,92,2526,1,10,0:0:0:0:
339,59,2707,6,0,L|322:147,1,70,2|0,0:0|1:0,0:0:0:0:
337,252,3068,2,0,L|378:195,1,70,2|8,0:0|0:0,0:0:0:0:
508,207,3429,2,0,L|446:241,1,70,2|0,0:0|1:0,0:0:0:0:
440,272,3701,1,8,0:0:0:0:
440,272,3791,1,2,0:0:0:0:
435,130,3972,2,0,P|425:94|384:23,1,105,10|0,0:0|0:0,0:0:0:0:
390,2,4333,6,0,B|331:11|331:11|305:34|305:34|234:41,1,140,6|10,1:2|0:0,0:0:0:0:
162,92,4875,2,0,P|148:141|151:182,1,70,2|0,0:0|1:0,0:0:0:0:
168,190,5146,1,8,0:0:0:0:
168,190,5237,1,2,0:0:0:0:
76,85,5417,1,10,0:0:0:0:
238,144,5598,6,0,P|249:202|179:272,1,140,2|2,0:0|0:0,0:0:0:0:
97,335,6140,2,0,L|175:347,1,70,8|0,0:0|0:0,0:0:0:0:
284,289,6502,2,0,L|272:241,2,35,0|8|0,1:0|0:0|0:0,0:0:0:0:
394,370,6863,1,10,0:0:0:0:
411,340,6954,1,2,0:0:0:0:
423,306,7044,1,2,0:0:0:0:
426,272,7134,1,2,0:0:0:0:
423,237,7225,6,0,B|397:148|448:180|425:87,1,140,6|8,1:2|0:0,0:0:0:0:
314,56,7767,2,0,L|337:137,1,70,2|0,0:0|1:0,0:0:0:0:
325,152,8038,1,8,0:0:0:0:
325,152,8128,1,2,0:0:0:0:
236,80,8309,1,10,0:0:0:0:
194,213,8490,6,0,L|282:220,1,70,2|0,0:0|1:0,0:0:0:0:
113,267,8851,2,0,L|189:310,1,70,2|8,0:0|0:0,0:0:0:0:
16,281,9213,2,0,L|67:352,1,70,2|0,0:0|1:0,0:0:0:0:
79,359,9484,1,8,0:0:0:0:
79,359,9574,1,2,0:0:0:0:
255,309,9755,5,10,1:2:0:0:
49,206,9935,1,2,0:0:0:0:
173,301,10116,6,0,B|214:298|233:271|214:281|248:242|318:246,1,125.999996154785,6|0,1:2|0:0,0:0:0:0:
320,266,10478,1,10,0:0:0:0:
379,107,10658,1,2,1:2:0:0:
158,227,11020,1,2,1:2:0:0:
432,357,11381,6,0,P|446:283|451:221,1,112,4|8,1:2|0:0,0:0:0:0:
408,184,11923,1,8,0:0:0:0:
408,184,12104,1,8,0:0:0:0:
252,286,12466,1,8,0:0:0:0:
252,286,12646,1,8,0:0:0:0:
192,235,12827,1,8,0:0:0:0:
192,235,12917,1,8,0:0:0:0:
192,235,13008,5,4,1:0:0:0:
275,100,13369,2,0,P|272:148|267:213,2,112,2|2|2,1:2|1:2|1:2,0:0:0:0:
200,122,14273,1,2,0:0:0:0:
320,158,14454,6,0,B|385:151|359:128|430:119,1,112,0|0,1:2|1:0,0:0:0:0:
424,120,15176,2,0,L|409:180,1,56,2|2,1:2|0:3,0:0:0:0:
347,293,15538,2,0,L|333:238,1,56,2|0,1:2|0:0,0:0:0:0:
230,201,15899,6,0,B|295:208|269:231|340:240,1,112,2|0,1:2|1:0,0:0:0:0:
230,277,16441,2,0,L|166:284,1,56,2|0,0:0|1:0,0:0:0:0:
79,217,16803,2,0,L|134:210,1,56,2|0,0:0|1:0,0:0:0:0:
230,201,17164,6,0,P|149:140|177:77,1,168,2|0,0:0|1:0,0:0:0:0:
164,89,18068,2,0,L|175:162,1,56,0|2,1:0|0:3,0:0:0:0:
85,65,18429,2,0,L|96:138,1,56,0|2,1:0|0:3,0:0:0:0:
6,43,18791,5,4,1:0:0:0:
6,43,19152,2,0,L|22:173,2,112,2|2|2,1:2|1:2|1:2,0:0:0:0:
85,65,20056,1,2,0:0:0:0:
18,154,20237,6,0,P|-9:201|2:257,1,112,0|0,1:0|1:0,0:0:0:0:
1,255,20960,2,0,L|71:247,1,56,2|2,1:2|0:3,0:0:0:0:
113,335,21321,2,0,L|43:327,1,56,2|0,1:2|0:0,0:0:0:0:
192,245,21682,6,0,L|203:315,1,56,2|0,1:2|3:0,0:0:0:0:
200,300,21954,1,0,3:0:0:0:
200,300,22044,2,0,L|246:311,1,28,2|0,3:2|3:0,0:0:0:0:
314,243,22225,1,2,3:2:0:0:
314,243,22315,1,0,3:0:0:0:
314,243,22405,2,0,L|268:253,1,31.4999990386963,0|0,1:2|3:0,0:0:0:0:
200,131,22586,1,0,3:0:0:0:
200,131,22676,1,0,3:0:0:0:
200,131,22767,2,0,L|239:145,1,35,0|0,1:2|3:0,0:0:0:0:
386,76,22948,2,0,L|345:92,1,35,8|8,0:2|0:0,0:0:0:0:
314,23,23128,6,0,B|334:68|334:68|302:187,1,140,6|0,1:2|0:0,0:0:0:0:
402,283,23670,2,0,B|392:260|392:260|408:201,1,70,6|0,1:2|1:0,0:0:0:0:
426,210,23941,1,0,3:0:0:0:
426,210,24032,1,2,3:2:0:0:
320,325,24213,5,12,1:2:0:0:
194,264,24393,1,10,0:0:0:0:
242,208,24574,6,0,P|240:262|240:341,1,125.999996154785,6|2,1:2|1:2,0:0:0:0:
317,237,25116,1,8,0:0:0:0:
242,208,25297,2,0,L|173:219,1,62.9999980773926,2|0,0:0|1:0,0:0:0:0:
99,345,25658,2,0,L|161:335,1,62.9999980773926,10|0,0:0|0:0,0:0:0:0:
34,252,26020,6,0,P|9:305|21:377,1,125.999996154785,2|2,1:2|0:0,0:0:0:0:
112,254,26562,1,8,0:0:0:0:
77,183,26743,2,0,L|14:173,1,62.9999980773926,2|0,0:0|1:0,0:0:0:0:
134,128,27104,2,0,L|196:137,1,62.9999980773926,10|0,0:0|1:0,0:0:0:0:
91,42,27466,6,0,L|233:62,1,125.999996154785,2|8,1:2|0:0,0:0:0:0:
361,76,28008,1,2,1:2:0:0:
196,137,28369,2,0,L|258:146,1,62.9999980773926,2|8,1:2|0:0,0:0:0:0:
357,227,28731,6,0,B|316:213|284:230|300:230|262:248|210:229,1,125.999996154785,6|0,1:2|1:0,0:0:0:0:
158,327,29273,2,0,P|192:318|233:315,1,62.9999980773926,10|0,0:0|0:0,0:0:0:0:
99,225,29634,2,0,P|67:221|37:213,1,62.9999980773926,2|0,1:2|1:0,0:0:0:0:
206,74,29996,2,0,L|191:159,1,62.9999980773926,10|0,0:0|1:0,0:0:0:0:
167,155,30267,1,0,3:0:0:0:
167,155,30357,5,6,1:2:0:0:
113,96,30538,1,2,0:0:0:0:
99,225,30719,2,0,L|109:287,1,62.9999980773926,10|0,0:0|0:0,0:0:0:0:
269,186,31080,2,0,L|279:123,1,62.9999980773926,2|0,1:2|1:0,0:0:0:0:
197,235,31441,1,10,0:0:0:0:
373,195,31622,6,0,L|349:61,1,125.999996154785,6|0,1:2|1:0,0:0:0:0:
443,119,32164,1,8,0:0:0:0:
319,253,32345,5,6,1:2:0:0:
430,57,32707,2,0,L|447:144,1,62.9999980773926,4|2,1:2|0:0,0:0:0:0:
509,76,33068,1,2,1:2:0:0:
455,265,33249,6,0,B|400:253|400:253|373:262|373:262|311:251,1,140,6|8,1:2|0:0,0:0:0:0:
266,100,33791,1,6,1:2:0:0:
195,334,34152,2,0,L|269:320,1,70,6|8,1:2|0:0,0:0:0:0:
96,243,34514,6,0,B|132:262|132:262|229:244,1,140,6|0,1:2|1:0,0:0:0:0:
283,194,34966,1,8,0:0:0:0:
283,194,35056,2,0,L|289:150,1,35,2|0,0:0|1:0,0:0:0:0:
165,39,35237,6,0,L|151:162,1,105,6|8,1:2|0:0,0:0:0:0:
149,178,35598,1,2,0:2:0:0:
82,59,35779,1,10,0:0:0:0:
245,104,35960,1,8,0:0:0:0:
245,104,36050,1,8,0:0:0:0:
245,104,36140,6,0,P|296:97|334:92,1,64.3999978381348,6|0,1:2|0:0,0:0:0:0:
378,133,36502,2,0,P|429:126|467:121,1,64.3999978381348,2|4,1:2|0:3,0:0:0:0:
486,202,36863,2,0,P|404:213|344:221,1,128.79999567627,2|8,1:2|0:0,0:0:0:0:
308,272,37405,1,2,0:0:0:0:
308,272,37496,1,0,0:0:0:0:
308,272,37586,5,4,1:2:0:0:
220,185,37767,2,0,P|225:244|226:263,1,64.3999978381348,2|0,0:2|1:0,0:0:0:0:
144,162,38128,2,0,P|149:221|150:240,1,64.3999978381348,2|0,0:2|1:0,0:0:0:0:
73,203,38490,1,2,0:0:0:0:
215,113,38670,2,0,L|289:119,1,64.3999978381348,8|0,0:0|0:0,0:0:0:0:
279,118,38941,1,0,0:0:0:0:
279,118,39032,6,0,L|302:47,1,64.3999978381348,6|0,1:2|0:0,0:0:0:0:
379,158,39393,2,0,L|358:218,1,64.3999978381348,2|4,1:2|0:3,0:0:0:0:
308,272,39755,2,0,P|359:259|428:309,1,128.79999567627,2|10,1:2|0:0,0:0:0:0:
265,347,40297,1,2,0:0:0:0:
265,347,40387,1,0,0:0:0:0:
265,347,40478,5,4,1:2:0:0:
277,194,40658,1,8,0:0:0:0:
308,272,40839,1,0,1:0:0:0:
199,214,41020,2,0,P|195:156|191:125,1,64.3999978381348,2|0,0:0|1:0,0:0:0:0:
152,295,41381,2,0,P|123:244|107:217,1,64.3999978381348,2|8,0:0|0:3,0:0:0:0:
120,238,41923,6,0,B|151:253|151:253|246:237,1,128.79999567627,6|0,1:2|1:0,0:0:0:0:
294,183,42466,1,4,0:3:0:0:
376,261,42646,2,0,P|368:306|363:349,1,64.3999978381348,2|0,1:2|0:0,0:0:0:0:
449,227,43008,2,0,P|453:195|459:163,1,64.3999978381348,8|0,0:2|0:0,0:0:0:0:
477,144,43279,1,2,0:3:0:0:
477,144,43369,5,4,1:2:0:0:
384,164,43550,1,8,0:0:0:0:
294,183,43731,2,0,P|284:148|275:119,1,64.3999978381348,0|4,1:0|0:3,0:0:0:0:
188,248,44092,2,0,P|198:217|207:187,1,64.3999978381348,2|4,1:2|0:3,0:0:0:0:
80,81,44454,2,0,L|87:169,1,64.3999978381348,10|0,0:0|0:0,0:0:0:0:
88,169,44725,1,0,0:0:0:0:
88,169,44815,6,0,P|77:218|73:241,1,64.3999978381348,6|2,1:2|0:3,0:0:0:0:
123,296,45176,1,0,1:0:0:0:
207,187,45357,1,10,0:0:0:0:
258,252,45538,2,0,P|209:260|186:260,1,64.3999978381348,2|4,1:2|0:3,0:0:0:0:
127,300,45899,1,0,1:0:0:0:
127,300,46261,5,6,1:2:0:0:
349,195,46502,1,8,0:3:0:0:
148,56,46743,1,4,0:3:0:0:
113,175,46984,5,6,1:2:0:0:
248,268,47225,1,8,0:3:0:0:
261,106,47466,1,4,0:3:0:0:
209,185,47707,6,0,P|215:238|216:262,1,59.5000011348725,6|0,1:2|1:0,0:0:0:0:
185,313,48068,1,2,0:0:0:0:
131,230,48249,1,2,1:2:0:0:
262,306,48429,2,0,P|318:296|395:283,1,119.000002269745,10|0,0:0|1:0,0:0:0:0:
491,162,48972,6,0,P|443:128|371:125,1,119.000002269745,6|4,1:2|0:3,0:0:0:0:
334,177,49514,1,0,1:0:0:0:
443,332,49695,5,6,1:2:0:0:
512,75,50056,2,0,P|468:51|452:46,1,59.5000011348725,6|0,1:2|1:0,0:0:0:0:
370,62,50417,1,4,0:3:0:0:
370,62,50508,1,2,0:0:0:0:
370,62,50598,6,0,P|380:105|383:130,1,59.5000011348725,6|2,1:2|1:2,0:0:0:0:
180,127,51140,1,0,1:0:0:0:
180,127,51231,1,0,1:0:0:0:
180,127,51321,2,0,L|300:110,1,119.000002269745,10|2,0:0|1:2,0:0:0:0:
115,196,51863,6,0,P|82:140|96:84,1,119.000002269745,6|4,1:2|0:3,0:0:0:0:
155,48,52405,1,0,1:0:0:0:
36,224,52586,5,6,1:2:0:0:
297,110,52948,1,6,1:2:0:0:
297,110,53128,2,0,P|300:172|310:208,1,89.2500017023087,2|0,0:0|0:0,0:0:0:0:
343,223,53490,6,0,L|416:206,1,70,6|0,1:2|1:0,0:0:0:0:
297,292,53851,1,10,0:0:0:0:
215,182,54032,1,2,1:2:0:0:
376,302,54213,2,0,P|335:363|268:367,1,140,10|8,0:0|0:0,0:0:0:0:
297,292,54755,1,0,1:0:0:0:
152,279,54935,6,0,P|173:326|183:355,1,70,10|0,0:0|1:0,0:0:0:0:
215,182,55297,1,10,0:0:0:0:
297,292,55478,1,0,1:0:0:0:
147,199,55658,2,0,L|230:178,1,70,10|0,0:0|1:0,0:0:0:0:
384,125,56020,2,0,P|349:115|301:104,1,70,10|0,0:0|1:0,0:0:0:0:
152,279,56381,5,14,1:2:0:0:
296,189,56562,1,0,1:0:0:0:
138,142,56743,5,10,0:0:0:0:
104,351,56923,1,0,1:0:0:0:
214,181,57104,5,10,0:0:0:0:
2,251,57285,2,0,P|54:271|91:291,1,70,2|8,1:2|0:0,0:0:0:0:
234,260,57646,1,2,1:2:0:0:
214,181,57827,5,6,1:2:0:0:
182,356,58008,1,10,0:0:0:0:
259,337,58188,2,0,P|311:317|348:297,1,70,2|4,1:2|0:3,0:0:0:0:
506,193,58550,5,12,1:2:0:0:
332,88,58731,1,0,1:0:0:0:
332,88,58821,2,0,L|322:151,1,38.5000011749268,12|0,0:0|0:0,0:0:0:0:
234,260,59002,1,0,1:0:0:0:
234,260,59092,2,0,L|225:205,2,38.5000011749268,12|0|2,0:0|0:0|0:0,0:0:0:0:
256,192,59363,12,0,60357,0:0:0:0:
91,220,60719,6,0,B|145:204|179:220|154:225|195:252|255:234,1,154.000004699707,6|8,1:2|0:0,0:0:0:0:
216,161,61261,1,0,1:0:0:0:
127,292,61441,2,0,P|137:343|141:376,1,77.0000023498536,2|0,1:2|1:0,0:0:0:0:
12,189,61803,1,10,0:0:0:0:
154,216,61984,6,0,P|148:177|140:140,1,77.0000023498536,2|0,1:2|1:0,0:0:0:0:
227,41,62345,1,2,1:2:0:0:
368,136,62526,2,0,P|292:126|215:119,1,154.000004699707,10|0,0:0|1:0,0:0:0:0:
293,96,63068,1,0,1:0:0:0:
239,237,63249,2,0,P|244:275|252:312,1,77.0000023498536,10|0,0:0|1:1,0:0:0:0:
410,221,63610,5,2,1:2:0:0:
316,206,63791,1,2,1:2:0:0:
440,311,63972,1,10,0:0:0:0:
474,146,64152,1,2,1:2:0:0:
328,300,64333,2,0,P|277:308|246:314,1,77.0000023498536,2|0,1:2|1:0,0:0:0:0:
176,142,64695,1,10,0:0:0:0:
131,225,64875,6,0,P|182:217|213:211,1,77.0000023498536,2|0,1:2|1:0,0:0:0:0:
107,90,65237,1,2,1:2:0:0:
55,264,65417,1,10,0:0:0:0:
292,234,65598,6,0,L|310:56,1,154.000004699707,6|0,1:2|1:0,0:0:0:0:
222,156,66140,1,10,0:0:0:0:
222,156,66231,1,8,0:0:0:0:
222,156,66321,1,0,1:0:0:0:
392,115,66502,6,0,P|444:109|480:104,1,77.0000023498536,6|0,1:2|1:0,0:0:0:0:
292,234,66863,1,10,0:0:0:0:
222,156,67044,2,0,P|232:75|237:1,1,154.000004699707,2|2,1:2|1:2,0:0:0:0:
301,151,67586,1,8,0:0:0:0:
148,99,67767,6,0,P|98:108|65:112,1,77.0000023498536,2|4,1:2|1:2,0:0:0:0:
216,246,68128,2,0,P|266:237|299:233,1,77.0000023498536,2|8,1:2|0:2,0:0:0:0:
133,279,68490,2,0,P|138:232|146:190,1,77.0000023498536,2|0,1:2|1:0,0:0:0:0:
235,335,68851,1,2,1:2:0:0:
58,305,69032,1,10,0:0:0:0:
216,246,69213,1,2,1:2:0:0:
15,375,69393,6,0,B|25:329|25:329|-1:195,1,154.000004699707,6|8,1:2|0:0,0:0:0:0:
126,123,69935,2,0,L|116:206,1,77.0000023498536,2|8,1:2|0:0,0:0:0:0:
225,335,70297,2,0,L|234:258,1,77.0000023498536,2|8,1:2|0:0,0:0:0:0:
349,205,70658,6,0,B|308:217|265:197|292:191|247:170|195:187,1,154.000004699707,6|4,1:2|1:3,0:0:0:0:
201,185,71110,1,4,0:3:0:0:
201,185,71201,5,10,0:0:0:0:
331,56,71381,1,8,0:0:0:0:
434,225,71562,1,2,1:2:0:0:
181,109,71743,6,0,P|244:103|272:96,1,77.0000023498536,6|8,1:2|0:0,0:0:0:0:
257,100,72014,1,8,0:0:0:0:
257,100,72104,1,0,1:0:0:0:
345,341,72285,6,0,B|289:333|289:333|251:346|251:346|184:336,1,154.000004699707,6|8,1:2|0:0,0:0:0:0:
140,283,72827,1,0,1:0:0:0:
231,184,73008,2,0,L|240:275,1,77.0000023498536,2|0,1:2|1:0,0:0:0:0:
72,216,73369,1,10,0:0:0:0:
181,109,73550,6,0,P|244:103|272:96,1,77.0000023498536,2|0,1:2|1:0,0:0:0:0:
134,42,73911,1,2,1:2:0:0:
308,164,74092,2,0,P|414:174|462:186,1,154.000004699707,10|0,0:2|1:0,0:0:0:0:
485,261,74634,1,0,1:0:0:0:
384,136,74815,2,0,L|391:59,1,77.0000023498536,10|0,0:2|1:0,0:0:0:0:
327,251,75176,5,2,1:2:0:0:
182,282,75357,1,0,1:2:0:0:
229,140,75538,1,10,0:2:0:0:
246,224,75719,1,2,1:2:0:0:
308,71,75899,2,0,P|247:61|215:56,1,77.0000023498536,2|0,1:2|0:0,0:0:0:0:
148,135,76261,1,8,0:0:0:0:
0,153,76441,6,0,B|44:172|89:146|65:143|114:117|178:143,1,154.000004699707,6|4,1:2|0:3,0:0:0:0:
138,369,76984,2,0,P|137:319|125:211,1,154.000004699707,6|8,1:2|0:0,0:0:0:0:
57,264,77526,1,0,1:0:0:0:
57,264,77616,1,0,1:0:0:0:
57,264,77707,2,0,P|61:290|63:325,1,38.5000011749268,10|8,0:0|0:0,0:0:0:0:
212,348,77887,1,0,1:0:0:0:
271,290,78068,6,0,P|263:228|261:166,1,112,6|2,1:2|0:0,0:0:0:0:
347,209,78610,1,2,1:2:0:0:
347,209,78701,1,0,1:0:0:0:
347,209,78791,1,8,0:0:0:0:
199,116,78972,2,0,P|253:98|324:68,1,112,2|0,0:0|0:0,0:0:0:0:
118,82,79514,5,6,1:2:0:0:
77,188,79785,1,2,1:2:0:0:
36,294,80056,1,2,1:2:0:0:
166,255,80237,2,0,P|131:262|104:264,1,56,10|2,0:0|1:2,0:0:0:0:
110,263,80508,1,0,1:0:0:0:
110,263,80598,1,8,0:0:0:0:
213,192,80779,1,2,1:2:0:0:
213,192,80869,1,0,1:0:0:0:
213,192,80960,6,0,P|223:148|227:111,1,62.9999980773926,4|0,1:2|1:0,0:0:0:0:
320,271,81321,2,0,P|310:227|306:190,1,62.9999980773926,10|0,0:2|1:0,0:0:0:0:
440,179,81682,1,10,0:0:0:0:
440,179,81773,2,0,L|409:198,1,31.4999990386963,8|0,0:0|1:0,0:0:0:0:
225,130,82044,5,10,0:0:0:0:
254,121,82134,1,10,0:0:0:0:
281,104,82224,1,2,1:2:0:0:
301,79,82315,1,10,0:0:0:0:
314,51,82405,6,0,P|300:103|304:204,1,140,6|0,1:2|1:0,0:0:0:0:
440,179,82948,1,6,1:2:0:0:
206,50,83309,1,6,1:2:0:0:
300,188,83670,1,2,1:2:0:0:
322,106,83851,6,0,B|238:90|267:149|174:128,1,140,6|10,1:2|0:0,0:0:0:0:
86,46,84393,2,0,L|102:134,1,70,2|0,0:0|1:0,0:0:0:0:
112,150,84664,1,8,0:0:0:0:
112,150,84755,1,2,0:0:0:0:
206,50,84935,1,8,0:0:0:0:
258,140,85116,6,0,P|221:135|181:129,1,70,2|0,0:0|1:0,0:0:0:0:
130,262,85478,2,0,P|150:234|178:200,1,70,2|8,0:0|0:0,0:0:0:0:
85,85,85839,2,0,P|98:116|113:157,1,70,2|0,0:0|1:2,0:0:0:0:
101,178,86110,1,8,0:0:0:0:
101,178,86201,1,2,0:0:0:0:
239,267,86381,1,10,0:0:0:0:
239,267,86743,6,0,B|276:281|318:261|300:257|341:232|397:255,1,140,6|10,1:2|0:0,0:0:0:0:
444,350,87285,2,0,L|362:341,1,70,2|0,0:0|1:0,0:0:0:0:
359,331,87556,1,8,0:0:0:0:
360,332,87646,1,2,0:0:0:0:
423,182,87827,1,10,0:0:0:0:
494,222,88008,6,0,P|439:262|372:247,1,140,2|2,0:0|0:0,0:0:0:0:
275,162,88550,2,0,L|352:147,1,70,8|0,0:0|0:0,0:0:0:0:
449,81,88911,2,0,L|488:90,2,35,0|8|0,1:0|0:0|0:0,0:0:0:0:
322,25,89273,1,10,0:0:0:0:
288,34,89363,1,2,0:0:0:0:
261,57,89453,1,2,0:0:0:0:
237,82,89544,1,2,0:0:0:0:
205,96,89634,6,0,L|55:72,1,140,6|10,1:2|0:0,0:0:0:0:
136,162,90176,2,0,L|217:175,1,70,2|0,0:0|1:0,0:0:0:0:
236,179,90448,1,8,0:0:0:0:
236,179,90538,1,2,0:0:0:0:
173,315,90719,1,10,0:0:0:0:
95,265,90899,6,0,P|71:216|58:187,1,70,2|0,0:0|1:0,0:0:0:0:
173,315,91261,2,0,P|171:260|172:228,1,70,2|8,0:0|0:0,0:0:0:0:
236,382,91622,2,0,P|258:332|271:303,1,70,2|0,0:0|1:0,0:0:0:0:
285,298,91893,1,8,0:0:0:0:
285,298,91984,1,0,0:0:0:0:
390,188,92164,5,10,0:0:0:0:
350,353,92345,1,2,0:0:0:0:
457,142,92526,6,0,B|414:157|382:140|397:134|360:107|302:135,1,125.999996154785,6|0,1:2|0:0,0:0:0:0:
301,149,92887,1,10,0:0:0:0:
438,65,93068,1,6,1:2:0:0:
484,222,93429,1,2,1:2:0:0:
193,212,93791,6,0,P|184:156|178:100,1,112,6|8,1:2|0:0,0:0:0:0:
231,43,94333,1,8,0:0:0:0:
266,139,94514,1,8,0:0:0:0:
158,27,94695,2,0,L|165:0,2,28,8|8|8,0:0|0:0|0:0,0:0:0:0:
105,178,95056,2,0,L|111:210,2,28,8|8|8,0:0|0:0|0:0,0:0:0:0:
36,128,95417,6,0,P|29:186|18:256,1,119.000002269745,4|2,1:0|1:2,0:0:0:0:
89,348,95960,1,8,0:0:0:0:
150,298,96140,2,0,L|220:289,1,59.5000011348725,2|0,0:0|1:0,0:0:0:0:
328,242,96502,2,0,L|258:233,1,59.5000011348725,10|0,0:0|0:0,0:0:0:0:
268,234,96773,1,0,0:0:0:0:
268,234,96863,6,0,L|414:214,1,119.000002269745,2|0,1:2|0:0,0:0:0:0:
456,101,97405,1,8,0:0:0:0:
387,63,97586,2,0,P|379:111|374:143,1,59.5000011348725,2|0,0:0|1:0,0:0:0:0:
314,20,97948,2,0,P|306:68|301:100,1,59.5000011348725,10|0,0:0|1:0,0:0:0:0:
222,154,98309,6,0,B|174:146|174:146|153:129|153:129|96:120,1,119.000002269745,2|2,1:2|1:2,0:0:0:0:
31,241,98851,2,0,L|100:233,1,59.5000011348725,10|0,0:0|0:0,0:0:0:0:
168,222,99213,1,2,1:2:0:0:
80,322,99393,2,0,L|149:314,1,59.5000011348725,8|0,0:0|0:0,0:0:0:0:
139,315,99664,1,0,0:0:0:0:
139,315,99755,6,0,P|192:322|269:317,1,119.000002269745,2|0,1:2|0:0,0:0:0:0:
354,242,100297,1,8,0:0:0:0:
354,242,100658,1,0,1:2:0:0:
270,188,100839,2,0,L|280:259,1,59.5000011348725,8|0,0:0|1:0,0:0:0:0:
189,149,101201,5,4,1:0:0:0:
189,149,101562,1,2,1:2:0:0:
202,246,101743,1,8,0:0:0:0:
75,227,101923,2,0,P|113:216|140:206,1,59.5000011348725,2|0,0:0|1:0,0:0:0:0:
245,166,102285,2,0,P|216:158|188:148,1,59.5000011348725,10|0,0:0|0:0,0:0:0:0:
105,78,102646,6,0,L|228:66,1,119.000002269745,2|0,1:2|0:0,0:0:0:0:
331,142,103188,1,8,0:0:0:0:
402,105,103369,2,0,P|406:70|412:33,1,59.5000011348725,2|0,0:0|1:0,0:0:0:0:
496,164,103731,2,0,P|491:193|487:222,1,59.5000011348725,10|0,0:0|1:0,0:0:0:0:
405,288,104092,6,0,P|344:302|280:322,1,119.000002269745,2|2,1:2|0:3,0:0:0:0:
240,192,104634,2,0,P|288:198|319:200,1,59.5000011348725,10|2,0:0|0:3,0:0:0:0:
182,125,104996,1,0,1:0:0:0:
174,265,105176,1,10,0:0:0:0:
166,293,105267,1,2,0:0:0:0:
147,315,105357,1,2,0:0:0:0:
119,324,105448,1,2,0:0:0:0:
90,318,105538,1,2,0:0:0:0:
90,318,105899,1,0,3:0:0:0:
266,273,106080,6,0,P|329:284|396:288,1,105,12|0,1:2|0:2,0:0:0:0:
401,290,106441,1,2,1:2:0:0:
492,168,106622,1,10,0:0:0:0:
355,145,106803,1,8,0:0:0:0:
355,145,106893,1,8,0:0:0:0:
355,145,106984,6,0,P|366:204|369:229,1,62.9999980773926,6|0,1:2|1:0,0:0:0:0:
254,74,107345,2,0,L|395:55,1,125.999996154785,10|2,0:0|1:2,0:0:0:0:
441,105,107887,1,0,1:0:0:0:
366,206,108068,1,10,0:0:0:0:
286,186,108249,6,0,B|245:174|214:200|234:200|201:224|143:211,1,125.999996154785,2|0,0:0|1:0,0:0:0:0:
69,118,108791,2,0,L|152:134,1,62.9999980773926,8|0,0:0|1:0,0:0:0:0:
99,263,109152,2,0,P|87:238|84:196,1,62.9999980773926,2|0,0:0|1:0,0:0:0:0:
208,106,109514,2,0,L|225:216,1,94.499997116089,10|0,0:0|0:0,0:0:0:0:
222,199,109875,6,0,P|277:190|299:185,1,62.9999980773926,2|0,1:2|1:0,0:0:0:0:
323,126,110237,1,10,0:0:0:0:
413,286,110417,1,2,1:2:0:0:
190,270,110779,2,0,L|194:202,1,62.9999980773926,2|8,1:2|0:0,0:0:0:0:
269,63,111140,6,0,L|286:203,1,125.999996154785,6|0,1:2|1:0,0:0:0:0:
345,269,111682,2,0,L|333:349,1,62.9999980773926,10|0,0:0|0:0,0:0:0:0:
278,219,112044,2,0,L|284:188,2,31.4999990386963,10|8|0,0:0|0:0|1:0,0:0:0:0:
256,352,112405,1,10,0:0:0:0:
138,268,112586,1,8,0:0:0:0:
138,268,112676,1,8,0:0:0:0:
138,268,112767,5,6,1:2:0:0:
216,279,112948,1,2,0:0:0:0:
67,322,113128,2,0,P|53:288|48:256,1,62.9999980773926,10|0,0:0|0:0,0:0:0:0:
120,131,113490,2,0,P|113:161|101:190,1,62.9999980773926,2|0,1:2|1:0,0:0:0:0:
74,55,113851,1,10,0:0:0:0:
186,201,114032,6,0,B|228:202|253:181|237:179|267:154|319:161,1,125.999996154785,6|0,1:2|1:0,0:0:0:0:
412,162,114574,1,10,0:0:0:0:
303,241,114755,1,6,1:2:0:0:
342,49,115116,2,0,L|417:41,1,62.9999980773926,4|10,1:2|0:0,0:0:0:0:
458,100,115478,1,2,1:2:0:0:
303,241,115658,6,0,B|242:244|242:244|219:230|219:230|151:235,1,140,6|8,1:2|0:0,0:0:0:0:
271,160,116201,1,6,1:2:0:0:
362,331,116562,2,0,L|281:322,1,70,6|8,1:2|0:0,0:0:0:0:
125,304,116923,6,0,B|114:199|114:199|87:162,1,140,6|0,1:2|1:0,0:0:0:0:
46,232,117375,1,10,0:0:0:0:
46,232,117466,2,0,L|51:280,1,35,2|0,0:0|1:0,0:0:0:0:
210,313,117646,6,0,L|200:208,1,105,6|8,1:2|0:0,0:0:0:0:
196,181,118008,1,2,0:0:0:0:
303,241,118188,1,10,0:0:0:0:
125,304,118369,1,10,0:0:0:0:
147,116,118550,6,0,P|152:61|154:36,1,64.3999978381348,6|0,1:2|0:0,0:0:0:0:
226,108,118911,2,0,P|231:53|233:28,1,64.3999978381348,2|4,1:2|0:3,0:0:0:0:
301,155,119273,2,0,P|309:58|313:14,1,128.79999567627,2|8,1:2|0:0,0:0:0:0:
391,101,119815,1,2,0:0:0:0:
391,101,119905,1,0,0:0:0:0:
391,101,119996,5,4,1:2:0:0:
512,33,120176,2,0,P|480:36|448:41,1,64.3999978381348,4|0,0:3|1:0,0:0:0:0:
406,181,120538,2,0,P|437:177|469:172,1,64.3999978381348,2|0,0:0|1:0,0:0:0:0:
511,236,120899,1,2,0:0:0:0:
338,239,121080,2,0,P|331:209|325:168,1,64.3999978381348,10|0,0:0|0:0,0:0:0:0:
325,175,121351,1,0,0:0:0:0:
325,175,121441,6,0,L|245:189,1,64.3999978381348,6|2,1:2|0:3,0:0:0:0:
183,256,121803,2,0,L|246:267,1,64.3999978381348,2|4,1:2|0:3,0:0:0:0:
114,309,122164,2,0,L|99:166,1,128.79999567627,2|8,1:2|0:0,0:0:0:0:
24,304,122707,1,2,0:0:0:0:
24,304,122797,1,0,0:0:0:0:
24,304,122887,5,4,1:2:0:0:
183,256,123068,1,10,0:0:0:0:
114,309,123249,1,0,0:0:0:0:
102,222,123429,2,0,P|92:175|84:145,1,64.3999978381348,2|8,0:0|0:2,0:0:0:0:
192,103,123791,2,0,P|185:134|178:165,1,64.3999978381348,2|4,1:2|0:3,0:0:0:0:
178,165,124333,6,0,B|221:147|253:166|237:166|270:184|316:175,1,128.79999567627,6|0,1:2|1:0,0:0:0:0:
368,135,124875,1,2,0:0:0:0:
476,225,125056,2,0,P|469:260|462:297,1,64.3999978381348,2|2,1:2|0:3,0:0:0:0:
449,149,125417,2,0,P|455:117|461:85,1,64.3999978381348,8|0,0:0|0:0,0:0:0:0:
461,85,125688,1,0,0:0:0:0:
461,85,125779,5,4,1:2:0:0:
394,211,125960,1,8,0:0:0:0:
368,135,126140,2,0,L|302:128,1,64.3999978381348,0|4,1:0|0:3,0:0:0:0:
219,44,126502,2,0,L|283:50,1,64.3999978381348,2|4,1:2|0:3,0:0:0:0:
226,192,126863,2,0,P|220:156|216:119,1,64.3999978381348,10|0,0:0|0:0,0:0:0:0:
216,128,127134,1,0,0:0:0:0:
216,128,127225,6,0,L|135:140,1,64.3999978381348,6|2,1:2|0:3,0:0:0:0:
93,183,127586,1,0,1:2:0:0:
13,66,127767,1,2,1:2:0:0:
89,43,127948,2,0,P|85:74|79:106,1,64.3999978381348,2|4,1:2|0:3,0:0:0:0:
97,187,128309,1,0,1:0:0:0:
97,187,128670,5,6,1:2:0:0:
276,40,128911,1,8,0:3:0:0:
312,269,129152,1,4,0:3:0:0:
192,250,129393,5,6,1:2:0:0:
193,96,129634,1,4,0:3:0:0:
326,175,129875,1,4,0:3:0:0:
236,175,130116,6,0,P|229:118|224:97,1,59.5000011348725,6|0,1:2|1:0,0:0:0:0:
228,116,130658,1,2,3:2:0:0:
203,255,130839,2,0,L|214:388,1,119.000002269745,10|0,0:0|1:0,0:0:0:0:
98,304,131381,6,0,B|131:305|158:277|144:280|174:245|227:256,1,119.000002269745,6|4,1:2|0:3,0:0:0:0:
277,279,131923,1,8,0:0:0:0:
152,184,132104,1,6,1:2:0:0:
152,370,132466,2,0,L|212:372,1,59.5000011348725,6|0,1:2|1:0,0:0:0:0:
366,290,132827,1,0,0:0:0:0:
366,290,132917,1,0,0:0:0:0:
366,290,133008,6,0,P|358:242|355:216,1,59.5000011348725,6|2,1:2|1:2,0:0:0:0:
356,231,133550,1,2,0:0:0:0:
231,180,133731,2,0,P|314:153|360:135,1,119.000002269745,10|0,0:0|1:0,0:0:0:0:
232,100,134273,1,2,1:2:0:0:
182,250,134634,2,0,P|193:291|198:313,1,59.5000011348725,4|0,0:3|1:0,0:0:0:0:
96,192,134996,5,6,1:2:0:0:
273,255,135357,1,6,1:2:0:0:
273,255,135538,2,0,P|342:237|364:229,1,89.2500017023087,2|0,0:0|0:0,0:0:0:0:
393,217,135899,6,0,B|294:176|363:148|251:112,1,168,6|0,1:2|0:0,0:0:0:0:
193,138,136622,2,0,P|190:179|179:263,1,112,2|0,0:0|0:0,0:0:0:0:
181,249,137345,6,0,P|131:256|85:265,2,84,6|2|2,1:2|0:0|0:0,0:0:0:0:
251,289,138068,2,0,P|263:235|235:188,1,112,2|0,0:0|0:0,0:0:0:0:
236,189,138791,5,14,1:2:0:0:
368,239,138972,1,0,1:0:0:0:
275,85,139152,5,10,0:0:0:0:
300,285,139333,1,0,1:0:0:0:
371,128,139514,5,10,0:0:0:0:
226,261,139695,2,0,P|236:216|241:183,1,70,2|8,1:2|0:0,0:0:0:0:
158,275,140056,1,2,1:2:0:0:
269,372,140237,5,6,1:2:0:0:
95,316,140417,1,10,0:0:0:0:
158,275,140598,2,0,P|208:263|245:261,1,70,2|4,1:2|0:3,0:0:0:0:
411,293,140960,5,12,1:2:0:0:
273,157,141140,1,0,1:0:0:0:
273,157,141231,2,0,L|325:152,1,38.5000011749268,12|0,0:0|0:0,0:0:0:0:
389,17,141411,1,0,1:0:0:0:
389,17,141502,2,0,L|343:13,2,38.5000011749268,12|0|2,0:0|0:0|0:0,0:0:0:0:
256,192,141773,12,0,142767,0:0:0:0:
393,168,143128,6,0,B|345:170|325:130|338:131|309:99|253:108,1,154.000004699707,6|8,1:2|0:0,0:0:0:0:
274,184,143670,1,0,1:0:0:0:
400,91,143851,2,0,P|397:38|396:10,1,77.0000023498536,2|0,1:2|1:0,0:0:0:0:
473,184,144213,1,10,0:0:0:0:
389,244,144393,6,0,P|392:191|393:163,1,77.0000023498536,2|0,1:2|1:0,0:0:0:0:
312,256,144755,1,2,1:2:0:0:
507,297,144935,2,0,B|459:278|422:306|442:303|407:334|358:318,1,154.000004699707,10|0,0:0|1:0,0:0:0:0:
312,256,145478,1,0,1:0:0:0:
168,302,145658,2,0,P|180:369|183:388,1,77.0000023498536,10|0,0:0|1:0,0:0:0:0:
45,185,146020,5,2,1:2:0:0:
193,226,146201,1,0,1:0:0:0:
83,333,146381,1,10,0:0:0:0:
106,248,146562,1,2,1:2:0:0:
248,291,146743,2,0,P|260:358|263:377,1,77.0000023498536,2|0,1:2|1:0,0:0:0:0:
341,182,147104,1,8,0:0:0:0:
282,130,147285,6,0,P|227:136|192:141,1,77.0000023498536,2|4,1:2|0:0,0:0:0:0:
342,262,147646,1,2,1:2:0:0:
411,144,147827,1,10,0:0:0:0:
267,283,148008,6,0,L|283:113,1,154.000004699707,6|0,1:2|1:0,0:0:0:0:
349,269,148550,1,10,0:0:0:0:
349,269,148640,1,8,0:0:0:0:
349,269,148731,1,0,1:0:0:0:
193,226,148911,6,0,P|194:190|200:140,1,77.0000023498536,6|0,1:2|1:0,0:0:0:0:
267,283,149273,1,10,0:0:0:0:
113,299,149454,2,0,P|106:227|93:132,1,154.000004699707,2|2,1:2|1:2,0:0:0:0:
25,233,149996,1,8,0:0:0:0:
192,262,150176,6,0,P|234:275|268:283,1,77.0000023498536,2|4,1:2|1:2,0:0:0:0:
315,142,150538,2,0,P|282:171|258:197,1,77.0000023498536,2|8,1:2|0:2,0:0:0:0:
357,308,150899,2,0,P|347:265|337:231,1,77.0000023498536,2|0,1:2|1:2,0:0:0:0:
192,262,151261,1,2,1:2:0:0:
305,370,151441,1,8,0:0:0:0:
260,195,151622,1,2,1:2:0:0:
69,337,151803,6,0,L|242:346,1,154.000004699707,6|8,1:2|0:0,0:0:0:0:
122,185,152345,2,0,L|110:271,1,77.0000023498536,2|8,1:2|0:0,0:0:0:0:
260,195,152707,2,0,L|270:118,1,77.0000023498536,2|8,1:2|0:0,0:0:0:0:
382,261,153068,6,0,B|338:242|297:262|311:264|272:289|226:266,1,154.000004699707,6|0,1:2|1:0,0:0:0:0:
233,269,153520,1,4,0:3:0:0:
233,269,153610,1,10,0:0:0:0:
402,187,153791,1,8,0:0:0:0:
288,41,153972,1,2,1:2:0:0:
316,315,154152,6,0,P|393:338|417:347,1,77.0000023498536,6|8,1:2|0:0,0:0:0:0:
389,336,154423,1,8,0:0:0:0:
389,336,154514,1,2,1:2:0:0:
260,195,154695,6,0,B|202:208|202:208|169:197|169:197|103:213,1,154.000004699707,6|8,1:2|0:0,0:0:0:0:
160,275,155237,1,0,1:0:0:0:
212,126,155417,2,0,L|208:45,1,77.0000023498536,2|0,1:2|1:0,0:0:0:0:
110,211,155779,1,10,0:0:0:0:
260,195,155960,6,0,L|256:271,1,77.0000023498536,2|4,1:2|1:2,0:0:0:0:
186,202,156321,1,2,1:2:0:0:
329,142,156502,2,0,P|389:148|494:151,1,154.000004699707,10|0,0:0|1:0,0:0:0:0:
512,80,157044,1,0,1:0:0:0:
400,225,157225,2,0,P|409:276|414:314,1,77.0000023498536,10|0,0:0|1:0,0:0:0:0:
258,105,157586,5,6,1:2:0:0:
409,149,157767,1,0,1:2:0:0:
295,257,157948,1,10,0:2:0:0:
320,173,158128,1,2,0:0:0:0:
326,341,158309,2,0,P|278:343|246:328,1,77.0000023498536,10|0,0:0|1:0,0:0:0:0:
235,193,158670,1,10,0:0:0:0:
442,250,158851,6,0,B|390:260|390:260|353:244|353:244|294:256,1,154.000004699707,6|0,1:2|1:0,0:0:0:0:
172,345,159393,1,10,0:0:0:0:
189,131,159574,6,0,B|216:176|216:176|213:296,1,154.000004699707,6|0,1:2|1:0,0:0:0:0:
213,277,160026,1,0,1:3:0:0:
213,277,160116,2,0,L|163:269,1,38.5000011749268,10|8,0:0|0:0,0:0:0:0:
287,187,160297,1,0,1:0:0:0:
350,235,160478,6,0,P|352:293|360:363,1,112,6|2,1:2|0:0,0:0:0:0:
437,269,161020,1,2,1:2:0:0:
437,269,161110,1,0,1:0:0:0:
437,269,161201,1,8,0:0:0:0:
387,164,161381,2,0,P|332:157|286:186,1,112,2|2,0:0|0:0,0:0:0:0:
219,320,161923,5,4,1:2:0:0:
174,208,162195,1,2,1:2:0:0:
129,96,162466,1,2,1:2:0:0:
35,174,162646,2,0,P|88:171|100:171,1,56,8|2,0:0|1:2,0:0:0:0:
90,170,162917,1,0,1:0:0:0:
90,170,163008,1,8,0:0:0:0:
63,322,163188,1,2,1:2:0:0:
63,322,163279,1,0,1:0:0:0:
63,322,163369,6,0,P|67:273|70:243,1,62.9999980773926,4|0,1:2|1:0,0:0:0:0:
249,217,163731,2,0,P|245:168|242:138,1,62.9999980773926,10|0,0:2|1:0,0:0:0:0:
173,296,164092,1,10,0:0:0:0:
173,296,164182,2,0,P|196:309|215:315,1,31.4999990386963,8|0,0:0|1:0,0:0:0:0:
422,316,164454,5,10,0:2:0:0:
398,294,164544,1,10,0:2:0:0:
369,284,164634,1,2,1:2:0:0:
338,285,164725,1,10,0:2:0:0:
309,299,164815,6,0,P|334:193|335:155,1,140,6|2,1:2|1:2,0:0:0:0:
200,310,165357,1,6,1:2:0:0:
421,213,165719,1,6,1:2:0:0:
227,71,166080,1,2,1:2:0:0:
283,200,166261,6,0,P|302:146|315:119,1,70,6|0,1:2|1:0,0:0:0:0:
307,134,166803,1,2,1:2:0:0:
150,199,166984,1,8,0:0:0:0:
150,199,167345,1,2,0:0:0:0:
238,276,167526,1,0,1:0:0:0:
143,348,167707,6,0,P|153:303|157:268,1,70,2|0,0:0|0:0,0:0:0:0:
53,175,168068,1,2,1:2:0:0:
13,242,168249,1,2,0:0:0:0:
150,199,168429,1,8,0:0:0:0:
53,175,168610,6,0,P|58:134|67:93,1,70,2|0,1:2|1:0,0:0:0:0:
178,37,168972,1,0,0:0:0:0:
178,37,169062,1,0,0:0:0:0:
178,37,169152,6,0,L|267:43,1,70,6|0,1:2|1:0,0:0:0:0:
247,41,169695,1,2,1:2:0:0:
283,200,169875,1,8,0:0:0:0:
283,200,170237,1,0,1:0:0:0:
360,146,170417,2,0,P|466:150|504:154,1,140,2|8,1:2|0:0,0:0:0:0:
451,237,170960,1,0,1:0:0:0:
451,237,171321,2,0,P|461:288|464:321,1,70,10|0,0:0|1:0,0:0:0:0:
367,153,171682,2,0,P|377:204|380:237,1,70,10|0,0:0|1:0,0:0:0:0:
378,221,171954,1,0,0:0:0:0:
378,221,172044,6,0,L|296:212,1,70,2|0,1:2|1:0,0:0:0:0:
308,213,172586,1,2,1:2:0:0:
396,75,172767,2,0,L|478:66,1,70,10|0,0:2|0:0,0:0:0:0:
277,146,173128,1,0,1:0:0:0:
212,44,173309,1,2,1:2:0:0:
292,7,173490,6,0,P|284:93|275:163,1,140,2|0,0:0|1:0,0:0:0:0:
175,298,174213,2,0,P|167:248|164:216,1,70,10|0,0:0|1:0,0:0:0:0:
241,242,174574,1,2,0:0:0:0:
79,268,174755,1,2,0:0:0:0:
79,268,174845,1,2,0:0:0:0:
79,268,174935,6,0,P|86:215|86:177,1,70,0|2,1:0|1:2,0:0:0:0:
52,131,175297,1,2,0:0:0:0:
7,221,175478,1,0,1:0:0:0:
151,149,175658,1,8,0:0:0:0:
151,149,176020,1,2,1:2:0:0:
123,59,176201,6,0,P|178:70|262:77,1,140,0|8,1:0|0:0,0:0:0:0:
357,37,176743,1,2,1:2:0:0:
357,37,177104,2,0,L|438:51,1,70,10|0,0:0|1:0,0:0:0:0:
488,152,177466,2,0,L|419:140,1,70,10|8,0:0|0:0,0:0:0:0:
419,140,177737,1,8,0:0:0:0:
419,140,177827,5,6,1:2:0:0:
338,192,178008,2,0,L|344:116,1,70,2|0,0:0|1:0,0:0:0:0:
259,214,178369,2,0,L|265:138,1,70,2|0,0:0|1:0,0:0:0:0:
180,189,178731,1,2,0:0:0:0:
249,293,178911,2,0,P|305:285|330:262,1,70,0|2,1:0|0:0,0:0:0:0:
180,189,179273,6,0,B|135:164|97:180|117:186|75:205|35:178,1,140,2|0,1:2|1:0,0:0:0:0:
77,114,179815,1,2,0:0:0:0:
180,189,179996,2,0,L|164:338,1,140,2|0,1:2|1:0,0:0:0:0:
165,328,180719,5,6,1:2:0:0:
77,276,180899,2,0,L|150:259,1,70,2|0,0:0|1:0,0:0:0:0:
236,315,181261,2,0,L|167:330,1,70,2|0,0:0|1:0,0:0:0:0:
247,236,181622,1,2,0:0:0:0:
313,356,181803,2,0,P|353:372|403:374,1,70,0|2,1:0|0:0,0:0:0:0:
470,218,182164,6,0,B|425:243|391:228|411:222|369:203|325:229,1,140,2|0,1:2|1:0,0:0:0:0:
370,296,182707,1,2,0:0:0:0:
428,152,182887,2,0,L|415:1,1,140,2|0,1:2|1:0,0:0:0:0:
390,36,183339,1,2,0:0:0:0:
357,47,183429,1,2,0:0:0:0:
323,42,183520,1,2,0:0:0:0:
294,23,183610,6,0,P|253:8|221:5,1,70,2|4,1:2|0:3,0:0:0:0:
172,121,183972,1,2,1:2:0:0:
244,87,184152,1,4,0:3:0:0:
106,75,184333,1,8,0:3:0:0:
165,200,184514,2,0,B|202:195|202:195|244:168,1,70,2|4,1:2|0:3,0:0:0:0:
98,159,184875,1,2,1:2:0:0:
200,279,185056,6,0,L|292:286,1,70,6|4,1:2|0:3,0:0:0:0:
152,347,185417,1,2,1:2:0:0:
165,200,185598,1,8,0:0:0:0:
200,279,185779,1,0,1:0:0:0:
90,226,185960,2,0,B|86:189|86:189|97:156,1,70,2|8,1:2|0:3,0:0:0:0:
165,200,186321,1,2,0:0:0:0:
351,85,186502,6,0,L|268:89,1,73.4999977569581,6|4,1:2|0:3,0:0:0:0:
239,162,186863,1,2,1:2:0:0:
404,144,187044,2,0,B|428:113|428:113|429:66,1,73.4999977569581,2|8,1:2|0:3,0:0:0:0:
224,24,187405,1,10,0:0:0:0:
239,162,187586,1,0,1:0:0:0:
277,88,187767,1,2,1:2:0:0:
165,200,187948,6,0,L|74:189,1,73.4999977569581,6|4,1:2|0:3,0:0:0:0:
239,162,188309,1,10,0:0:0:0:
191,277,188490,1,2,1:2:0:0:
190,97,188670,1,2,1:2:0:0:
321,186,188851,1,4,0:3:0:0:
165,200,189032,1,10,0:0:0:0:
277,88,189213,1,4,0:3:0:0:
455,197,189393,5,14,1:2:0:0:
464,222,189484,1,10,0:0:0:0:
467,249,189573,1,2,1:2:0:0:
461,276,189664,1,2,0:0:0:0:
448,300,189755,1,10,1:2:0:0:
421,325,189845,1,8,0:0:0:0:
387,340,189935,1,2,0:0:0:0:
351,342,190026,1,10,0:0:0:0:
316,332,190116,6,0,L|320:272,1,36.749998878479,10|8,1:2|0:0,0:0:0:0:
372,174,190297,2,0,L|374:210,1,36.749998878479,10|8,0:0|0:0,0:0:0:0:
241,358,190478,1,2,1:2:0:0:
238,321,190568,1,10,0:0:0:0:
235,284,190658,1,10,0:0:0:0:
232,248,190749,2,0,L|228:189,1,36.749998878479,10|4,0:0|1:2,0:0:0:0:
421,325,191020,5,12,1:2:0:0:
241,358,191201,1,12,0:0:0:0:
291,164,191381,1,4,1:2:0:0:
376,227,191562,5,2,0:0:0:0:
164,169,191743,1,12,0:0:0:0:
164,169,192104,6,0,B|214:142|259:167|234:170|274:192|338:161,1,164.499997489929,6|2,1:2|0:3,0:0:0:0:
207,235,192646,1,8,0:0:0:0:
164,169,192827,2,0,P|157:125|149:89,1,77.0000023498536,2|0,0:0|1:0,0:0:0:0:
132,80,193098,1,8,0:0:0:0:
132,80,193188,1,2,0:3:0:0:
91,211,193369,1,10,0:0:0:0:
137,278,193550,6,0,L|225:265,1,77.0000023498536,2|0,0:0|1:0,0:0:0:0:
323,330,193911,2,0,L|246:341,1,77.0000023498536,2|8,0:0|0:0,0:0:0:0:
324,158,194273,2,0,L|313:246,1,77.0000023498536,2|0,0:0|1:0,0:0:0:0:
293,251,194544,1,8,0:0:0:0:
293,252,194634,1,2,0:3:0:0:
397,127,194815,2,0,B|375:94|375:94|321:76,1,77.0000023498536,10|2,0:0|0:3,0:0:0:0:
304,75,195086,1,0,0:0:0:0:
304,75,195176,6,0,L|466:60,1,154.000004699707,6|8,1:2|0:0,0:0:0:0:
507,208,195719,2,0,L|404:197,1,77.0000023498536,2|0,0:0|1:0,0:0:0:0:
410,218,195990,1,8,0:0:0:0:
410,218,196080,1,2,0:3:0:0:
478,288,196261,1,8,0:0:0:0:
396,371,196441,6,0,L|410:210,1,154.000004699707,2|2,0:0|0:3,0:0:0:0:
471,364,196984,1,8,0:0:0:0:
330,273,197164,2,0,L|245:284,1,77.0000023498536,2|0,0:0|1:0,0:0:0:0:
239,304,197435,1,8,0:0:0:0:
239,304,197526,1,2,0:0:0:0:
317,197,197707,1,8,0:0:0:0:
330,273,197887,1,2,0:0:0:0:
173,249,198068,6,0,P|170:154|166:80,1,154.000004699707,6|8,1:2|0:0,0:0:0:0:
0,133,198610,2,0,P|45:141|76:149,1,77.0000023498536,2|0,0:0|1:0,0:0:0:0:
98,170,198881,1,8,0:0:0:0:
98,170,198972,1,2,0:3:0:0:
35,301,199152,2,0,L|26:216,1,77.0000023498536,10|2,0:0|0:3,0:0:0:0:
183,190,199514,6,0,L|191:266,1,77.0000023498536,2|2,1:2|0:3,0:0:0:0:
196,294,199785,1,2,0:0:0:0:
196,294,199875,1,8,0:0:0:0:
306,253,200056,1,2,0:0:0:0:
306,253,200146,1,2,0:0:0:0:
273,146,200327,1,8,0:0:0:0:
273,146,200417,1,2,0:3:0:0:
338,101,200598,2,0,B|353:139|353:139|345:193,1,77.0000023498536,10|0,0:0|0:0,0:0:0:0:
122,24,200960,6,0,B|173:1|215:20|193:25|236:46|279:18,1,154.000004699707,6|8,1:2|0:0,0:0:0:0:
191,204,201502,1,2,0:0:0:0:
184,175,201592,1,2,0:0:0:0:
178,147,201682,1,2,1:2:0:0:
172,119,201773,1,10,0:0:0:0:
166,91,201863,1,2,0:0:0:0:
273,146,202044,1,10,0:0:0:0:
191,204,202225,2,0,L|137:198,1,38.5000011749268,2|2,0:0|0:0,0:0:0:0:
83,269,202405,6,0,L|121:273,3,38.5000011749268,2|2|2|2,0:0|0:0|0:0|0:0,0:0:0:0:
198,286,202766,1,10,0:0:0:0:
46,374,202948,2,0,L|32:322,1,38.5000011749268,10|10,0:0|0:0,0:0:0:0:
71,151,203128,1,8,0:0:0:0:
71,151,203219,1,8,0:0:0:0:
71,151,203309,2,0,L|81:188,1,38.5000011749268,8|8,0:0|0:0,0:0:0:0:
198,81,203490,5,10,0:0:0:0:
166,91,203580,1,10,0:0:0:0:
135,78,203670,2,0,L|142:19,1,38.5000011749268,10|2,0:0|0:0,0:0:0:0:
191,204,203851,6,2,B|234:187|280:204|280:204|327:179|327:179|346:232|404:261|464:226,1,308.000009399414,6|0,1:2|1:0,0:1:0:0:
485,216,204664,1,8,0:0:0:0:
485,216,204755,1,2,0:3:0:0:
481,81,204935,2,2,B|452:104|452:104|439:148,1,77.0000023498536,10|2,0:0|0:3,0:1:0:0:
413,154,205207,2,0,L|447:43,1,115.50000352478,2|2,0:1|0:3,0:0:0:0:
311,143,205658,6,0,L|328:211,1,38.5000011749268,10|2,0:0|0:1,0:0:0:0:
258,85,205839,2,0,L|276:10,1,77.0000023498536,2|0,0:1|1:0,0:0:0:0:
308,11,206110,1,8,0:0:0:0:
308,11,206201,1,2,0:3:0:0:
230,159,206381,1,10,0:0:0:0:
230,159,206743,6,0,L|216:214,1,38.5000011749268,6|0,1:2|0:0,0:0:0:0:
203,269,206923,1,2,0:3:0:0:
115,184,207104,1,10,0:0:0:0:
123,178,207195,1,2,0:0:0:0:
133,174,207285,2,0,L|154:237,1,38.5000011749268,2|2,0:3|0:0,0:0:0:0:
136,320,207466,2,0,L|123:282,2,38.5000011749268,2|8|2,1:2|0:0|0:3,0:0:0:0:
222,193,207827,1,10,0:0:0:0:
322,259,208008,6,2,B|340:291|331:328|331:328|257:335|217:298,1,192.500005874634,2|0,0:0|0:0,0:1:0:0:
203,269,208550,1,10,0:0:0:0:
311,181,208731,2,0,B|323:146|323:146|317:85,1,77.0000023498536,2|0,0:1|1:0,0:0:0:0:
300,87,209002,1,8,0:0:0:0:
300,87,209092,1,2,0:3:0:0:
395,199,209273,1,8,0:0:0:0:
238,143,209454,1,2,0:3:0:0:
238,143,209544,1,0,3:0:0:0:
238,143,209634,6,2,B|182:136|152:160|152:160|129:121|83:112|83:112|42:130|15:174|23:223,1,308.000009399414,6|0,1:2|1:0,0:1:0:0:
38,245,210448,1,8,0:0:0:0:
38,245,210538,1,2,0:0:0:0:
151,159,210719,1,10,0:0:0:0:
242,282,210899,6,2,B|199:282|167:303|167:303|158:261|127:242,1,154.000004699707,2|2,0:0|0:3,0:1:0:0:
128,243,211351,1,2,0:0:0:0:
128,243,211441,2,0,P|131:270|131:302,1,38.5000011749268,10|2,0:0|0:0,0:0:0:0:
203,371,211622,2,0,P|208:332|217:293,1,77.0000023498536,2|0,0:2|1:0,0:0:0:0:
242,282,211893,1,8,0:0:0:0:
242,282,211984,1,2,0:3:0:0:
367,342,212164,1,8,0:0:0:0:
367,342,212526,6,0,B|337:308|337:308|340:250,1,83.9999974365235,14|0,1:2|1:0,0:0:0:0:
361,241,212797,1,0,1:0:0:0:
361,241,212887,2,0,L|353:157,1,83.9999974365235,14|0,0:0|1:0,0:0:0:0:
215,67,213249,1,12,0:0:0:0:
216,87,213339,1,0,1:0:0:0:
218,108,213429,1,0,1:0:0:0:
220,129,213520,1,0,1:0:0:0:
222,150,213610,1,12,0:0:0:0:
462,78,213791,6,0,B|425:93|390:64|390:64|361:80|361:80|326:76|280:110,1,167.999994873047,6|8,1:2|0:0,0:0:0:0:
361,241,214333,1,10,0:0:0:0:
470,167,214514,2,0,L|408:162,1,41.9999987182618,10|0,0:0|0:0,0:0:0:0:
353,157,214695,1,2,0:0:0:0:
413,363,214875,5,10,0:0:0:0:
282,202,215056,1,10,0:0:0:0:
463,78,215237,1,10,0:0:0:0:
463,78,216863,6,0,B|492:169|434:220|387:178,1,168,2|0,0:0|0:0,0:0:0:0:
334,143,218309,2,0,B|303:134|272:157|292:157|263:185|224:180,1,112,2|0,0:0|0:0,0:0:0:0:
167,148,219393,1,2,0:0:0:0:
109,199,219755,6,0,B|82:234|88:307|88:307|124:307|146:323,1,168,2|0,0:0|0:0,0:0:0:0:
206,365,221201,2,0,P|255:358|324:348,1,112,2|0,0:0|0:0,0:0:0:0:
466,367,222285,1,2,0:0:0:0:
403,319,222646,6,0,P|406:250|412:178,1,136.499993751526,2|2,0:0|0:0,0:0:0:0:
486,258,223550,1,2,0:0:0:0:
312,259,223911,6,0,P|308:233|309:206,1,45.4999979171754,2|0,0:0|0:0,0:0:0:0:
335,148,224272,1,2,0:0:0:0:
335,148,224634,2,0,P|284:166|248:154,1,90.9999958343508,2|2,0:0|0:0,0:0:0:0:
196,104,225176,1,2,0:0:0:0:
50,230,225357,5,2,0:0:0:0:
50,230,225448,1,2,0:0:0:0:
50,230,225538,2,0,P|144:224|215:224,1,140,6|8,1:2|0:0,0:0:0:0:
209,363,226080,1,6,1:2:0:0:
83,152,226441,1,6,1:2:0:0:
338,308,226803,6,0,B|277:313|300:282|212:289,1,105,6|0,1:2|0:0,0:0:0:0:
208,328,227164,2,0,L|209:379,1,35,2|0,1:2|1:0,0:0:0:0:
325,229,227345,1,10,1:2:0:0:
324,211,227435,1,8,0:0:0:0:
324,194,227525,1,8,0:0:0:0:
418,288,227707,5,2,1:2:0:0:
232,191,227887,1,6,1:2:0:0:
379,110,228068,1,8,0:0:0:0:
379,110,228158,2,0,L|395:168,1,35,8|0,0:0|1:0,0:0:0:0:
398,150,228429,6,2,L|370:44,1,105,0|0,0:0|0:0,0:0:0:0:
296,21,228791,6,0,B|236:31|236:31|200:72|200:72|120:84,1,167.999994873047,14|2,1:2|1:2,0:0:0:0:
158,2,229333,1,0,1:0:0:0:
275,105,229514,1,10,0:0:0:0:
77,133,229695,6,0,P|69:98|57:45,1,77.0000023498536,2|4,1:2|1:2,0:0:0:0:
154,164,230056,1,2,1:2:0:0:
33,243,230237,2,0,B|83:216|118:231|101:237|146:261|198:238,1,154.000004699707,10|0,0:0|1:0,0:0:0:0:
82,307,230779,1,0,1:0:0:0:
154,164,230960,2,0,P|196:158|237:152,1,77.0000023498536,10|0,0:0|1:0,0:0:0:0:
380,111,231321,5,6,1:2:0:0:
300,91,231502,1,0,1:0:0:0:
402,185,231682,1,10,0:0:0:0:
435,52,231863,1,2,1:2:0:0:
310,243,232044,2,0,P|306:166|299:90,1,154.000004699707,14|8,1:2|0:0,0:0:0:0:
434,299,232586,6,0,B|394:281|349:306|376:308|329:335|278:317,1,154.000004699707,6|2,1:2|1:2,0:0:0:0:
185,269,233128,1,10,0:0:0:0:
306,169,233309,6,0,B|314:218|314:218|286:319,1,154.000004699707,6|0,1:2|1:0,0:0:0:0:
309,348,233761,1,0,1:0:0:0:
310,348,233851,2,0,L|326:285,1,38.5000011749268,10|8,0:0|0:0,0:0:0:0:
236,213,234032,1,0,1:0:0:0:
126,356,234213,6,0,P|174:349|206:345,1,70,14|0,0:2|0:0,0:0:0:0:
69,197,234574,2,0,P|34:192|0:187,1,70,10|0,0:2|0:0,0:0:0:0:
70,285,234935,1,10,0:2:0:0:
143,144,235116,1,2,3:2:0:0:
143,144,235207,1,0,3:0:0:0:
143,144,235297,2,0,P|135:85|133:52,1,70,8|0,0:2|3:0,0:0:0:0:
159,51,235568,1,0,3:0:0:0:
159,51,235658,6,0,L|216:46,1,35,10|0,1:2|3:0,0:0:0:0:
259,3,235839,2,0,L|316:8,1,35,2|0,3:2|3:0,0:0:0:0:
368,103,236020,2,0,L|271:95,1,70,8|2,0:2|3:2,0:0:0:0:
271,120,236291,1,0,3:0:0:0:
271,120,236381,1,10,0:0:0:0:
358,229,236562,1,2,3:2:0:0:
358,229,236652,1,0,3:0:0:0:
358,229,236743,2,0,L|370:167,1,35,10|0,0:0|0:0,0:0:0:0:
238,251,236923,2,0,L|231:285,1,35,10|8,0:0|0:0,0:0:0:0:
433,260,237104,6,0,B|453:226|453:226|449:180,1,77.0000023498536,14|0,1:2|1:0,0:0:0:0:
444,157,237375,1,0,1:0:0:0:
444,157,237466,1,10,0:0:0:0:
319,225,237646,2,0,L|382:230,1,38.5000011749268,0|0,1:2|1:0,0:0:0:0:
291,305,237827,1,10,1:2:0:0:
256,285,237917,1,0,1:0:0:0:
238,251,238007,1,0,1:0:0:0:
235,211,238098,1,0,1:0:0:0:
250,174,238188,1,8,0:0:0:0:
137,309,238369,5,0,1:0:0:0:
137,309,238460,1,0,1:0:0:0:
137,309,238550,2,0,B|170:319|170:319|165:249|147:189,1,154.000004699707,12|2,1:2|1:2,0:0:0:0:
60,308,239092,1,6,1:2:0:0:
291,305,239454,1,6,1:2:0:0:
194,80,239815,6,0,P|187:111|181:150,1,52.5000020027161,6|0,1:2|1:0,0:0:0:0:
201,200,240176,1,8,0:3:0:0:
350,138,240357,2,0,B|314:125|314:125|264:139,1,70,8|0,0:0|0:0,0:0:0:0:
263,151,240628,1,8,0:0:0:0:
263,151,240719,1,8,0:0:0:0:
314,212,240899,1,0,1:0:0:0:
451,185,241080,1,10,0:2:0:0:
455,150,241170,1,10,0:2:0:0:
459,115,241260,1,2,1:2:0:0:
463,80,241351,1,10,0:2:0:0:
444,42,241441,6,0,L|422:200,1,140,6|10,1:2|0:0,0:0:0:0:
329,280,241984,2,0,L|311:201,1,70,2|0,0:0|1:0,0:0:0:0:
328,181,242255,1,8,0:0:0:0:
328,181,242345,1,2,0:0:0:0:
253,306,242526,1,10,0:0:0:0:
164,213,242707,6,0,L|249:226,1,70,2|0,0:0|1:0,0:0:0:0:
95,150,243068,2,0,L|177:125,1,70,2|8,0:0|0:0,0:0:0:0:
5,122,243429,2,0,L|69:65,1,70,2|0,0:0|1:0,0:0:0:0:
79,56,243701,1,8,0:0:0:0:
79,56,243791,1,2,0:0:0:0:
241,116,243972,2,0,P|231:167|194:202,1,105,10|0,0:0|0:0,0:0:0:0:
164,213,244333,6,0,B|208:199|246:220|226:223|258:247|313:230,1,140,6|10,1:2|0:0,0:0:0:0:
416,154,244875,2,0,B|382:137|382:137|340:139,1,70,2|0,0:0|1:0,0:0:0:0:
323,155,245146,1,8,0:0:0:0:
323,155,245237,1,2,0:0:0:0:
369,275,245417,1,8,0:0:0:0:
491,232,245598,6,0,L|509:75,1,140,2|2,0:0|0:0,0:0:0:0:
383,6,246140,2,0,L|397:102,1,70,8|0,0:0|0:0,0:0:0:0:
323,155,246502,2,0,L|317:195,2,35,0|8|0,1:0|0:0|0:0,0:0:0:0:
244,81,246863,1,10,0:0:0:0:
212,68,246953,1,2,0:0:0:0:
178,72,247043,1,2,0:0:0:0:
150,92,247134,1,2,0:0:0:0:
137,125,247225,6,0,B|184:134|209:165|188:166|201:207|273:213,1,140,6|10,1:2|0:0,0:0:0:0:
351,273,247767,2,0,L|258:285,1,70,2|0,0:0|1:0,0:0:0:0:
260,303,248038,1,8,0:0:0:0:
260,303,248128,1,2,0:0:0:0:
345,195,248309,1,8,0:0:0:0:
276,146,248490,6,0,L|242:207,1,70,2|0,0:0|1:0,0:0:0:0:
155,306,248851,2,0,L|160:236,1,70,2|8,0:0|0:0,0:0:0:0:
63,126,249213,2,0,L|87:191,1,70,2|0,0:0|1:0,0:0:0:0:
73,223,249484,1,8,0:0:0:0:
73,223,249574,1,0,0:0:0:0:
224,103,249755,5,10,0:0:0:0:
249,296,249935,1,2,0:0:0:0:
150,105,250116,6,0,B|225:74|174:60|264:25,1,125.999996154785,12|0,1:2|0:0,0:0:0:0:
287,45,250478,1,10,0:0:0:0:
237,198,250658,1,6,1:2:0:0:
125,27,251020,1,6,1:2:0:0:
342,149,251381,6,0,P|331:222|313:282,1,112,12|8,0:0|0:0,0:0:0:0:
249,296,251923,1,8,0:0:0:0:
164,173,252104,1,8,0:0:0:0:
164,173,252195,2,0,P|170:211|177:258,1,84,8|8,0:0|0:0,0:0:0:0:
101,246,252646,1,8,0:0:0:0:
256,192,252827,1,8,0:0:0:0:
256,192,252917,1,8,0:0:0:0:
256,192,253008,1,4,0:1:0:0:
256,192,253098,12,2,257164,0:0:0:0:
