osu file format v14

[General]
AudioFilename: audio.mp3
AudioLeadIn: 0
PreviewTime: -1
Countdown: 0
SampleSet: Soft
StackLeniency: 0.3
Mode: 0
LetterboxInBreaks: 0
WidescreenStoryboard: 0

[Editor]
DistanceSpacing: 1.1
BeatDivisor: 4
GridSize: 32
TimelineZoom: 1

[Metadata]
Title:Edelweiss
TitleUnicode:Edelweiss
Artist:Asaka
ArtistUnicode:亜咲花
Creator:ak74
Version:Sincerely
Source:
Tags:
BeatmapID:1547653
BeatmapSetID:733273

[Difficulty]
HPDrainRate:6
CircleSize:3
OverallDifficulty:8.7
ApproachRate:9.5
SliderMultiplier:1.5
SliderTickRate:1

[Events]
//Background and Video events
0,0,"1.jpg",0,0
//Break Periods
//Storyboard Layer 0 (Background)
//Storyboard Layer 1 (Fail)
//Storyboard Layer 2 (Pass)
//Storyboard Layer 3 (Foreground)
//Storyboard Sound Samples

[TimingPoints]
6,365.853658536585,4,2,1,5,1,0
554,-500,4,2,1,5,0,0
1469,-100,4,2,1,5,0,0
12810,-66.6666666666667,4,2,1,5,0,0
13176,-80,4,2,1,5,0,0
16103,-100,4,2,1,5,0,0
16652,-66.6666666666667,4,2,1,5,0,0
17201,-50,4,2,1,5,0,0
17749,-40,4,2,1,5,0,0
19030,-200,4,2,1,5,0,0
29274,-400,4,2,1,5,0,0
30737,-100,4,2,1,5,0,0
31103,-80,4,2,1,5,0,0
31835,-100,4,2,1,5,0,0
33298,-80,4,2,1,5,0,0
33664,-100,4,2,1,5,0,0
34762,-80,4,2,1,5,0,0
35127,-100,4,2,1,5,0,0
36225,-80,4,2,1,5,0,0
37323,-100,4,2,1,5,0,0
37688,-80,4,2,1,5,0,0
38054,-100,4,2,1,5,0,0
39152,-66.6666666666667,4,2,1,5,0,0
39518,-100,4,2,1,5,0,0
39884,-66.6666666666667,4,2,1,5,0,0
40249,-80,4,2,1,5,0,0
40432,-66.6666666666667,4,2,1,5,0,0
40615,-57.1428571428571,4,2,1,5,0,0
42445,-40,4,2,1,5,0,0
42993,-100,4,2,1,5,0,0
46835,-80,4,2,1,5,0,0
47749,-66.6666666666667,4,2,1,5,0,0
47932,-57.1428571428571,4,2,1,5,0,0
48115,-50,4,2,1,5,0,0
48664,-80,4,2,1,5,0,0
50493,-57.1428571428571,4,2,1,5,0,0
51225,-66.6666666666667,4,2,1,5,0,0
52688,-57.1428571428571,4,2,1,5,0,0
53786,-400,4,2,1,5,0,0
54152,-80,4,2,1,5,0,1
58542,-66.6666666666667,4,2,1,5,0,1
59274,-57.1428571428571,4,2,1,5,0,1
60005,-80,4,2,1,5,0,1
64396,-66.6666666666667,4,2,1,5,0,1
65676,-100,4,2,1,5,0,1
65951,-66.6666666666667,4,2,1,5,0,1
66225,-40,4,2,1,5,0,1
66591,-50,4,2,1,5,0,1
67323,-66.6666666666667,4,2,1,5,0,1
68420,-57.1428571428571,4,2,1,5,0,1
68786,-66.6666666666667,4,2,1,5,0,1
70249,-57.1428571428571,4,2,1,5,0,1
70981,-50,4,2,1,5,0,1
71713,-45,4,2,1,5,0,1
72445,-66.6666666666667,4,2,1,5,0,1
72627,-57.1428571428571,4,2,1,5,0,1
72810,-50,4,2,1,5,0,1
73542,-40,4,2,1,5,0,1
74640,-80,4,2,1,5,0,1
77384,-66.6666666666667,4,2,1,5,0,1
79213,-45,4,2,1,5,0,1
79579,-66.6666666666667,4,2,1,5,0,1
80127,-50,4,2,1,5,0,1
86347,-80,4,2,1,5,0,0

[Colours]
Combo1 : 221,221,221
Combo2 : 0,255,255
Combo3 : 0,128,192
Combo4 : 128,255,255
Combo5 : 0,128,255

[HitObjects]
41,307,554,6,0,L|46:239,1,67.5
1,169,1469,6,0,P|38:213|139:116,1,225
92,7,2201,1,0,0:0:0:0:
144,132,2384,1,0,0:0:0:0:
209,81,2566,1,0,0:0:0:0:
274,30,2749,1,0,0:0:0:0:
353,118,2932,6,0,P|316:162|215:65,1,225
420,6,3664,2,0,L|428:83,2,75
209,86,4304,5,0,0:0:0:0:
209,86,4396,2,0,L|201:181,1,75
259,221,4762,1,0,0:0:0:0:
180,353,4945,1,0,0:0:0:0:
354,178,5127,6,0,P|285:123|258:220,1,225
478,295,5859,6,0,L|485:370,1,75
332,360,6225,1,0,0:0:0:0:
409,250,6408,1,0,0:0:0:0:
478,295,6591,6,0,B|347:268|407:349|255:320,1,225
118,231,7323,6,0,P|115:189|105:148,1,75
28,135,7688,1,0,0:0:0:0:
88,78,7871,1,0,0:0:0:0:
166,102,8054,1,0,0:0:0:0:
214,168,8237,1,0,0:0:0:0:
293,147,8420,1,0,0:0:0:0:
423,13,8603,6,0,P|351:28|369:98,1,150
420,145,9152,1,0,0:0:0:0:
499,124,9335,1,0,0:0:0:0:
468,335,9518,1,0,0:0:0:0:
392,303,9701,2,0,B|392:246|359:200|359:200|378:227|415:226,1,150
499,123,10249,6,0,P|460:68|386:111,1,150
358,200,10798,2,0,P|319:255|245:212,1,150
165,155,11347,2,0,P|174:113|175:65,1,75
92,20,11621,1,0,0:0:0:0:
75,27,11713,5,0,0:0:0:0:
67,34,12262,1,0,0:0:0:0:
59,41,12627,1,0,0:0:0:0:
59,41,12719,1,0,0:0:0:0:
59,41,12810,2,0,P|67:116|74:226,1,168.750006437302
34,282,13176,5,0,0:0:0:0:
360,220,13359,1,0,0:0:0:0:
205,353,13542,2,0,P|151:345|89:338,1,93.75
407,111,13908,5,0,0:0:0:0:
437,333,14091,1,0,0:0:0:0:
229,247,14274,1,0,0:0:0:0:
351,41,14457,6,0,B|380:-7|450:7|474:45|474:45|483:86,1,187.5
216,339,15005,2,0,P|221:292|228:246,1,93.75
407,111,15371,1,0,0:0:0:0:
499,322,15554,5,0,0:0:0:0:
484,340,15646,1,0,0:0:0:0:
468,357,15737,5,0,0:0:0:0:
426,288,15829,1,0,0:0:0:0:
355,252,15920,1,0,0:0:0:0:
278,274,16012,1,0,0:0:0:0:
216,339,16103,6,0,B|170:355|170:355|140:308|168:251,1,150
407,111,16652,6,0,B|446:84|446:84|431:116|435:155|435:155|390:112|312:142,1,225.000008583069
111,49,17201,6,0,B|75:30|34:36|34:36|53:14|94:-6|132:1|112:69|160:85|160:85|137:107|148:144,1,300
137,344,17749,6,0,B|105:382|58:386|11:361|1:323|11:249|71:258|71:258|81:302,1,281.25
78,291,18115,6,0,B|124:269|130:295|175:273,1,93.75
386,228,18298,5,0,0:0:0:0:
396,241,18390,1,0,0:0:0:0:
390,275,18481,1,0,0:0:0:0:
347,311,18573,1,0,0:0:0:0:
272,290,18664,5,0,0:0:0:0:
254,198,18756,1,0,0:0:0:0:
325,120,18847,1,0,0:0:0:0:
440,146,18939,1,0,0:0:0:0:
500,263,19030,6,0,L|495:314,1,37.5
443,108,19396,2,0,L|438:159,1,37.5
500,263,19762,1,0,0:0:0:0:
451,330,19945,1,0,0:0:0:0:
369,318,20127,2,0,L|364:369,1,37.5
180,163,20493,5,0,0:0:0:0:
254,198,20676,2,0,L|259:249,1,37.5
443,283,21042,1,0,0:0:0:0:
369,318,21225,2,0,L|364:369,1,37.5
254,198,21591,2,0,L|259:249,1,37.5
396,44,21957,6,0,L|391:95,1,37.5
254,198,22323,1,0,0:0:0:0:
197,138,22505,1,0,0:0:0:0:
118,164,22688,2,0,L|123:215,1,37.5
396,44,23054,2,0,L|391:95,1,37.5
332,138,23420,5,0,0:0:0:0:
310,58,23603,1,0,0:0:0:0:
381,15,23786,1,0,0:0:0:0:
485,181,23969,1,0,0:0:0:0:
474,262,24152,1,0,0:0:0:0:
281,324,24335,1,0,0:0:0:0:
292,243,24518,1,0,0:0:0:0:
356,293,24701,1,0,0:0:0:0:
143,384,24884,6,0,L|138:333,1,37.5
0,237,25249,2,0,L|5:186,1,37.5
183,276,25615,1,0,0:0:0:0:
143,384,25798,2,0,L|139:346,1,37.5
0,237,26164,1,0,0:0:0:0:
55,175,26347,6,0,L|60:124,1,37.5
297,79,26713,1,0,0:0:0:0:
216,98,26896,1,0,0:0:0:0:
159,37,27079,2,0,L|154:-14,1,37.5
55,175,27445,2,0,L|60:124,1,37.5
190,350,27810,6,0,L|181:264,1,75
105,306,28359,1,0,0:0:0:0:
319,217,28542,5,0,0:0:0:0:
237,207,28725,1,0,0:0:0:0:
0,52,28908,1,0,0:0:0:0:
82,42,29091,1,0,0:0:0:0:
148,90,29274,6,0,L|152:149,1,56.25
168,362,30005,5,0,0:0:0:0:
168,362,30737,6,0,P|209:356|270:351,1,75
503,259,31103,6,0,B|427:279|442:219|350:243,1,140.625
368,239,31469,5,0,0:0:0:0:
232,167,31652,1,0,0:0:0:0:
478,88,31835,2,0,P|482:134|483:186,1,75
321,367,32201,5,0,0:0:0:0:
305,285,32384,1,0,0:0:0:0:
438,339,32566,2,0,B|454:356|454:356|379:346,1,75
176,209,32932,5,0,0:0:0:0:
198,43,33115,1,0,0:0:0:0:
15,129,33298,2,0,B|31:138|31:138|75:129,1,46.875
198,43,33481,2,0,B|203:15|203:15|194:0,1,46.875
281,63,33664,6,0,B|363:42|348:102|424:82,1,150
251,217,34213,2,0,P|248:175|241:136,1,75
488,11,34579,1,0,0:0:0:0:
479,208,34762,6,0,B|431:216|431:216|397:182,1,93.75
166,86,35036,1,0,0:0:0:0:
166,86,35127,6,0,P|198:40|292:71,1,150
251,217,35676,1,0,0:0:0:0:
78,125,35859,2,0,P|46:107|6:115,1,75
22,378,36225,6,0,P|48:378|47:356,1,46.875
157,217,36408,2,0,P|149:196|128:200,1,46.875
30,280,36591,6,0,B|117:268|86:313|167:299,1,140.625
245,287,36957,1,0,0:0:0:0:
290,43,37140,1,0,0:0:0:0:
78,125,37323,2,0,L|84:205,1,75
245,287,37688,6,0,P|317:300|365:249,1,140.625
362,257,38054,5,0,0:0:0:0:
178,183,38237,1,0,0:0:0:0:
126,366,38420,2,0,L|211:355,1,75
54,309,38786,5,0,0:0:0:0:
94,73,38969,1,0,0:0:0:0:
332,120,39152,2,0,B|339:192|339:192|318:211|314:230,1,112.500004291535
462,275,39426,1,0,0:0:0:0:
462,275,39518,6,0,B|456:263|456:263|380:251,1,75
146,148,39884,2,0,B|152:136|152:136|255:119,1,112.500004291535
483,11,40249,6,0,P|497:0|500:23,1,46.875
454,90,40432,6,0,B|449:83|449:83|444:88|444:88|389:78,1,56.2500021457673
332,120,40615,6,0,L|340:213,1,75
276,253,40798,6,0,B|177:224|216:279|114:246|114:246|208:275|141:350|50:352|11:287|16:196|90:177,1,459.375004380941
62,191,41530,1,0,0:0:0:0:
232,327,41713,2,0,P|239:354|208:355,1,65.6250006258488
62,191,41896,5,0,0:0:0:0:
94,69,41987,1,0,0:0:0:0:
189,27,42079,1,0,0:0:0:0:
264,54,42170,1,0,0:0:0:0:
294,62,42262,1,0,0:0:0:0:
308,54,42353,1,0,0:0:0:0:
298,42,42445,6,0,B|304:99|304:99|346:129|346:129|360:220,2,187.5
508,109,42993,5,0,0:0:0:0:
427,92,43176,2,0,L|439:177,1,75
482,30,43542,1,0,0:0:0:0:
459,248,43725,1,0,0:0:0:0:
305,15,43908,6,0,L|317:100,1,75
459,248,44274,2,0,L|447:333,1,75
216,171,44640,1,0,0:0:0:0:
427,92,44823,1,0,0:0:0:0:
448,322,45005,2,0,L|363:310,1,75
75,207,45371,6,0,B|139:198|139:198|160:178|160:178|242:167,1,150
215,170,45920,1,0,0:0:0:0:
14,361,46103,2,0,L|24:286,1,75
215,170,46469,2,0,L|204:244,1,75
3,50,46835,6,0,B|41:79|41:79|187:54,1,187.5
387,59,47384,5,0,0:0:0:0:
369,45,47475,1,0,0:0:0:0:
351,31,47566,2,0,B|389:22|389:22|411:36,1,46.875
467,71,47749,6,0,B|461:116|461:116|436:134,1,56.2500021457673
381,167,47932,6,0,B|330:159|330:159|301:172,1,65.6250006258488
254,227,48115,6,0,P|247:314|430:285,1,300
452,122,48573,1,0,0:0:0:0:
381,167,48664,6,0,L|368:260,1,93.75
283,87,49030,1,0,0:0:0:0:
511,174,49213,1,0,0:0:0:0:
261,81,49396,1,0,0:0:0:0:
494,0,49579,1,0,0:0:0:0:
171,76,49762,6,0,B|159:92|159:92|241:72,1,93.75
12,25,50127,2,0,B|0:9|0:9|82:29,1,93.75
175,203,50493,6,0,B|206:173|206:173|182:303,1,131.250001251698
71,26,50859,2,0,B|40:-4|40:-4|64:126,1,131.250001251698
38,253,51134,1,0,0:0:0:0:
25,283,51225,6,0,L|97:269,1,56.2500021457673
230,192,51408,2,0,L|175:203,1,56.2500021457673
131,375,51591,6,0,L|203:361,1,56.2500021457673
336,284,51774,2,0,L|280:294,1,56.2500021457673
436,367,51957,5,0,0:0:0:0:
453,349,52048,1,0,0:0:0:0:
469,320,52140,1,0,0:0:0:0:
451,261,52231,1,0,0:0:0:0:
397,202,52323,1,0,0:0:0:0:
376,115,52414,1,0,0:0:0:0:
438,43,52505,2,0,P|473:51|451:76,1,56.2500021457673
397,202,52688,6,0,L|315:189,1,65.6250006258488
62,101,52871,2,0,L|144:88,1,65.6250006258488
269,7,53054,1,0,0:0:0:0:
269,7,53146,1,0,0:0:0:0:
269,7,53237,6,0,B|300:203|169:73|212:322,1,328.125003129244
315,274,53786,6,0,P|299:267|281:270,1,28.125
286,352,54152,5,0,0:0:0:0:
355,121,54335,1,0,0:0:0:0:
130,317,54518,5,0,0:0:0:0:
413,229,54701,1,0,0:0:0:0:
69,194,54884,5,0,0:0:0:0:
344,325,55066,1,0,0:0:0:0:
375,337,55158,1,0,0:0:0:0:
298,364,55249,5,0,0:0:0:0:
512,270,55432,1,0,0:0:0:0:
247,197,55615,5,0,0:0:0:0:
265,216,55707,1,0,0:0:0:0:
283,234,55798,1,0,0:0:0:0:
204,251,55890,1,0,0:0:0:0:
167,180,55981,2,0,P|173:131|181:76,1,93.75
371,56,56347,5,0,0:0:0:0:
405,41,56438,1,0,0:0:0:0:
389,7,56530,1,0,0:0:0:0:
359,80,56621,1,0,0:0:0:0:
411,140,56713,2,0,P|461:125|510:118,1,93.75
219,29,57079,5,0,0:0:0:0:
411,140,57262,1,0,0:0:0:0:
167,180,57445,1,0,0:0:0:0:
451,45,57627,2,0,L|394:40,1,46.875
219,29,57810,5,0,0:0:0:0:
408,239,57993,1,0,0:0:0:0:
67,189,58176,5,0,0:0:0:0:
323,99,58359,1,0,0:0:0:0:
25,26,58542,6,0,B|5:54|5:54|13:139,2,112.500004291535
67,189,59091,1,0,0:0:0:0:
241,170,59274,6,0,B|261:198|261:198|247:313,2,131.250001251698
187,354,59822,1,0,0:0:0:0:
166,370,59914,1,0,0:0:0:0:
108,358,60005,5,0,0:0:0:0:
11,112,60188,1,0,0:0:0:0:
249,294,60371,5,0,0:0:0:0:
0,246,60554,1,0,0:0:0:0:
374,170,60737,5,0,0:0:0:0:
134,244,60920,2,0,L|147:184,1,46.875
305,62,61103,5,0,0:0:0:0:
249,294,61286,1,0,0:0:0:0:
484,365,61469,5,0,0:0:0:0:
498,343,61560,1,0,0:0:0:0:
512,321,61652,1,0,0:0:0:0:
441,284,61743,1,0,0:0:0:0:
392,347,61835,2,0,B|380:365|380:365|298:355,1,93.75
101,201,62201,5,0,0:0:0:0:
68,183,62292,1,0,0:0:0:0:
82,148,62384,1,0,0:0:0:0:
143,198,62475,1,0,0:0:0:0:
98,263,62566,2,0,B|83:294|83:294|96:358,1,93.75
277,310,62841,1,0,0:0:0:0:
199,292,62932,5,0,0:0:0:0:
295,75,63115,1,0,0:0:0:0:
199,292,63298,1,0,0:0:0:0:
451,236,63481,1,0,0:0:0:0:
264,219,63664,5,0,0:0:0:0:
211,46,63847,1,0,0:0:0:0:
479,0,64030,1,0,0:0:0:0:
451,236,64213,1,0,0:0:0:0:
342,128,64396,5,0,0:0:0:0:
342,128,64579,2,0,L|352:206,1,56.2500021457673
175,383,64762,5,0,0:0:0:0:
175,383,64945,2,0,L|165:305,1,56.2500021457673
32,199,65127,5,0,0:0:0:0:
190,132,65219,1,0,0:0:0:0:
209,27,65310,1,0,0:0:0:0:
124,1,65402,1,0,0:0:0:0:
76,33,65493,1,0,0:0:0:0:
84,66,65585,1,0,0:0:0:0:
95,74,65676,2,0,L|100:126,1,37.5
89,267,65859,5,0,0:0:0:0:
109,346,65951,2,0,B|58:373|58:373|32:324,1,112.500004291535
190,132,66225,6,0,B|324:116|250:188|400:170,1,187.5
452,147,66499,1,0,0:0:0:0:
478,67,66591,6,0,P|440:25|402:96,1,150
303,291,66957,2,0,P|252:333|220:276,1,150
465,168,67323,6,0,B|485:268|485:268|449:275|423:330,1,168.750006437302
507,344,67688,1,0,0:0:0:0:
219,276,67871,1,0,0:0:0:0:
350,84,68054,6,0,B|384:40|384:40|444:60,1,112.500004291535
219,276,68420,2,0,B|154:293|154:293|97:249,1,131.250001251698
242,30,68786,5,0,0:0:0:0:
380,157,68969,2,0,L|386:224,1,56.2500021457673
317,358,69152,1,0,3:0:0:0:
305,344,69243,1,0,3:0:0:0:
293,330,69335,2,0,B|366:321|366:321|400:339|400:339|472:331,1,168.750006437302,0|0,3:0|3:0,3:0:0:0:
510,268,69701,6,0,L|504:211,1,56.2500021457673
385,36,69884,1,0,0:0:0:0:
235,146,70066,2,0,L|164:136,1,56.2500021457673
26,59,70249,6,0,B|126:30|126:30|88:66,1,131.250001251698
224,226,70615,2,0,B|205:245|205:245|234:145,1,131.250001251698
141,311,70981,2,0,B|116:331|116:331|0:310,2,150
234,144,71530,1,0,0:0:0:0:
351,58,71713,6,0,B|357:105|357:105|346:123|346:123|358:112|358:112|369:196,1,166.666666666667
130,28,72079,2,0,B|176:21|176:21|191:6|191:6|183:20|183:20|267:9,1,166.666666666667
437,106,72445,6,0,L|445:168,1,56.2500021457673
505,244,72627,2,0,P|499:274|492:264,1,65.6250006258488
422,332,72810,2,0,P|431:363|437:350,1,75
505,244,72993,6,0,B|429:146|347:217|347:217|332:253|303:264|303:264|326:243|361:250,1,300
336,339,73542,6,0,B|267:371|186:300|234:213|234:213|206:249|162:243|162:243|202:267|203:317,1,375
77,358,74091,5,0,0:0:0:0:
42,200,74182,1,0,0:0:0:0:
169,154,74274,1,0,0:0:0:0:
188,70,74365,1,0,0:0:0:0:
148,33,74457,1,0,0:0:0:0:
119,41,74548,1,0,0:0:0:0:
108,55,74640,6,0,L|95:152,1,93.75
294,358,75005,2,0,L|306:265,1,93.75
382,237,75280,1,0,0:0:0:0:
392,259,75371,1,0,0:0:0:0:
512,129,75554,1,0,0:0:0:0:
435,153,75646,1,0,0:0:0:0:
375,100,75737,2,0,L|387:7,1,93.75
253,56,76103,5,0,0:0:0:0:
466,23,76286,1,0,0:0:0:0:
128,81,76469,5,0,0:0:0:0:
375,100,76652,1,0,0:0:0:0:
5,106,76835,5,0,0:0:0:0:
218,169,77018,1,0,0:0:0:0:
217,248,77109,1,0,0:0:0:0:
148,207,77201,1,0,0:0:0:0:
370,249,77384,6,0,L|355:329,1,56.2500021457673
194,364,77566,2,0,B|182:306|182:306|157:278|157:278|145:192,1,168.750006437302
72,167,77932,2,0,L|81:94,1,56.2500021457673
201,0,78115,2,0,L|210:73,1,56.2500021457673
339,139,78298,5,0,0:0:0:0:
411,170,78390,1,0,0:0:0:0:
463,111,78481,2,0,L|471:49,1,56.2500021457673
259,135,78664,1,0,0:0:0:0:
478,299,78847,5,0,0:0:0:0:
478,299,78938,1,0,0:0:0:0:
478,299,79030,2,0,L|490:226,1,56.2500021457673
263,323,79213,6,0,B|251:314|237:311|237:311|277:321|307:290|307:290|317:354|381:380|433:347,1,250
251,231,79579,5,0,0:0:0:0:
251,231,79670,1,0,0:0:0:0:
251,231,79762,2,0,P|217:232|185:252,1,56.2500021457673
44,325,79945,2,0,P|78:326|110:346,1,56.2500021457673
309,290,80127,6,0,P|330:256|323:190,1,75
74,163,80310,2,0,P|92:198|153:225,1,75
301,22,80493,6,0,P|261:20|213:58,1,75
281,105,80676,5,0,0:0:0:0:
281,105,80859,1,0,0:0:0:0:
431,237,81042,6,0,P|471:235|519:273,1,75
451,320,81225,5,0,0:0:0:0:
451,320,81408,1,0,0:0:0:0:
163,359,81591,6,0,P|131:349|160:342,1,75
240,309,81774,1,0,0:0:0:0:
431,237,81957,6,0,B|436:201|436:201|429:190|429:190|435:151,1,75
441,68,82140,5,0,0:0:0:0:
441,68,82323,1,0,0:0:0:0:
254,0,82505,6,0,B|259:36|259:36|252:47|252:47|255:72,1,75
264,169,82688,5,0,0:0:0:0:
264,169,82871,1,0,0:0:0:0:
5,276,83054,5,0,0:0:0:0:
86,258,83146,1,0,0:0:0:0:
29,196,83237,1,0,0:0:0:0:
199,115,83420,6,0,B|161:124|171:91|127:101,1,75
264,169,83603,2,0,B|290:196|257:204|287:237,1,75
276,85,83786,2,0,B|286:48|309:72|323:30,1,75
128,101,83969,6,0,B|154:128|121:136|151:169,1,75
287,236,84152,2,0,B|297:199|320:223|334:181,1,75
322,30,84335,2,0,B|284:39|294:6|250:16,1,75
45,140,84518,6,0,P|33:176|56:176,1,75
138,335,84701,2,0,P|107:345|127:371,1,75
287,236,84884,6,0,B|378:212|355:268|447:243,1,150
496,192,85158,1,0,0:0:0:0:
480,111,85249,1,0,0:0:0:0:
480,111,85432,5,0,0:0:0:0:
317,146,85524,1,0,0:0:0:0:
287,236,85615,1,0,0:0:0:0:
361,272,85707,1,0,0:0:0:0:
367,308,85798,1,0,0:0:0:0:
357,336,85890,1,0,0:0:0:0:
282,367,85981,5,0,0:0:0:0:
222,309,86073,1,0,0:0:0:0:
113,349,86164,2,0,B|73:362|73:362|38:334,1,75
107,112,86347,5,0,0:0:0:0:
