osu file format v14

[General]
AudioFilename: audio.mp3
AudioLeadIn: 0
PreviewTime: 53396
Countdown: 0
SampleSet: Soft
StackLeniency: 0.7
Mode: 0
LetterboxInBreaks: 0
WidescreenStoryboard: 0

[Editor]
DistanceSpacing: 1.1
BeatDivisor: 2
GridSize: 4
TimelineZoom: 1.6

[Metadata]
Title:Edelweiss
TitleUnicode:Edelweiss
Artist:Asaka
ArtistUnicode:亜咲花
Creator:Nozhomi
Version:Normal
Source:セントールの悩み
Tags:centaur no nayami ed ending theme tv size 5pb.Records
BeatmapID:1416382
BeatmapSetID:669613

[Difficulty]
HPDrainRate:3.5
CircleSize:3.3
OverallDifficulty:4
ApproachRate:5
SliderMultiplier:1.2
SliderTickRate:1

[Events]
//Background and Video events
0,0,"bg.jpg",0,0
Video,0,"video_1.mp4"
//Break Periods
//Storyboard Layer 0 (Background)
//Storyboard Layer 1 (Fail)
//Storyboard Layer 2 (Pass)
//Storyboard Layer 3 (Foreground)
//Storyboard Sound Samples

[TimingPoints]
1079,365.853658536585,4,2,1,50,1,0
1079,-125,4,2,1,50,0,0
12786,-100,4,2,1,60,0,0
18639,-100,4,2,1,50,0,0
30347,-100,4,2,1,60,0,0
53761,-100,4,2,1,70,0,1
65469,-100,4,2,1,70,0,0
65835,-100,4,2,1,70,0,1
85774,-100,4,2,1,60,0,0
87146,-100,4,2,1,40,0,0

[Colours]
Combo1 : 33,183,190
Combo2 : 193,94,28
Combo3 : 203,194,33
Combo4 : 155,0,4

[HitObjects]
32,72,1079,6,0,P|116:33|201:72,1,192,2|2,0:0|0:0,0:0:0:0:
244,140,1993,2,0,L|240:240,1,96,0|0,0:0|0:0,0:0:0:0:
236,316,2542,2,0,P|259:356|303:374,1,96,2|0,0:0|0:0,0:0:0:0:
444,375,3274,2,0,P|487:356|511:316,1,96,2|2,0:0|0:0,0:0:0:0:
424,200,4005,6,0,P|378:188|332:199,1,96,2|0,0:0|0:0,0:0:0:0:
260,236,4554,2,0,P|214:247|168:236,1,96,2|0,0:0|0:0,0:0:0:0:
104,188,5103,1,2,0:0:0:0:
180,64,5469,2,0,L|296:72,1,96,2|0,0:0|0:0,0:0:0:0:
360,80,6018,1,2,0:0:0:0:
360,80,6200,2,0,L|432:64,2,48,2|0|2,0:0|0:0|0:0,0:0:0:0:
280,200,6932,6,0,P|256:291|280:383,1,192,2|0,0:0|0:0,0:0:0:0:
348,340,7847,2,0,L|348:240,1,96,2|2,0:0|0:0,0:0:0:0:
396,180,8396,2,0,L|396:84,1,96,0|2,0:0|0:0,0:0:0:0:
259,128,9127,2,0,P|213:137|166:127,1,96,2|0,0:0|0:0,0:0:0:0:
44,52,9859,6,0,L|48:148,1,96,2|0,0:0|0:0,0:0:0:0:
100,208,10408,2,0,L|104:304,1,96,2|2,0:0|0:0,0:0:0:0:
156,364,10957,1,0,0:0:0:0:
256,260,11322,2,0,B|272:192|236:192|256:118,1,144,8|0,0:3|0:3,0:0:0:0:
388,64,12237,2,0,P|402:109|394:156,1,96,4|0,0:3|0:0,0:0:0:0:
352,220,12786,6,0,L|360:352,1,120,4|0,3:2|1:0,0:0:0:0:
228,340,13518,2,0,L|235:220,1,120,4|0,0:3|1:0,0:0:0:0:
243,144,14066,1,0,0:0:0:0:
243,144,14249,2,0,P|185:159|128:143,1,120,4|0,0:3|1:0,0:0:0:0:
20,68,14981,1,4,0:3:0:0:
12,200,15347,2,0,L|12:284,1,60,0|0,1:0|1:0,0:0:0:0:
16,340,15713,6,0,P|76:364|148:348,1,120,4|0,0:3|1:0,0:0:0:0:
199,321,16261,2,0,P|255:304|312:321,1,120,4|0,0:3|1:0,0:0:0:0:
382,356,16810,2,0,P|441:363|496:340,1,120,4|0,0:3|1:0,0:0:0:0:
508,264,17359,1,4,0:3:0:0:
508,264,17542,2,0,L|504:200,1,60,0|4,1:0|0:3,0:0:0:0:
472,132,17908,2,0,B|416:112|416:112|297:133,1,180,0|2,1:0|0:0,0:0:0:0:
256,200,18639,5,4,0:3:0:0:
144,132,19005,1,4,0:3:0:0:
32,200,19371,2,0,P|15:256|29:314,1,120,4|4,0:3|0:3,0:0:0:0:
148,372,20103,1,4,0:3:0:0:
256,296,20469,1,4,0:3:0:0:
364,371,20835,2,0,P|385:316|381:257,1,120,4|4,0:3|0:3,0:0:0:0:
344,184,21383,1,2,0:0:0:0:
344,184,21566,6,0,P|339:124|361:69,1,120,4|4,0:3|0:3,0:0:0:0:
491,69,22298,2,0,P|513:124|508:184,1,120,4|4,0:3|0:3,0:0:0:0:
426,288,23030,1,4,0:3:0:0:
344,184,23396,1,4,0:3:0:0:
256,284,23761,2,0,L|256:360,2,60,4|2|4,0:3|0:0|0:3,0:0:0:0:
168,184,24493,5,4,0:3:0:0:
126,309,24859,1,4,0:3:0:0:
256,284,25225,1,4,0:3:0:0:
168,184,25591,2,0,L|40:192,1,120,4|4,0:3|0:3,0:0:0:0:
104,72,26322,1,4,0:3:0:0:
224,124,26688,2,0,L|352:116,1,120,4|4,0:3|0:3,0:0:0:0:
420,224,27420,6,0,P|364:256|288:248,1,120,4|4,0:3|0:3,0:0:0:0:
256,200,27969,1,2,0:0:0:0:
202,255,28152,2,0,P|142:254|92:224,1,120,4|4,0:3|0:3,0:0:0:0:
92,92,28883,2,0,P|142:62|202:61,1,120,2|0,0:0|0:0,0:0:0:0:
256,116,29432,2,0,L|256:192,1,60,2|2,0:0|0:0,0:0:0:0:
460,344,30347,6,0,L|460:200,1,120,4|0,0:3|1:0,0:0:0:0:
380,224,30896,2,0,L|380:344,1,120,2|0,0:0|0:0,0:0:0:0:
300,344,31444,1,0,1:0:0:0:
192,268,31810,2,0,P|168:213|176:154,1,120,4|0,0:3|1:0,0:0:0:0:
286,83,32542,2,0,P|309:138|301:197,1,120,4|0,0:3|1:0,0:0:0:0:
192,268,33274,6,0,L|72:256,1,120,4|0,0:3|1:0,0:0:0:0:
84,180,33822,2,0,L|204:192,1,120,0|0,0:0|0:0,0:0:0:0:
264,240,34371,1,0,1:0:0:0:
386,188,34737,2,0,P|399:246|384:303,1,120,4|0,0:3|1:0,0:0:0:0:
320,352,35286,2,0,P|264:371|209:352,1,120,0|0,0:0|0:0,0:0:0:0:
164,288,35835,1,0,1:0:0:0:
256,192,36200,6,0,L|392:196,1,120,4|0,0:3|1:0,0:0:0:0:
376,64,36932,2,0,L|256:60,1,120,4|0,0:3|1:0,0:0:0:0:
180,168,37664,2,0,P|164:220|204:288,1,120,4|0,0:3|1:0,0:0:0:0:
321,277,38396,2,0,P|346:224|331:167,1,120,4|0,0:3|1:0,0:0:0:0:
255,60,39127,6,0,L|136:64,1,120,4|0,0:3|1:0,0:0:0:0:
36,152,39859,1,4,0:3:0:0:
35,152,40042,2,0,P|29:181|34:210,2,60,0|0|4,1:0|1:0|0:3,0:0:0:0:
216,344,41139,6,0,L|288:340,1,60,2|2,0:0|0:0,0:0:0:0:
344,304,41505,2,0,L|404:308,2,60,0|0|2,1:0|1:0|3:0,0:0:0:0:
278,262,42054,1,0,3:0:0:0:
380,176,42420,6,0,P|384:112|332:60,1,120,4|4,1:2|0:3,0:0:0:0:
256,160,43152,1,0,1:0:0:0:
160,69,43518,2,0,P|126:117|132:176,1,120,4|0,0:3|1:0,0:0:0:0:
201,288,44249,2,0,P|256:308|311:287,1,120,4|0,0:3|1:0,0:0:0:0:
400,192,44981,6,0,L|408:72,1,120,4|0,0:3|1:0,0:0:0:0:
280,42,45713,2,0,L|272:162,1,120,4|0,0:3|1:0,0:0:0:0:
311,288,46444,1,4,0:3:0:0:
180,264,46810,1,0,1:0:0:0:
180,264,46993,2,0,P|152:276|104:280,2,60,0|4|4,1:0|0:3|0:3,0:0:0:0:
180,184,47542,2,0,P|152:172|104:168,1,60,0|0,1:0|1:0,0:0:0:0:
24,80,48091,5,4,0:3:0:0:
24,80,48274,2,0,L|148:76,1,120,0|4,1:0|0:3,0:0:0:0:
256,8,49005,1,0,1:0:0:0:
368,76,49371,2,0,L|488:80,1,120,4|0,0:3|1:0,0:0:0:0:
496,212,50103,2,0,L|376:208,1,120,4|0,0:3|1:0,0:0:0:0:
244,204,50835,6,0,P|204:224|100:224,2,120,0|0|0,1:0|1:0|1:0,0:0:0:0:
304,88,51932,1,0,1:0:0:0:
368,204,52298,2,0,L|372:296,2,60,0|0|0,1:0|1:0|1:0,0:0:0:0:
444,184,52847,2,0,B|447:271|447:271|441:329|377:345,1,180,0|2,1:0|0:0,0:0:0:0:
272,292,53761,6,0,B|212:280|212:280|155:292,1,120,4|0,3:2|1:0,0:0:0:0:
48,372,54493,2,0,P|24:319|38:233,1,120,4|0,0:3|1:0,0:0:0:0:
68,132,55225,2,0,P|71:72|47:18,1,120,4|0,0:3|1:0,0:0:0:0:
160,88,55957,2,0,P|192:100|252:100,1,60,4|0,0:3|0:0,0:0:0:0:
294,103,56322,2,0,P|324:98|352:88,1,60,0|2,1:0|0:0,0:0:0:0:
416,40,56688,6,0,P|431:96|404:148,1,120,4|0,0:3|1:0,0:0:0:0:
340,192,57237,2,0,L|348:356,1,120,2|0,0:0|0:0,0:0:0:0:
292,368,57786,1,2,1:2:0:0:
240,246,58152,2,0,L|234:126,1,120,4|0,0:3|1:0,0:0:0:0:
164,92,58700,1,2,0:0:0:0:
162,91,58883,2,0,P|147:116|143:146,1,60,4|0,0:3|0:0,0:0:0:0:
143,225,59249,2,0,P|150:253|168:277,1,60,0|2,1:0|0:0,0:0:0:0:
232,324,59615,6,0,L|351:321,1,120,4|0,0:3|1:0,0:0:0:0:
456,240,60347,2,0,P|465:181|442:126,1,120,4|0,0:3|1:0,0:0:0:0:
314,96,61078,2,0,P|255:108|197:95,1,120,4|0,0:3|1:0,0:0:0:0:
68,64,61810,2,0,P|62:93|67:123,1,60,4|0,0:3|0:0,0:0:0:0:
92,196,62176,2,0,P|97:225|92:255,1,60,0|2,1:0|0:0,0:0:0:0:
72,331,62542,6,0,L|204:327,1,120,4|0,0:3|1:0,0:0:0:0:
252,276,63091,2,0,L|371:272,1,120,2|0,0:0|0:0,0:0:0:0:
436,228,63639,1,0,1:0:0:0:
400,100,64005,2,0,P|341:88|285:106,1,120,4|0,0:3|1:0,0:0:0:0:
184,192,64737,1,0,0:0:0:0:
184,192,64920,2,0,P|187:221|184:251,2,60,2|0|0,0:0|0:0|0:0,0:0:0:0:
136,124,65469,2,0,P|106:119|76:123,1,60,2|0,0:0|0:0,0:0:0:0:
32,188,65835,6,0,P|22:252|59:327,1,120,4|4,1:2|0:3,0:0:0:0:
148,380,66566,1,0,1:0:0:0:
248,296,66932,2,0,L|368:292,1,120,4|0,0:3|1:0,0:0:0:0:
336,164,67664,2,0,B|276:166,1,60,4|0,0:3|0:0,0:0:0:0:
202,192,68030,2,0,B|142:194,1,60,0|2,1:0|0:0,0:0:0:0:
68,168,68396,6,0,P|82:116|148:76,1,120,4|0,0:3|1:0,0:0:0:0:
210,75,68944,2,0,P|258:108|276:164,1,120,2|0,0:0|0:0,0:0:0:0:
256,240,69493,1,0,1:0:0:0:
368,164,69859,2,0,L|360:24,1,120,4|0,0:3|1:0,0:0:0:0:
444,44,70408,1,2,0:0:0:0:
444,44,70591,2,0,L|447:103,1,60,4|0,0:3|0:0,0:0:0:0:
456,182,70957,2,0,L|459:241,1,60,0|2,1:0|0:0,0:0:0:0:
424,312,71322,6,0,P|368:332|304:317,1,120,4|0,0:3|1:0,0:0:0:0:
224,220,72054,1,4,0:3:0:0:
224,220,72237,2,0,L|220:136,1,60,0|4,1:0|0:3,0:0:0:0:
148,128,72603,2,0,P|84:120|20:176,1,120,4|4,0:0|0:3,0:0:0:0:
38,224,73152,2,0,P|89:252|147:242,1,120,0|4,1:0|0:3,0:0:0:0:
224,220,73700,1,0,1:0:0:0:
224,219,73883,2,0,P|253:215|283:219,1,60,0|0,1:0|1:0,0:0:0:0:
357,243,74249,6,0,P|415:252|466:224,1,120,4|0,3:2|1:0,0:0:0:0:
504,96,74981,1,4,0:3:0:0:
391,27,75347,1,0,1:0:0:0:
296,120,75713,2,0,P|237:132|179:119,1,120,4|0,0:3|1:0,0:0:0:0:
56,76,76444,2,0,P|95:120|114:177,1,120,4|0,0:3|1:0,0:0:0:0:
138,306,77176,6,0,P|156:249|196:205,1,120,4|0,0:3|1:0,0:0:0:0:
256,155,77725,1,2,0:0:0:0:
315,205,77908,2,0,P|355:249|374:306,1,120,4|0,0:3|1:0,0:0:0:0:
256,364,78639,1,0,0:3:0:0:
256,364,78822,2,0,L|192:360,2,60,4|0|4,1:2|1:0|0:3,0:0:0:0:
280,288,79371,2,0,L|216:284,1,60,4|0,0:3|1:0,0:0:0:0:
244,208,79737,2,0,L|303:211,1,60,8|0,0:3|0:3,0:0:0:0:
380,191,80103,6,0,P|396:134|380:77,1,120,4|4,1:0|0:3,0:0:0:0:
312,40,80652,2,0,L|156:48,1,120,4|4,1:2|0:3,0:0:0:0:
116,52,81200,1,0,1:0:0:0:
188,164,81566,6,0,L|307:158,1,120,0|4,1:0|0:3,0:0:0:0:
380,191,82115,2,0,P|396:247|376:310,1,120,0|4,1:0|0:3,0:0:0:0:
320,356,82664,1,0,1:0:0:0:
187,364,83030,6,0,P|130:351|88:309,1,120,0|4,1:0|0:3,0:0:0:0:
48,244,83578,2,0,P|35:186|57:130,1,120,0|4,1:0|0:3,0:0:0:0:
112,76,84127,1,0,1:0:0:0:
196,176,84493,6,0,L|196:264,2,60,0|4|0,1:0|0:3|1:0,0:0:0:0:
256,124,85042,2,0,L|256:48,2,60,4|0|0,0:3|1:0|1:0,0:0:0:0:
316,176,85591,1,0,1:0:0:0:
256,192,85774,12,2,87237,0:0:0:0:
