osu file format v14

[General]
AudioFilename: audio.mp3
AudioLeadIn: 0
PreviewTime: 53396
Countdown: 0
SampleSet: Soft
StackLeniency: 0.5
Mode: 0
LetterboxInBreaks: 0
WidescreenStoryboard: 0

[Editor]
DistanceSpacing: 1.5
BeatDivisor: 4
GridSize: 4
TimelineZoom: 1.6

[Metadata]
Title:Edelweiss
TitleUnicode:Edelweiss
Artist:Asaka
ArtistUnicode:亜咲花
Creator:Nozhomi
Version:Leontopodium
Source:セントールの悩み
Tags:centaur no nayami ed ending theme tv size 5pb.Records
BeatmapID:1416386
BeatmapSetID:669613

[Difficulty]
HPDrainRate:6
CircleSize:4.6
OverallDifficulty:8
ApproachRate:9
SliderMultiplier:1.8
SliderTickRate:1

[Events]
//Background and Video events
0,0,"bg.jpg",0,0
Video,0,"video_1.mp4"
//Break Periods
//Storyboard Layer 0 (Background)
//Storyboard Layer 1 (Fail)
//Storyboard Layer 2 (Pass)
//Storyboard Layer 3 (Foreground)
//Storyboard Sound Samples

[TimingPoints]
1079,365.853658536585,4,2,1,50,1,0
1079,-166.666666666667,4,2,1,50,0,0
12420,-100,4,2,1,60,0,0
18640,-133.333333333333,4,2,1,50,0,0
28883,-181.818181818181,4,2,1,50,0,0
30347,-100,4,2,1,60,0,0
42421,-100,4,2,1,60,0,0
53761,-83.3333333333333,4,2,1,70,0,1
65103,-166.666666666667,4,2,1,70,0,1
65469,-57.1428571428571,4,2,1,60,0,0
65835,-83.3333333333333,4,2,1,70,0,1
85774,-100,4,2,1,60,0,0
87146,-100,4,2,1,40,0,0

[Colours]
Combo1 : 33,183,190
Combo2 : 193,94,28
Combo3 : 203,194,33
Combo4 : 155,0,4

[HitObjects]
424,296,1079,6,0,L|312:288,1,107.999996704102,2|0,0:0|0:0,0:0:0:0:
256,224,1627,1,0,0:0:0:0:
192,280,1810,2,0,P|191:308|196:352,1,53.9999983520508,2|0,0:0|0:0,0:0:0:0:
256,224,2176,2,0,P|257:196|252:152,1,53.9999983520508,2|0,0:0|0:0,0:0:0:0:
172,64,2542,6,0,P|228:76|299:66,1,107.999996704102,2|0,0:0|0:0,0:0:0:0:
360,44,3091,1,0,0:0:0:0:
424,104,3274,2,0,P|430:132|424:168,1,53.9999983520508,2|0,0:0|0:0,0:0:0:0:
400,240,3639,1,2,0:0:0:0:
400,240,4005,6,0,P|351:200|344:136,1,107.999996704102,2|0,0:0|0:0,0:0:0:0:
328,72,4554,1,2,0:0:0:0:
328,72,4737,2,0,P|300:104|276:112,1,53.9999983520508,2|0,0:0|0:0,0:0:0:0:
221,108,5103,2,0,P|198:94|184:72,1,53.9999983520508,2|0,0:0|0:0,0:0:0:0:
256,212,5469,6,0,P|268:263|256:315,1,107.999996704102,2|0,0:0|0:0,0:0:0:0:
184,368,6018,1,2,0:0:0:0:
108,328,6200,2,0,B|32:332,1,53.9999983520508,2|0,0:0|0:0,0:0:0:0:
135,263,6566,2,0,B|189:266,1,53.9999983520508,2|0,0:0|0:0,0:0:0:0:
228,140,6932,6,0,P|173:123|112:144,1,107.999996704102,2|0,0:0|0:0,0:0:0:0:
63,202,7481,1,2,0:0:0:0:
98,278,7664,1,0,0:0:0:0:
189,266,7847,1,2,0:0:0:0:
204,174,8030,1,0,0:0:0:0:
123,134,8213,6,0,P|159:95|211:83,1,107.999996704102,2|0,0:0|0:0,0:0:0:0:
296,112,8761,2,0,L|368:108,1,53.9999983520508,2|0,0:0|0:0,0:0:0:0:
472,104,9127,2,0,L|418:106,1,53.9999983520508,2|0,0:0|0:0,0:0:0:0:
380,320,9676,1,0,0:0:0:0:
380,320,9859,6,0,P|368:256|384:200,1,107.999996704102,2|0,0:0|0:0,0:0:0:0:
448,301,10408,2,0,P|450:330|436:364,1,53.9999983520508,2|0,0:0|0:0,0:0:0:0:
332,374,10774,2,0,P|315:352|308:326,1,53.9999983520508,2|0,0:0|0:0,0:0:0:0:
308,240,11139,1,2,0:0:0:0:
372,120,11322,5,8,0:3:0:0:
356,128,11871,1,0,0:3:0:0:
236,164,12237,1,4,0:3:0:0:
212,160,12328,1,4,0:3:0:0:
188,156,12420,2,0,P|168:116|180:64,1,90,0|0,1:0|0:0,0:0:0:0:
337,72,12786,6,0,P|343:116|324:156,1,90,4|0,3:2|0:0,0:0:0:0:
236,232,13152,2,0,L|121:214,1,90,0|0,1:0|0:0,0:0:0:0:
176,332,13518,1,4,0:3:0:0:
236,232,13700,1,0,0:0:0:0:
304,360,13883,2,0,P|352:364|404:344,1,90,0|0,1:0|0:0,0:0:0:0:
492,290,14249,5,4,0:3:0:0:
428,192,14432,1,0,0:0:0:0:
492,94,14615,2,0,P|502:50|492:7,1,90,0|0,1:0|0:0,0:0:0:0:
380,50,14981,1,4,0:3:0:0:
308,144,15164,1,0,0:0:0:0:
272,32,15347,1,0,1:0:0:0:
396,160,15530,1,0,1:0:0:0:
412,176,15621,1,0,1:0:0:0:
428,192,15713,6,0,L|423:294,1,90,4|0,0:3|0:0,0:0:0:0:
332,364,16078,5,0,1:0:0:0:
428,192,16261,1,4,0:3:0:0:
332,364,16627,5,0,1:0:0:0:
412,176,16810,1,4,0:3:0:0:
332,364,17176,5,0,1:0:0:0:
396,160,17359,1,4,0:3:0:0:
185,206,17542,1,0,1:0:0:0:
339,371,17725,5,4,0:3:0:0:
339,371,17816,1,4,0:3:0:0:
339,371,17908,2,0,P|355:303|331:223,1,135,0|0,1:0|0:0,0:0:0:0:
232,140,18274,2,0,L|172:144,1,45,2|0,0:0|0:0,0:0:0:0:
276,88,18457,2,0,L|320:91,1,45,2|0,0:0|0:0,0:0:0:0:
228,32,18639,5,4,0:3:0:0:
348,160,19005,1,4,0:3:0:0:
180,208,19371,2,0,B|28:204,1,135.000005149842,4|4,0:3|0:3,0:0:0:0:
120,44,20103,1,4,0:3:0:0:
180,208,20469,1,4,0:3:0:0:
321,91,20835,2,0,P|376:90|422:154,1,135.000005149842,4|4,0:3|0:3,0:0:0:0:
412,236,21383,1,2,0:0:0:0:
344,184,21566,5,4,0:3:0:0:
256,336,21932,1,4,0:3:0:0:
168,184,22298,2,0,P|104:172|40:224,1,135.000005149842,4|4,0:3|0:3,0:0:0:0:
140,360,23030,1,4,0:3:0:0:
256,228,23396,1,4,0:3:0:0:
372,360,23761,2,0,P|380:320|368:280,1,67.5000025749208,4|2,0:3|0:0,0:0:0:0:
344,212,24127,2,0,P|336:172|348:132,1,67.5000025749208,4|2,0:3|0:0,0:0:0:0:
424,232,24493,5,4,0:3:0:0:
256,180,24859,1,4,0:3:0:0:
92,240,25225,2,0,P|63:180|90:121,1,135.000005149842,4|4,0:3|0:3,0:0:0:0:
240,28,25957,1,4,0:3:0:0:
180,192,26322,1,4,0:3:0:0:
352,152,26688,2,0,B|456:144|456:144|441:178,1,135.000005149842,4|4,0:3|0:3,0:0:0:0:
364,328,27420,5,4,0:3:0:0:
352,152,27786,1,4,0:3:0:0:
292,212,27969,1,2,0:0:0:0:
292,212,28152,2,0,P|232:220|144:192,1,135.000005149842,4|4,0:3|0:3,0:0:0:0:
192,76,28883,6,0,P|244:72|304:92,1,99.0000030212403,2|0,0:0|0:0,0:0:0:0:
352,152,29432,1,2,0:0:0:0:
352,152,29615,1,2,0:0:0:0:
56,52,30347,6,0,L|60:160,1,90,4|0,0:3|0:0,0:0:0:0:
64,260,30713,1,0,1:0:0:0:
160,196,30896,1,2,0:0:0:0:
256,260,31078,2,0,P|299:271|342:259,1,90,4|0,0:3|0:0,0:0:0:0:
476,212,31444,2,0,P|432:200|389:212,1,90,0|2,1:0|0:0,0:0:0:0:
401,365,31810,6,0,P|416:323|406:280,1,90,4|0,0:3|0:0,0:0:0:0:
320,188,32176,1,0,1:0:0:0:
420,112,32359,1,2,0:0:0:0:
304,60,32542,2,0,L|192:64,1,90,4|0,0:3|0:0,0:0:0:0:
88,76,32908,1,0,1:0:0:0:
136,192,33091,1,2,0:3:0:0:
284,128,33274,6,0,L|396:132,1,90,4|0,0:3|0:0,0:0:0:0:
444,236,33639,1,0,1:0:0:0:
320,228,33822,1,0,0:0:0:0:
400,324,34005,2,0,P|444:336|493:321,2,90,4|0|0,0:3|0:0|1:0,0:0:0:0:
320,228,34554,1,2,0:0:0:0:
240,132,34737,6,0,P|196:120|147:135,1,90,4|0,0:3|0:0,0:0:0:0:
36,224,35103,1,0,1:0:0:0:
36,104,35286,1,0,0:0:0:0:
112,204,35469,2,0,L|116:316,1,90,4|0,0:3|0:0,0:0:0:0:
241,244,35835,1,0,1:0:0:0:
112,204,36018,1,2,0:3:0:0:
260,136,36200,6,0,L|384:140,1,90,4|0,0:3|0:0,0:0:0:0:
372,264,36566,1,0,1:0:0:0:
241,244,36749,1,2,0:0:0:0:
352,60,36932,6,0,P|422:107|408:191,1,180,4|0,0:3|1:0,0:0:0:0:
256,112,37481,1,2,0:0:0:0:
103,191,37664,2,0,P|89:107|159:60,1,180,4|0,0:3|1:0,0:0:0:0:
256,176,38213,5,2,0:0:0:0:
168,312,38396,1,4,0:3:0:0:
344,312,38578,1,0,0:0:0:0:
192,232,38761,2,0,P|144:220|80:224,1,90,0|2,1:0|0:0,0:0:0:0:
320,232,39127,6,0,B|314:91|314:91|376:128,1,180,4|0,0:3|1:0,0:0:0:0:
455,180,39676,1,2,0:0:0:0:
460,54,39859,1,4,0:3:0:0:
348,111,40042,1,0,1:0:0:0:
484,196,40225,1,0,1:0:0:0:
480,36,40408,1,4,0:3:0:0:
460,54,41139,5,2,0:0:0:0:
336,28,41322,1,2,0:0:0:0:
364,152,41505,6,0,P|362:177|348:204,1,45,0|0,1:0|1:0,0:0:0:0:
296,156,41688,2,0,P|276:172|247:181,1,45,0|0,1:0|1:0,0:0:0:0:
240,112,41871,2,0,P|215:110|187:96,1,45,2|2,3:0|3:0,0:0:0:0:
272,193,42054,5,0,3:0:0:0:
272,193,42146,1,0,3:0:0:0:
272,193,42237,1,0,3:0:0:0:
272,193,42328,1,0,3:0:0:0:
272,193,42420,6,0,B|267:347|267:347|307:327,1,180,4|4,1:2|0:3,0:0:0:0:
400,272,42969,1,2,0:0:0:0:
364,152,43152,2,0,P|356:104|372:56,1,90,0|0,1:0|0:0,0:0:0:0:
436,180,43518,6,0,L|256:173,1,180,4|0,0:3|1:0,0:0:0:0:
156,248,44066,1,2,0:0:0:0:
224,104,44249,2,0,L|313:107,1,90,4|2,0:3|0:0,0:0:0:0:
380,248,44615,2,0,L|290:244,1,90,0|0,1:0|0:0,0:0:0:0:
168,144,44981,6,0,P|156:97|173:58,1,90,4|0,0:3|0:0,0:0:0:0:
288,12,45347,1,0,1:0:0:0:
272,136,45530,1,2,0:0:0:0:
171,60,45713,2,0,L|56:64,1,90,4|2,0:3|0:0,0:0:0:0:
144,280,46078,2,0,P|180:224|164:140,1,135,0|0,1:0|0:0,0:0:0:0:
168,144,46444,5,4,0:3:0:0:
16,212,46810,1,0,1:0:0:0:
144,280,46993,1,0,1:0:0:0:
164,276,47085,1,0,1:0:0:0:
184,272,47176,1,4,0:3:0:0:
256,136,47359,1,4,0:3:0:0:
328,272,47542,1,0,1:0:0:0:
472,196,47725,1,0,1:0:0:0:
397,324,48091,5,4,0:3:0:0:
397,324,48182,1,4,0:3:0:0:
397,324,48274,2,0,L|401:232,1,90,0|2,1:0|0:0,0:0:0:0:
408,95,48639,2,0,P|371:122|327:130,1,90,4|2,0:3|0:0,0:0:0:0:
256,24,49005,1,0,1:0:0:0:
184,131,49188,1,0,0:0:0:0:
52,72,49371,6,0,L|59:161,1,90,4|0,0:3|0:0,0:0:0:0:
192,42,49737,2,0,L|184:131,1,90,0|2,1:0|0:0,0:0:0:0:
40,4,50103,1,4,0:3:0:0:
59,161,50286,1,2,0:0:0:0:
192,42,50469,2,0,L|301:49,1,90,0|0,1:0|0:0,0:0:0:0:
384,189,50835,6,0,P|328:232|216:220,2,180,0|0|0,1:0|1:0|1:0,0:0:0:0:
384,14,51749,1,4,0:3:0:0:
281,155,51932,1,0,1:0:0:0:
447,101,52115,1,4,0:3:0:0:
281,47,52298,1,0,1:0:0:0:
384,189,52481,1,0,1:0:0:0:
168,120,52664,5,0,1:0:0:0:
168,120,52755,1,0,1:0:0:0:
168,120,52847,2,0,B|128:128|92:96|92:96|132:180|96:220|96:220|68:196|84:160,1,270,0|2,1:0|0:0,0:0:0:0:
344,96,53761,6,0,P|404:88|468:128,1,107.999996704102,4|0,3:2|0:0,0:0:0:0:
446,277,54127,2,0,P|396:297|344:288,1,107.999996704102,0|2,1:0|0:0,0:0:0:0:
224,192,54493,1,4,0:3:0:0:
344,96,54676,1,0,0:0:0:0:
344,288,54859,1,0,1:0:0:0:
500,176,55042,1,2,0:0:0:0:
280,128,55225,6,0,L|164:124,1,107.999996704102,4|0,0:3|0:0,0:0:0:0:
344,96,55591,2,0,L|451:92,1,107.999996704102,0|2,1:0|0:0,0:0:0:0:
360,228,55957,1,4,0:3:0:0:
280,60,56139,1,0,0:0:0:0:
184,220,56322,1,0,1:0:0:0:
344,132,56505,1,2,0:0:0:0:
223,288,56688,6,0,P|172:298|125:272,1,107.999996704102,4|0,0:3|0:0,0:0:0:0:
72,113,57054,1,0,1:0:0:0:
236,144,57237,2,0,P|270:183|272:236,1,107.999996704102,2|4,0:0|0:3,0:0:0:0:
162,364,57603,1,0,0:0:0:0:
100,208,57786,2,0,P|117:157|162:130,1,107.999996704102,2|0,1:2|0:0,0:0:0:0:
368,124,58152,6,0,L|500:132,1,107.999996704102,4|0,0:3|0:0,0:0:0:0:
412,280,58518,1,0,1:0:0:0:
368,124,58700,1,2,0:0:0:0:
288,264,58883,1,4,0:3:0:0:
140,200,59066,1,0,0:0:0:0:
220,340,59249,2,0,L|80:352,1,107.999996704102,0|2,1:0|0:0,0:0:0:0:
288,264,59615,6,0,P|302:212|287:161,1,107.999996704102,4|0,0:3|0:0,0:0:0:0:
176,44,59981,1,0,1:0:0:0:
140,200,60164,1,2,0:0:0:0:
287,161,60347,1,4,0:3:0:0:
156,272,60530,2,0,L|48:259,1,107.999996704102,0|0,0:0|1:0,0:0:0:0:
124,112,60896,1,2,0:0:0:0:
260,264,61078,5,4,0:3:0:0:
360,136,61261,2,0,P|368:88|360:16,1,107.999996704102,0|0,0:0|1:0,0:0:0:0:
208,80,61627,1,2,0:0:0:0:
312,204,61810,2,0,L|444:196,1,107.999996704102,4|0,0:3|0:0,0:0:0:0:
374,354,62176,1,0,1:0:0:0:
312,204,62359,1,2,0:0:0:0:
132,312,62542,6,0,L|24:304,1,107.999996704102,4|0,0:3|0:0,0:0:0:0:
92,156,62908,1,0,1:0:0:0:
204,340,63091,2,0,L|312:332,1,107.999996704102,2|4,0:0|0:3,0:0:0:0:
244,184,63457,1,0,0:0:0:0:
204,340,63639,1,0,1:0:0:0:
380,212,63822,2,0,P|392:159|379:107,1,107.999996704102,2|4,0:0|0:3,0:0:0:0:
256,4,64188,1,0,0:0:0:0:
132,108,64371,1,0,1:0:0:0:
256,260,64554,5,0,1:0:0:0:
273,257,64646,1,0,1:0:0:0:
291,255,64737,1,8,0:3:0:0:
309,253,64828,1,8,0:3:0:0:
327,251,64920,1,8,0:3:0:0:
344,249,65011,1,8,0:3:0:0:
362,247,65103,6,0,L|444:260,1,80.9999975280763,4|0,0:3|0:0,0:0:0:0:
448,267,65469,5,2,0:0:0:0:
447,267,65560,2,0,P|453:195|382:183,1,157.500001502037,2|0,0:0|0:0,0:0:0:0:
362,247,65835,6,0,L|366:367,1,107.999996704102,4|2,1:2|0:0,0:0:0:0:
211,305,66200,1,4,0:3:0:0:
362,247,66383,1,0,0:0:0:0:
244,136,66566,2,0,P|232:76|272:28,1,107.999996704102,0|2,1:0|0:0,0:0:0:0:
300,196,66932,6,0,P|246:219|175:180,1,107.999996704102,4|0,0:3|0:0,0:0:0:0:
68,112,67298,1,0,1:0:0:0:
68,276,67481,1,2,0:0:0:0:
201,205,67664,2,0,P|218:155|203:104,1,107.999996704102,4|0,0:3|0:0,0:0:0:0:
58,33,68030,1,0,1:0:0:0:
36,194,68213,1,2,0:0:0:0:
203,104,68396,6,0,L|320:112,1,107.999996704102,4|0,0:3|0:0,0:0:0:0:
464,52,68761,1,0,1:0:0:0:
440,236,68944,2,0,P|380:220|348:172,1,107.999996704102,2|4,0:0|0:3,0:0:0:0:
264,16,69310,1,0,0:0:0:0:
148,164,69493,2,0,P|112:203|60:214,1,107.999996704102,0|2,1:0|0:0,0:0:0:0:
236,104,69859,6,0,L|232:216,1,107.999996704102,4|0,0:3|0:0,0:0:0:0:
296,360,70225,1,0,1:0:0:0:
360,211,70408,1,2,0:0:0:0:
204,292,70591,2,0,P|140:308|80:272,1,107.999996704102,4|0,0:3|0:0,0:0:0:0:
308,292,70957,2,0,P|372:308|432:272,1,107.999996704102,0|2,1:0|0:0,0:0:0:0:
492,116,71322,5,4,0:3:0:0:
360,211,71505,1,0,0:0:0:0:
388,20,71688,1,0,1:0:0:0:
256,115,71871,1,2,0:0:0:0:
124,20,72054,1,4,0:3:0:0:
208,196,72237,2,0,L|204:312,1,107.999996704102,0|4,1:0|0:3,0:0:0:0:
27,335,72603,6,0,P|-4:235|35:136,1,215.999993408203,4|4,0:0|0:3,0:0:0:0:
200,60,73152,2,0,L|320:64,1,107.999996704102,0|2,1:0|0:0,0:0:0:0:
464,16,73518,1,4,0:3:0:0:
384,180,73700,1,0,1:0:0:0:
375,201,73792,1,0,1:0:0:0:
371,222,73883,1,0,1:0:0:0:
370,243,73975,1,0,1:0:0:0:
378,262,74066,1,0,1:0:0:0:
389,280,74158,1,0,1:0:0:0:
404,298,74249,6,0,P|344:284|267:309,1,107.999996704102,4|0,3:2|0:0,0:0:0:0:
156,372,74615,1,0,1:0:0:0:
220,224,74798,1,2,0:0:0:0:
76,296,74981,1,4,0:3:0:0:
232,332,75164,1,0,0:0:0:0:
112,188,75347,2,0,P|136:124|184:108,1,107.999996704102,0|2,1:0|0:0,0:0:0:0:
343,108,75713,6,0,P|387:136|400:188,1,107.999996704102,4|0,0:3|0:0,0:0:0:0:
304,320,76078,2,0,L|448:316,1,107.999996704102,0|2,1:0|0:0,0:0:0:0:
208,320,76444,2,0,L|64:316,1,107.999996704102,4|0,0:3|0:0,0:0:0:0:
140,156,76810,1,0,1:0:0:0:
256,268,76993,1,2,0:0:0:0:
372,156,77176,6,0,P|391:105|371:52,1,107.999996704102,4|0,0:3|0:0,0:0:0:0:
216,104,77542,1,0,1:0:0:0:
372,156,77725,1,2,0:0:0:0:
256,268,77908,1,4,0:3:0:0:
216,104,78091,1,0,0:0:0:0:
372,156,78274,2,0,L|488:152,1,107.999996704102,0|2,1:0|0:0,0:0:0:0:
440,312,78639,5,0,0:3:0:0:
300,208,78822,1,4,1:2:0:0:
300,208,78914,1,0,1:0:0:0:
300,208,79005,1,0,1:0:0:0:
487,159,79188,1,4,0:3:0:0:
487,159,79280,1,4,0:3:0:0:
487,159,79371,1,4,0:3:0:0:
360,40,79554,1,0,1:0:0:0:
388,232,79737,1,8,0:3:0:0:
224,124,79920,1,0,0:3:0:0:
416,96,80103,5,4,1:0:0:0:
300,236,80286,1,4,0:3:0:0:
300,236,80469,1,4,0:3:0:0:
96,96,80652,5,4,1:2:0:0:
212,236,80835,1,4,0:3:0:0:
212,236,81018,1,4,0:3:0:0:
348,68,81200,5,0,1:0:0:0:
164,68,81383,1,4,0:3:0:0:
256,264,81566,5,0,1:0:0:0:
92,348,81749,1,4,0:3:0:0:
64,164,81932,1,4,0:3:0:0:
256,264,82115,5,0,1:0:0:0:
420,348,82298,1,4,0:3:0:0:
448,164,82481,1,4,0:3:0:0:
256,264,82664,5,0,1:0:0:0:
256,40,82847,1,4,0:3:0:0:
156,212,83030,5,0,1:0:0:0:
356,212,83213,1,4,0:3:0:0:
256,40,83396,1,4,0:3:0:0:
256,264,83578,5,0,1:0:0:0:
356,92,83761,1,4,0:3:0:0:
156,92,83944,1,4,0:3:0:0:
256,284,84127,5,0,1:0:0:0:
436,160,84310,1,4,0:3:0:0:
256,40,84493,5,0,1:0:0:0:
76,160,84676,1,4,0:3:0:0:
52,156,84768,1,4,0:3:0:0:
28,152,84859,1,0,1:0:0:0:
184,215,85042,1,4,0:3:0:0:
208,211,85133,1,4,0:3:0:0:
232,207,85225,2,0,P|253:174|256:135,1,53.9999983520508,0|0,1:0|1:0,0:0:0:0:
352,155,85408,2,0,P|330:122|328:83,1,53.9999983520508,0|0,1:0|1:0,0:0:0:0:
232,87,85591,2,0,P|253:54|256:15,1,53.9999983520508,0|0,1:0|1:0,0:0:0:0:
256,192,85774,12,2,87237,0:0:0:0:
