osu file format v14

[General]
AudioFilename: audio.mp3
AudioLeadIn: 0
PreviewTime: 53396
Countdown: 0
SampleSet: Soft
StackLeniency: 0.7
Mode: 0
LetterboxInBreaks: 0
WidescreenStoryboard: 0

[Editor]
Bookmarks: 57786
DistanceSpacing: 1
BeatDivisor: 4
GridSize: 4
TimelineZoom: 1.6

[Metadata]
Title:Edelweiss
TitleUnicode:Edelweiss
Artist:Asaka
ArtistUnicode:亜咲花
Creator:Nozhomi
Version:Easy
Source:セントールの悩み
Tags:centaur no nayami ed ending theme tv size 5pb.Records
BeatmapID:1416380
BeatmapSetID:669613

[Difficulty]
HPDrainRate:2
CircleSize:3
OverallDifficulty:2.2
ApproachRate:3
SliderMultiplier:1
SliderTickRate:1

[Events]
//Background and Video events
0,0,"bg.jpg",0,0
Video,0,"video_1.mp4"
//Break Periods
//Storyboard Layer 0 (Background)
//Storyboard Layer 1 (Fail)
//Storyboard Layer 2 (Pass)
//Storyboard Layer 3 (Foreground)
//Storyboard Sound Samples

[TimingPoints]
1079,365.853658536585,4,2,1,50,1,0
12786,-100,4,2,1,60,0,0
18639,-100,4,2,1,50,0,0
30347,-100,4,2,1,60,0,0
53761,-100,4,2,1,70,0,1
65469,-100,4,2,1,70,0,0
65835,-100,4,2,1,70,0,1
85774,-100,4,2,1,60,0,0
87146,-100,4,2,1,40,0,0

[Colours]
Combo1 : 33,183,190
Combo2 : 193,94,28
Combo3 : 203,194,33
Combo4 : 155,0,4

[HitObjects]
480,72,1079,6,0,P|367:29|240:80,1,250,2|2,0:0|0:0,0:0:0:0:
204,160,2359,2,0,L|208:316,1,150,2|2,0:0|0:0,0:0:0:0:
108,288,3274,2,0,L|105:188,1,100,2|0,0:0|0:0,0:0:0:0:
99,88,4005,6,0,P|33:118|5:186,2,150,2|2|2,0:0|0:0|0:0,0:0:0:0:
196,112,5469,2,0,P|244:121|293:111,1,100,2|0,0:0|0:0,0:0:0:0:
388,79,6200,2,0,P|436:70|485:80,1,100,2|2,0:0|0:0,0:0:0:0:
485,180,6932,6,0,B|437:196|368:172|368:172|384:256|312:296,1,250,2|2,0:0|0:0,0:0:0:0:
240,336,8213,2,0,L|84:328,1,150,2|2,0:0|0:0,0:0:0:0:
122,233,9128,2,0,L|221:237,1,100,2|0,0:0|0:0,0:0:0:0:
308,192,9859,6,0,P|335:123|314:53,2,150,2|2|0,0:0|0:0|0:0,0:0:0:0:
204,192,11322,2,0,P|176:123|197:53,2,150,8|0|0,0:3|0:3|1:0,0:0:0:0:
256,280,12786,6,0,L|455:276,1,200,4|4,3:2|0:3,0:0:0:0:
504,188,13883,1,0,1:0:0:0:
403,188,14249,2,0,L|204:192,1,200,4|4,0:3|0:3,0:0:0:0:
132,120,15347,1,0,1:0:0:0:
64,192,15713,6,0,P|39:261|62:331,2,150,4|4|4,0:3|0:3|0:3,0:0:0:0:
132,120,17176,2,0,L|244:116,1,100,0|0,1:0|1:0,0:0:0:0:
308,180,17907,1,0,1:0:0:0:
472,64,18639,6,0,L|472:184,1,100,4|4,0:3|0:3,0:0:0:0:
452,260,19370,1,4,0:3:0:0:
371,320,19737,2,0,P|276:345|180:319,1,200,4|4,0:3|0:3,0:0:0:0:
104,256,20835,1,4,0:3:0:0:
180,192,21200,1,4,0:3:0:0:
103,127,21566,6,0,P|94:79|103:30,2,100,4|4|4,0:3|0:3|0:3,0:0:0:0:
180,192,22664,2,0,L|392:196,1,200,4|4,0:3|0:3,0:0:0:0:
424,104,23761,2,0,P|373:66|305:55,1,100,4|4,0:3|0:3,0:0:0:0:
236,52,24493,6,0,P|187:64|147:93,1,100,4|4,0:3|0:3,0:0:0:0:
96,180,25225,1,4,0:3:0:0:
152,264,25591,2,0,L|380:256,1,200,4|4,0:3|0:3,0:0:0:0:
305,345,26688,2,0,L|205:348,1,100,4|4,0:3|0:3,0:0:0:0:
151,263,27420,6,0,P|123:174|176:87,1,200,4|4,0:3|0:3,0:0:0:0:
256,32,28518,1,4,0:3:0:0:
338,88,28883,2,0,P|388:171|360:263,1,200,2|2,0:0|0:0,0:0:0:0:
166,320,30347,6,0,L|66:317,2,100,4|0|4,0:3|1:0|0:3,0:0:0:0:
266,324,31444,1,0,1:0:0:0:
222,236,31810,2,0,P|198:181|214:128,1,100,4|0,0:3|1:0,0:0:0:0:
246,52,32542,2,0,P|292:14|348:16,1,100,4|0,0:3|1:0,0:0:0:0:
414,68,33274,6,0,L|422:184,2,100,4|0|4,0:3|1:0|0:3,0:0:0:0:
331,11,34371,1,0,1:0:0:0:
250,68,34737,2,0,P|201:79|153:67,1,100,4|0,0:3|1:0,0:0:0:0:
70,12,35469,2,0,P|53:60|79:134,1,100,4|0,0:3|1:0,0:0:0:0:
122,187,36200,6,0,P|139:235|113:309,1,100,4|0,0:3|1:0,0:0:0:0:
222,322,36932,2,0,P|235:224|203:130,2,200,4|4|4,0:3|0:3|0:3,0:0:0:0:
140,380,38761,1,0,1:0:0:0:
58,323,39127,6,0,P|49:198|113:84,1,250,4|0,0:3|1:0,0:0:0:0:
196,44,40408,1,4,0:3:0:0:
256,264,42054,1,0,3:0:0:0:
327,196,42420,6,0,P|341:148|328:100,1,100,4|4,1:2|0:3,0:0:0:0:
256,32,43152,1,0,1:0:0:0:
183,100,43518,2,0,P|170:148|184:196,2,100,4|0|4,0:3|1:0|0:3,0:0:0:0:
256,32,44615,1,0,1:0:0:0:
329,100,44981,6,0,L|452:96,1,100,4|0,0:3|1:0,0:0:0:0:
432,196,45713,2,0,L|332:199,1,100,4|0,0:3|1:0,0:0:0:0:
256,264,46444,1,4,0:3:0:0:
179,200,46810,2,0,L|80:196,2,100,0|4|0,1:0|0:3|1:0,0:0:0:0:
372,248,48274,6,0,P|372:304|328:356,1,100,0|4,1:0|0:3,0:0:0:0:
256,372,49005,1,0,1:0:0:0:
162,340,49371,2,0,P|138:297|140:248,1,100,4|0,0:3|1:0,0:0:0:0:
168,152,50103,2,0,P|169:102|145:59,1,100,4|0,0:3|1:0,0:0:0:0:
48,28,50835,6,0,L|47:227,1,200,0|0,1:0|1:0,0:0:0:0:
108,308,51932,1,0,1:0:0:0:
196,260,52298,2,0,P|272:272|356:252,1,150,0|0,1:0|1:0,0:0:0:0:
503,63,53761,6,0,P|410:35|318:70,1,200,4|4,3:2|0:3,0:0:0:0:
256,148,54859,1,0,1:0:0:0:
193,70,55225,2,0,P|147:44|79:36,1,100,4|0,0:3|1:0,0:0:0:0:
28,104,55957,2,0,P|42:154|84:208,1,100,4|0,0:3|1:0,0:0:0:0:
164,224,56688,6,0,L|336:216,2,150,4|2|2,0:3|0:0|1:2,0:0:0:0:
220,308,58152,2,0,L|336:303,1,100,4|0,0:3|1:0,0:0:0:0:
406,253,58883,2,0,L|505:248,1,100,4|0,0:3|1:0,0:0:0:0:
487,151,59615,6,0,P|395:122|308:166,1,200,4|4,0:3|0:3,0:0:0:0:
256,252,60713,1,0,1:0:0:0:
204,167,61078,2,0,P|153:154|107:166,1,100,4|0,0:3|1:0,0:0:0:0:
60,256,61810,2,0,P|107:268|156:256,1,100,4|0,0:3|1:0,0:0:0:0:
204,167,62542,6,0,P|191:93|204:19,2,150,4|2|0,0:3|0:0|1:0,0:0:0:0:
307,167,64005,2,0,P|320:93|307:19,2,150,4|0|4,0:3|1:0|0:3,0:0:0:0:
256,252,65469,1,2,0:0:0:0:
344,296,65835,6,0,L|448:292,1,100,4|4,1:2|0:3,0:0:0:0:
496,208,66566,1,0,1:0:0:0:
408,163,66932,2,0,L|304:167,1,100,4|0,0:3|1:0,0:0:0:0:
256,252,67664,2,0,B|144:256,1,100,4|0,0:3|1:0,0:0:0:0:
72,200,68396,6,0,P|48:129|72:59,2,150,4|2|0,0:3|0:0|1:0,0:0:0:0:
156,255,69859,2,0,L|160:132,1,100,4|0,0:3|1:0,0:0:0:0:
252,116,70591,2,0,L|249:215,1,100,4|0,0:3|1:0,0:0:0:0:
331,272,71322,6,0,P|369:155|321:42,1,250,4|0,0:3|1:0,0:0:0:0:
224,24,72603,2,0,L|56:28,1,150,4|0,0:0|1:0,0:0:0:0:
104,124,73518,2,0,L|203:121,1,100,4|0,0:3|1:0,0:0:0:0:
288,176,74249,6,0,P|299:224|288:272,1,100,4|0,3:2|1:0,0:0:0:0:
218,344,74981,1,4,0:3:0:0:
147,272,75347,2,0,P|136:224|148:176,1,100,0|4,1:0|0:3,0:0:0:0:
218,104,76078,1,0,1:0:0:0:
288,176,76444,2,0,P|344:188|420:168,1,100,4|0,0:3|1:0,0:0:0:0:
472,128,77176,6,0,L|468:277,2,150,4|2|0,0:3|0:0|1:0,0:0:0:0:
440,32,78639,2,0,P|416:24|391:24,1,50,0|4,0:3|1:2,0:0:0:0:
292,44,79188,2,0,P|277:115|330:189,1,150,4|8,0:3|0:3,0:0:0:0:
372,260,80103,6,0,L|200:256,2,150,4|4|0,1:0|1:2|1:0,0:0:0:0:
324,348,81566,2,0,L|152:344,2,150,0|0|0,1:0|1:0|1:0,0:0:0:0:
420,324,83030,6,0,P|451:268|398:184,2,150,0|0|0,1:0|1:0|1:0,0:0:0:0:
324,300,84493,6,0,L|324:200,1,100,0|0,1:0|1:0,0:0:0:0:
256,124,85225,2,0,L|256:20,1,100,0|0,1:0|1:0,0:0:0:0:
256,192,85774,12,2,87237,0:0:0:0:
