osu file format v14

[General]
AudioFilename: audio.mp3
AudioLeadIn: 0
PreviewTime: 53575
Countdown: 0
SampleSet: Normal
StackLeniency: 0.7
Mode: 1
LetterboxInBreaks: 0
WidescreenStoryboard: 0

[Editor]
Bookmarks: 41501,53940
DistanceSpacing: 1.4
BeatDivisor: 4
GridSize: 32
TimelineZoom: 1.4

[Metadata]
Title:Edelweiss
TitleUnicode:Edelweiss
Artist:Asaka
ArtistUnicode:亜咲花
Creator:Astolfo
Version:yassu-'s Futsuu
Source:セントールの悩み
Tags:centaur no nayami ed ending theme tv size yassu- yuzu__rinrin
BeatmapID:1414809
BeatmapSetID:665840

[Difficulty]
HPDrainRate:6
CircleSize:2
OverallDifficulty:4
ApproachRate:5
SliderMultiplier:1.4
SliderTickRate:1

[Events]
//Background and Video events
0,0,"maxresdefault.jpg",0,0
//Break Periods
//Storyboard Layer 0 (Background)
//Storyboard Layer 1 (Fail)
//Storyboard Layer 2 (Pass)
//Storyboard Layer 3 (Foreground)
//Storyboard Sound Samples

[TimingPoints]
1258,365.853658536585,4,1,0,60,1,0
7111,-100,4,1,0,75,0,0
11501,-100,4,1,0,85,0,0
12416,-100,4,1,0,95,0,0
53940,-100,4,1,0,100,0,1
74428,-100,4,1,0,100,0,0
80282,-100,4,1,0,100,0,1
85953,-100,4,1,0,40,0,0

[HitObjects]
255,155,1258,5,8,0:0:0:0:
312,163,2172,1,2,0:0:0:0:
312,163,2721,1,0,0:0:0:0:
325,149,4184,1,2,0:0:0:0:
326,143,4733,1,2,0:0:0:0:
326,143,5282,1,0,0:0:0:0:
326,143,5648,1,0,0:0:0:0:
255,155,7111,1,8,0:0:0:0:
312,163,8026,1,0,0:0:0:0:
312,163,8574,1,8,0:0:0:0:
325,149,10037,1,0,0:0:0:0:
326,143,10586,1,8,0:0:0:0:
326,143,11135,1,2,0:0:0:0:
326,143,11501,1,0,0:0:0:0:
288,96,12050,1,0,0:0:0:0:
301,103,12416,1,0,0:0:0:0:
301,103,12599,1,2,0:0:0:0:
301,103,12965,1,4,0:0:0:0:
221,159,13697,1,8,0:0:0:0:
256,160,14428,1,0,0:0:0:0:
224,160,14794,1,0,0:0:0:0:
224,160,15160,1,2,0:0:0:0:
281,122,15892,1,4,0:0:0:0:
281,122,16440,1,4,0:0:0:0:
281,122,16989,1,4,0:0:0:0:
281,122,17538,1,4,0:0:0:0:
224,64,18087,1,6,0:0:0:0:
218,117,18818,1,0,0:0:0:0:
294,157,19550,1,2,0:0:0:0:
294,157,20282,1,0,0:0:0:0:
256,160,20648,1,0,0:0:0:0:
256,160,21014,1,2,0:0:0:0:
218,117,21745,1,8,0:0:0:0:
285,127,22477,1,0,0:0:0:0:
294,157,23209,1,2,0:0:0:0:
256,160,23575,1,0,0:0:0:0:
256,160,23940,1,2,0:0:0:0:
218,117,24672,1,0,0:0:0:0:
256,160,25404,1,2,0:0:0:0:
256,160,26136,1,0,0:0:0:0:
256,160,26501,1,0,0:0:0:0:
294,157,26867,1,8,0:0:0:0:
294,157,27233,1,2,0:0:0:0:
204,98,27599,1,0,0:0:0:0:
256,160,28148,1,0,0:0:0:0:
204,98,28331,1,0,0:0:0:0:
246,65,29062,1,8,0:0:0:0:
298,121,29611,1,8,0:0:0:0:
246,65,29794,1,8,0:0:0:0:
298,121,30526,1,4,0:0:0:0:
256,160,30892,1,0,0:0:0:0:
256,160,31257,1,8,0:0:0:0:
256,160,31623,1,2,0:0:0:0:
271,152,31989,1,0,0:0:0:0:
251,134,32721,1,0,0:0:0:0:
229,148,33453,1,2,0:0:0:0:
229,148,33818,1,2,0:0:0:0:
256,160,34184,1,0,0:0:0:0:
256,160,34550,1,0,0:0:0:0:
256,160,34916,1,2,0:0:0:0:
256,160,35648,1,2,0:0:0:0:
298,121,36379,1,0,0:0:0:0:
197,95,37111,1,2,0:0:0:0:
271,152,37842,1,0,0:0:0:0:
256,128,38575,1,2,0:0:0:0:
256,128,38940,1,2,0:0:0:0:
229,148,39306,1,0,0:0:0:0:
256,128,39672,1,2,0:0:0:0:
256,128,40038,1,0,0:0:0:0:
224,128,40221,1,2,0:0:0:0:
256,128,40587,1,0,0:0:0:0:
224,160,41318,1,0,0:0:0:0:
224,160,41501,1,0,0:0:0:0:
224,160,41684,1,2,0:0:0:0:
218,150,42599,1,4,0:0:0:0:
224,160,43331,1,2,0:0:0:0:
287,115,43697,1,0,0:0:0:0:
287,115,44062,1,0,0:0:0:0:
287,115,44428,1,8,0:0:0:0:
261,120,45160,1,0,0:0:0:0:
175,95,45526,1,0,0:0:0:0:
261,120,45892,1,8,0:0:0:0:
261,120,46257,1,0,0:0:0:0:
170,100,47172,1,2,0:0:0:0:
170,100,47355,1,0,0:0:0:0:
170,100,47538,1,2,0:0:0:0:
334,177,48453,1,12,0:0:0:0:
224,160,49184,1,0,0:0:0:0:
242,132,49550,1,8,0:0:0:0:
234,132,49916,1,8,0:0:0:0:
228,132,50282,1,0,0:0:0:0:
228,132,51014,1,2,0:0:0:0:
228,132,51379,1,2,0:0:0:0:
228,132,51745,1,0,0:0:0:0:
191,48,52111,1,8,0:0:0:0:
191,48,52294,1,8,0:0:0:0:
256,128,52660,1,0,0:0:0:0:
256,128,52843,1,0,0:0:0:0:
256,128,53026,1,8,0:0:0:0:
190,57,53940,1,4,0:0:0:0:
300,158,54306,1,8,0:0:0:0:
224,96,54855,1,0,0:0:0:0:
256,160,55221,1,2,0:0:0:0:
288,128,55587,1,0,0:0:0:0:
300,151,55770,1,0,0:0:0:0:
224,128,56501,1,0,0:0:0:0:
222,103,56867,1,8,0:0:0:0:
222,103,57233,1,0,0:0:0:0:
222,103,57416,1,0,0:0:0:0:
222,103,57782,1,0,0:0:0:0:
222,103,57965,1,8,0:0:0:0:
222,103,58697,1,2,0:0:0:0:
274,121,59428,1,2,0:0:0:0:
274,121,59794,1,0,0:0:0:0:
274,121,60160,1,8,0:0:0:0:
274,121,60709,1,2,0:0:0:0:
265,155,61075,1,0,0:0:0:0:
181,155,61440,1,2,0:0:0:0:
235,68,61623,1,2,0:0:0:0:
224,160,62355,1,2,0:0:0:0:
389,150,62721,1,0,0:0:0:0:
192,139,63453,1,0,0:0:0:0:
389,150,64183,1,0,0:0:0:0:
192,139,64550,1,0,0:0:0:0:
192,139,64916,1,8,0:0:0:0:
224,160,65648,1,0,0:0:0:0:
182,139,66014,1,12,0:0:0:0:
177,169,66562,1,0,0:0:0:0:
177,169,66928,1,2,0:0:0:0:
245,100,67294,1,0,0:0:0:0:
245,100,67477,1,2,0:0:0:0:
256,96,68209,1,0,0:0:0:0:
252,173,68575,1,8,0:0:0:0:
252,173,68940,1,0,0:0:0:0:
252,173,69123,1,8,0:0:0:0:
252,173,69489,1,8,0:0:0:0:
256,128,69672,1,8,0:0:0:0:
201,130,70404,1,2,0:0:0:0:
257,97,70770,1,0,0:0:0:0:
256,128,71136,1,8,0:0:0:0:
256,128,71318,1,0,0:0:0:0:
256,96,71867,1,2,0:0:0:0:
224,96,72416,5,0,0:0:0:0:
256,128,72599,1,0,0:0:0:0:
223,113,72782,1,8,0:0:0:0:
223,113,73148,1,0,0:0:0:0:
223,113,73331,1,8,0:0:0:0:
224,128,74062,1,2,0:0:0:0:
223,113,74428,1,4,0:0:0:0:
281,197,75160,1,8,0:0:0:0:
223,136,75892,1,0,0:0:0:0:
223,136,76257,1,0,0:0:0:0:
223,136,76623,1,8,0:0:0:0:
223,136,76989,1,0,0:0:0:0:
224,128,77355,1,2,0:0:0:0:
224,128,77904,1,0,0:0:0:0:
223,136,78087,1,8,0:0:0:0:
204,106,79001,1,12,0:0:0:0:
204,106,79550,1,0,0:0:0:0:
204,106,79916,1,8,0:0:0:0:
204,106,80282,1,4,0:0:0:0:
204,106,80831,1,12,0:0:0:0:
204,106,81379,1,8,0:0:0:0:
204,106,81745,1,4,0:0:0:0:
204,106,82294,1,4,0:0:0:0:
204,106,82843,1,0,0:0:0:0:
204,106,83209,1,12,0:0:0:0:
306,124,83757,1,12,0:0:0:0:
255,148,84306,1,2,0:0:0:0:
256,128,84489,1,2,0:0:0:0:
255,148,84672,1,0,0:0:0:0:
233,108,85038,1,8,0:0:0:0:
233,108,85404,1,0,0:0:0:0:
256,192,85953,12,8,87599,0:0:0:0:
