osu file format v14

[General]
AudioFilename: audio.mp3
AudioLeadIn: 0
PreviewTime: 8085
Countdown: 0
SampleSet: Soft
StackLeniency: 0.7
Mode: 0
LetterboxInBreaks: 0
WidescreenStoryboard: 1

[Editor]
DistanceSpacing: 1.4
BeatDivisor: 4
GridSize: 32
TimelineZoom: 1

[Metadata]
Title:Wild Woods
TitleUnicode:ネイチャーロード
Artist:Asahi Atsuko
ArtistUnicode:朝日温子
Creator:reiSevia
Version:Hard
Source:マリオカート8
Tags:phynta ascended -_ascended_- -ascended- mario kart cart mariokart deluxe 8 mk8d mk8dx mk8 nintendo wii u switch nature road electronic folk instrumental racing video game ost original soundtrack roda totsuki roda_totsuki
BeatmapID:3172148
BeatmapSetID:1551755

[Difficulty]
HPDrainRate:4.5
CircleSize:4
OverallDifficulty:6
ApproachRate:8
SliderMultiplier:1.2
SliderTickRate:1

[Events]
//Background and Video events
0,0,"ww.jpg",0,0
//Break Periods
//Storyboard Layer 0 (Background)
//Storyboard Layer 1 (Fail)
//Storyboard Layer 2 (Pass)
//Storyboard Layer 3 (Foreground)
//Storyboard Layer 4 (Overlay)
//Storyboard Sound Samples

[TimingPoints]
585,300,5,2,1,65,1,0
2085,-125,5,2,1,55,0,0
7485,-100,5,2,1,55,0,0
8085,-111.111111111111,5,2,1,55,0,0
13485,-111.111111111111,5,2,1,65,0,0
14085,-111.111111111111,5,2,1,60,0,0
18585,-111.111111111111,5,2,1,65,0,0
19485,-111.111111111111,5,2,1,70,0,0
20085,-111.111111111111,5,2,1,55,0,0
23085,-111.111111111111,5,2,1,60,0,0
24585,-111.111111111111,5,2,1,70,0,0
25485,-100,5,2,1,70,0,0
26085,-100,5,2,1,60,0,0
26235,-111.111111111111,5,2,1,60,0,0
34485,-125,5,2,1,60,0,0
35085,-142.857142857143,5,2,1,50,0,0
44085,-166.666666666667,5,2,1,50,0,0
45585,-142.857142857143,5,2,1,60,0,0
46485,-111.111111111111,5,2,1,65,0,0
47085,-90.9090909090909,5,2,1,70,0,0
53085,-100,5,2,1,75,0,0
56085,-90.9090909090909,5,2,1,80,0,1
57585,-90.9090909090909,5,2,1,85,0,1
58485,-90.9090909090909,5,2,1,90,0,1
59085,-125,5,2,1,65,0,0

[Colours]
Combo1 : 250,180,240
Combo2 : 120,200,230
Combo3 : 255,230,130
Combo4 : 160,230,150

[HitObjects]
102,175,585,5,10,0:0:0:0:
102,175,735,2,0,P|98:112|81:41,2,120,8|10|10,0:0|0:0|0:0,0:0:0:0:
164,230,1485,1,10,0:0:0:0:
315,156,1785,1,10,0:0:0:0:
401,258,2085,6,0,P|438:272|488:230,1,96,6|0,3:1|0:0,0:0:0:0:
512,176,2535,2,0,L|498:65,1,96,8|0,0:0|0:0,0:0:0:0:
440,39,2985,2,0,P|408:45|388:47,1,48,0|0,3:2|1:2,0:0:0:0:
329,9,3285,2,0,P|305:6|281:1,1,48,8|0,1:2|0:0,0:0:0:0:
225,58,3585,6,0,P|184:54|140:95,1,96,0|0,3:2|0:0,0:0:0:0:
181,154,4035,2,0,P|232:161|289:169,1,96,8|0,0:0|0:0,0:0:0:0:
324,226,4485,2,0,P|316:269|315:295,1,48,0|0,3:2|1:2,0:0:0:0:
266,329,4785,2,0,P|223:321|197:320,1,48,8|0,1:2|0:0,0:0:0:0:
155,358,5085,6,0,B|115:368|102:341|47:356,1,96,0|0,3:2|0:0,0:0:0:0:
6,307,5535,2,0,P|-2:271|22:217,1,96,8|0,0:0|0:0,0:0:0:0:
87,179,5985,2,0,P|93:205|96:241,1,48,0|0,3:2|1:2,0:0:0:0:
170,209,6285,2,0,P|167:185|161:161,1,48,8|0,1:2|0:0,0:0:0:0:
202,90,6585,5,8,0:0:0:0:
202,90,6735,1,8,0:0:0:0:
344,179,7035,1,8,0:3:0:0:
440,42,7335,1,0,3:2:0:0:
440,42,7485,2,0,P|401:36|408:113,1,120,8|4,0:3|0:3,0:0:0:0:
469,228,8085,6,0,P|464:284|462:353,1,108,6|0,3:1|0:0,0:0:0:0:
386,330,8535,2,0,P|388:276|392:222,1,108,10|2,0:0|0:0,0:0:0:0:
335,173,8985,2,0,L|276:183,1,54.0000000000001,2|2,3:2|0:0,0:0:0:0:
218,140,9285,1,10,0:0:0:0:
218,140,9435,1,2,0:0:0:0:
149,171,9585,6,0,P|111:175|74:113,1,108,2|0,3:2|0:0,0:0:0:0:
18,70,10035,2,0,P|67:84|105:49,1,108,10|0,0:0|0:0,0:0:0:0:
169,9,10485,2,0,P|202:14|235:23,1,54.0000000000001,0|2,3:2|0:0,0:0:0:0:
285,69,10785,1,10,0:0:0:0:
285,69,10935,1,2,0:0:0:0:
348,28,11085,6,0,B|400:11|400:11|452:58,1,108,2|0,3:2|0:0,0:0:0:0:
502,88,11535,2,0,P|491:154|484:203,1,108,10|2,0:0|0:0,0:0:0:0:
424,240,11985,2,0,P|387:233|358:232,1,54.0000000000001,2|2,3:2|0:0,0:0:0:0:
306,273,12285,1,10,0:0:0:0:
306,273,12435,1,2,0:0:0:0:
246,226,12585,6,0,P|230:185|264:130,1,108,2|0,3:2|0:0,0:0:0:0:
220,67,13035,2,0,P|165:62|107:57,1,108,10|0,0:0|0:0,0:0:0:0:
55,107,13485,1,2,3:2:0:0:
55,107,13635,1,2,0:0:0:0:
88,180,13785,1,10,0:0:0:0:
88,180,13935,1,2,0:0:0:0:
33,232,14085,6,0,P|17:256|28:337,1,108,6|0,3:1|0:0,0:0:0:0:
89,369,14535,2,0,P|143:363|216:355,1,108,10|2,0:0|0:0,0:0:0:0:
263,321,14985,1,2,3:2:0:0:
330,355,15135,1,2,0:0:0:0:
480,323,15435,5,2,0:0:0:0:
480,323,15585,2,0,P|498:260|469:206,1,108,2|0,3:2|0:0,0:0:0:0:
420,179,16035,2,0,B|382:161|351:164|351:164|335:188|302:190,1,108,10|2,0:0|0:0,0:0:0:0:
254,152,16485,1,2,3:2:0:0:
275,79,16635,1,2,0:0:0:0:
415,18,16935,5,2,0:0:0:0:
415,18,17085,1,2,3:2:0:0:
458,79,17235,2,0,P|453:108|447:143,1,54.0000000000001,2|0,0:0|0:0,0:0:0:0:
500,187,17535,2,0,P|471:212|480:296,1,108,10|2,0:0|0:0,0:0:0:0:
415,334,17985,2,0,P|379:341|350:352,1,54.0000000000001,2|2,3:2|0:0,0:0:0:0:
292,373,18285,2,0,P|266:364|239:360,1,54.0000000000001,10|2,0:0|0:0,0:0:0:0:
123,280,18585,6,0,P|119:309|113:334,2,54.0000000000001,2|0|2,3:2|0:0|0:0,0:0:0:0:
211,234,19035,2,0,P|214:263|221:288,2,54.0000000000001,8|2|0,0:0|0:0|0:0,0:0:0:0:
158,174,19485,1,10,3:2:0:0:
158,174,19635,1,0,0:0:0:0:
192,99,19785,1,10,3:2:0:0:
192,99,19935,1,0,0:0:0:0:
144,27,20085,6,0,P|91:5|34:33,1,108,6|0,3:1|0:0,0:0:0:0:
0,81,20535,2,0,L|11:194,1,108,10|2,0:0|0:0,0:0:0:0:
72,231,20985,2,0,L|127:224,1,54.0000000000001,2|2,3:2|0:0,0:0:0:0:
192,186,21285,1,10,0:0:0:0:
192,186,21435,1,2,0:0:0:0:
250,233,21585,6,0,L|240:359,1,108,2|0,3:2|0:0,0:0:0:0:
306,378,22035,2,0,P|358:384|401:353,1,108,10|0,0:0|0:0,0:0:0:0:
437,286,22485,1,2,3:2:0:0:
437,286,22635,1,2,0:0:0:0:
393,223,22785,2,0,P|394:188|400:159,1,54.0000000000001,10|2,0:0|0:0,0:0:0:0:
456,122,23085,6,0,B|398:130|407:103|337:114,1,108,2|0,3:2|0:0,0:0:0:0:
276,91,23535,2,0,P|314:124|302:175,1,108,10|2,0:0|0:0,0:0:0:0:
246,225,23985,1,2,3:2:0:0:
246,225,24135,2,0,P|207:219|183:220,1,54.0000000000001,2|8,0:0|0:0,0:0:0:0:
133,172,24435,5,2,0:0:0:0:
133,172,24585,1,6,3:3:0:0:
5,309,25035,1,10,3:2:0:0:
188,380,25335,1,10,3:2:0:0:
188,380,25485,2,0,P|230:373|260:370,1,60,10|2,3:2|0:0,0:0:0:0:
234,298,25785,2,0,P|204:301|174:306,1,60,4|2,0:3|0:0,0:0:0:0:
155,235,26085,5,6,3:1:0:0:
155,235,26235,2,0,P|208:225|261:219,1,108,2|10,0:0|0:0,0:0:0:0:
343,93,26835,1,2,0:0:0:0:
343,93,26985,2,0,P|337:51|331:28,1,54.0000000000001,2|2,3:2|0:0,0:0:0:0:
408,24,27285,2,0,P|413:50|416:77,1,54.0000000000001,10|2,0:0|0:0,0:0:0:0:
478,121,27585,6,0,P|455:161|474:236,1,108,2|2,3:2|0:0,0:0:0:0:
420,283,28035,2,0,P|369:278|294:270,1,108,10|0,0:0|0:0,0:0:0:0:
251,316,28485,1,2,3:2:0:0:
114,376,28785,5,10,0:0:0:0:
114,376,28935,1,2,0:0:0:0:
71,313,29085,2,0,P|76:252|81:197,1,108,6|0,3:2|0:0,0:0:0:0:
37,143,29535,2,0,P|29:90|64:38,1,108,10|2,0:0|0:0,0:0:0:0:
122,9,29985,1,2,3:2:0:0:
185,50,30135,1,2,0:0:0:0:
332,15,30435,5,2,0:0:0:0:
332,15,30585,2,0,P|378:5|422:67,1,108,2|0,3:2|0:0,0:0:0:0:
394,114,31035,2,0,B|336:122|345:95|275:106,1,108,10|2,0:0|0:0,0:0:0:0:
234,157,31485,1,2,3:2:0:0:
274,220,31635,1,2,0:0:0:0:
187,344,31935,5,2,0:0:0:0:
187,344,32085,2,0,B|225:326|256:329|256:329|272:353|305:355,1,108,6|0,3:1|0:0,0:0:0:0:
358,333,32535,2,0,P|379:302|356:238,1,108,8|0,0:0|0:0,0:0:0:0:
299,191,32985,1,0,3:2:0:0:
410,89,33285,1,8,0:0:0:0:
296,16,33585,5,8,0:0:0:0:
296,16,33735,1,8,0:0:0:0:
205,115,34035,1,8,0:3:0:0:
96,35,34335,1,4,0:3:0:0:
96,35,34485,2,0,B|116:23|116:23|94:60|107:102,1,96,8|6,0:0|3:0,0:0:0:0:
11,174,35085,6,0,P|46:155|128:235,1,167.999994873047,6|2,3:2|0:0,0:0:0:0:
68,300,35985,1,2,3:2:0:0:
110,383,36285,1,10,0:0:0:0:
203,384,36585,2,0,P|233:379|289:370,1,83.9999974365235,2|2,3:2|0:0,0:0:0:0:
340,311,37035,1,2,3:2:0:0:
289,229,37335,1,2,3:2:0:0:
289,229,37485,2,0,P|289:189|294:142,1,83.9999974365235,10|8,0:0|0:0,0:0:0:0:
367,90,38085,6,0,B|428:101|419:60|502:80,1,125.999996154785,2|10,3:2|0:0,0:0:0:0:
512,171,38835,1,2,3:2:0:0:
512,171,38985,2,0,P|507:210|501:258,1,83.9999974365235,2|10,3:2|0:0,0:0:0:0:
428,358,39585,1,2,3:2:0:0:
428,358,39735,1,2,0:0:0:0:
355,320,39885,1,2,0:0:0:0:
281,355,40035,1,2,3:2:0:0:
220,254,40335,1,0,3:2:0:0:
220,254,40485,2,0,P|209:199|218:169,1,83.9999974365235,8|10,0:0|0:0,0:0:0:0:
218,72,41085,6,0,B|187:82|163:75|163:75|149:40|106:38,1,125.999996154785,2|10,3:2|0:0,0:0:0:0:
28,8,41685,2,0,P|33:40|33:58,1,41.9999987182618,2|0,0:0|0:0,0:0:0:0:
0,121,41985,1,2,3:2:0:0:
79,205,42285,1,10,0:0:0:0:
26,291,42585,2,0,P|30:333|35:375,1,83.9999974365235,2|2,3:2|0:0,0:0:0:0:
108,384,43035,1,2,3:2:0:0:
177,310,43335,2,0,P|170:246|163:184,1,125.999996154785,2|10,3:2|0:0,0:0:0:0:
287,110,44085,6,0,B|313:112|333:94|333:94|410:82|443:150|429:194|429:194|435:151|397:127,1,287.999999999999,2|8,3:2|0:0,0:0:0:0:
346,192,45585,2,0,P|342:236|339:289,1,83.9999999999999,8|0,0:0|3:2,0:0:0:0:
261,271,46035,2,0,P|265:227|268:174,1,83.9999999999999,8|8,0:3|0:0,0:0:0:0:
209,137,46485,2,0,P|180:139|143:147,1,54.0000000000001,10|2,0:0|0:0,0:0:0:0:
71,124,46785,2,0,L|67:74,2,36,6|2|2,0:3|0:0|0:0,0:0:0:0:
56,139,47085,6,0,P|27:195|48:267,1,132,6|0,3:1|0:0,0:0:0:0:
118,308,47535,1,8,0:0:0:0:
118,308,47685,2,0,P|175:301|278:290,2,132,2|2|10,0:0|3:2|0:0,0:0:0:0:
195,139,48585,6,0,P|237:150|258:163,1,66,2|0,3:2|0:0,0:0:0:0:
351,153,48885,1,2,0:0:0:0:
351,153,49035,2,0,P|372:190|378:214,1,66,10|0,0:0|0:0,0:0:0:0:
459,266,49335,1,2,0:0:0:0:
459,266,49485,2,0,P|448:307|435:329,1,66,2|0,3:2|0:0,0:0:0:0:
357,376,49785,2,0,P|341:347|334:314,1,66,8|0,0:0|0:0,0:0:0:0:
255,267,50085,6,0,P|186:279|118:292,1,132,6|0,3:2|0:0,0:0:0:0:
46,242,50535,2,0,P|27:210|80:143,1,132,10|2,0:0|0:0,0:0:0:0:
166,169,50985,2,0,P|198:162|230:157,1,66,2|0,3:2|0:0,0:0:0:0:
276,76,51285,2,0,P|308:81|340:87,1,66,10|0,0:0|0:0,0:0:0:0:
423,43,51585,5,6,3:2:0:0:
423,43,51735,1,2,0:0:0:0:
488,107,51885,2,0,P|512:158|477:244,2,132,2|0|0,0:0|0:0|3:2,0:0:0:0:
423,43,52635,1,2,0:0:0:0:
348,81,52785,1,10,0:0:0:0:
276,43,52935,1,2,0:0:0:0:
208,92,53085,6,0,P|143:81|75:71,1,120,14|0,3:1|0:0,0:0:0:0:
72,155,53535,2,0,P|131:163|190:173,1,120,10|10,0:0|0:0,0:0:0:0:
244,238,53985,1,10,0:0:0:0:
95,315,54285,1,8,0:0:0:0:
250,377,54585,5,14,3:1:0:0:
250,377,54735,2,0,P|294:372|324:367,1,60,8|0,0:0|0:0,0:0:0:0:
374,316,55035,2,0,P|391:267|356:203,1,120,10|10,0:0|0:0,0:0:0:0:
287,170,55485,1,10,0:0:0:0:
427,77,55785,1,10,0:0:0:0:
256,6,56085,6,0,B|194:1|196:47|122:40,1,132,14|0,3:1|0:0,0:0:0:0:
48,83,56535,2,0,P|106:77|136:147,1,132,10|10,0:0|0:0,0:0:0:0:
82,208,56985,1,10,0:0:0:0:
159,258,57135,2,0,P|196:250|242:247,1,66,2|8,0:0|0:0,0:0:0:0:
296,304,57435,1,2,0:0:0:0:
367,245,57585,5,6,3:1:0:0:
367,245,57660,1,8,0:3:0:0:
367,245,57735,2,0,L|358:190,3,33,4|4|0|0,0:3|0:3|3:2|3:2,0:0:0:0:
395,181,58035,2,0,L|404:126,3,33,6|4|0|0,0:3|0:3|3:2|3:2,0:0:0:0:
436,118,58335,1,2,3:2:0:0:
388,39,58485,5,10,0:0:0:0:
388,39,58635,1,2,0:0:0:0:
311,90,58785,1,10,0:0:0:0:
311,90,58935,1,2,0:0:0:0:
217,45,59085,6,0,P|154:54|107:61,1,96,6|0,3:1|0:0,0:0:0:0:
136,131,59535,2,0,P|183:124|231:117,1,96,8|0,0:0|0:0,0:0:0:0:
291,162,59985,2,0,P|300:199|302:221,1,48,0|0,3:2|1:2,0:0:0:0:
372,188,60285,2,0,P|368:164|361:141,1,48,8|0,1:2|0:0,0:0:0:0:
412,85,60585,6,0,P|449:81|487:134,1,96,2|0,3:2|0:0,0:0:0:0:
458,190,61035,2,0,P|450:257|444:308,1,96,8|0,0:0|0:0,0:0:0:0:
388,332,61485,2,0,P|364:327|334:328,1,48,0|0,3:2|1:2,0:0:0:0:
275,364,61785,2,0,P|251:363|227:368,1,48,10|0,1:2|0:0,0:0:0:0:
160,339,62085,6,0,P|144:309|167:244,1,96,6|0,3:2|0:0,0:0:0:0:
210,193,62535,2,0,P|206:141|201:79,1,96,8|0,0:0|0:0,0:0:0:0:
141,58,62985,2,0,P|115:62|88:69,1,48,0|0,3:2|1:2,0:0:0:0:
44,122,63285,2,0,P|49:145|53:169,1,48,10|0,1:2|0:0,0:0:0:0:
18,284,63585,6,0,P|16:315|32:347,2,48,8|8|0,0:0|0:0|3:2,0:0:0:0:
101,241,64035,2,0,L|168:251,1,48,8|6,0:3|0:3,0:0:0:0:
213,302,64335,1,8,0:0:0:0:
213,302,64485,1,8,0:0:0:0:
282,249,64635,1,8,0:3:0:0:
356,303,64785,2,0,P|395:299|423:295,1,48,8|4,0:3|0:3,0:0:0:0:
470,338,65085,5,6,3:1:0:0:
