osu file format v14

[General]
AudioFilename: audio.mp3
AudioLeadIn: 0
PreviewTime: 8085
Countdown: 0
SampleSet: Soft
StackLeniency: 0.2
Mode: 0
LetterboxInBreaks: 0
WidescreenStoryboard: 0

[Editor]
DistanceSpacing: 1.5
BeatDivisor: 4
GridSize: 16
TimelineZoom: 1

[Metadata]
Title:Wild Woods
TitleUnicode:ネイチャーロード
Artist:Asahi Atsuko
ArtistUnicode:朝日温子
Creator:reiSevia
Version:Expert
Source:マリオカート8
Tags:phynta ascended -_ascended_- -ascended- mario kart cart mariokart deluxe 8 mk8d mk8dx mk8 nintendo wii u switch nature road electronic folk instrumental racing video game ost original soundtrack roda totsuki roda_totsuki
BeatmapID:3170814
BeatmapSetID:1551755

[Difficulty]
HPDrainRate:6
CircleSize:4.2
OverallDifficulty:8
ApproachRate:9.2
SliderMultiplier:1.6
SliderTickRate:1

[Events]
//Background and Video events
0,0,"ww.jpg",0,0
//Break Periods
//Storyboard Layer 0 (Background)
//Storyboard Layer 1 (Fail)
//Storyboard Layer 2 (Pass)
//Storyboard Layer 3 (Foreground)
//Storyboard Layer 4 (Overlay)
//Storyboard Sound Samples

[TimingPoints]
585,300,5,2,1,65,1,0
585,-83.3333333333333,5,2,1,65,0,0
1710,-100,5,2,1,5,0,0
1785,-100,5,2,1,65,0,0
2010,-100,5,2,1,5,0,0
2085,-125,5,2,1,55,0,0
6585,-100,5,2,1,55,0,0
8085,-111.111111111111,5,2,1,55,0,0
13485,-111.111111111111,5,2,1,65,0,0
14085,-111.111111111111,5,2,1,60,0,0
17460,-111.111111111111,5,2,1,5,0,0
17535,-111.111111111111,5,2,1,60,0,0
18585,-111.111111111111,5,2,1,65,0,0
19485,-100,5,2,1,70,0,0
20085,-111.111111111111,5,2,1,55,0,0
23085,-111.111111111111,5,2,1,60,0,0
24585,-83.3333333333333,5,2,1,70,0,0
25485,-100,5,2,1,70,0,0
26085,-111.111111111111,5,2,1,60,0,0
33585,-125,5,2,1,60,0,0
35085,-133.333333333333,5,2,1,50,0,0
36210,-133.333333333333,5,2,1,5,0,0
36285,-133.333333333333,5,2,1,50,0,0
37710,-133.333333333333,5,2,1,5,0,0
37785,-133.333333333333,5,2,1,50,0,0
38835,-100,5,2,1,50,0,0
40185,-125,5,2,1,50,0,0
42210,-125,5,2,1,5,0,0
42285,-125,5,2,1,50,0,0
45585,-111.111111111111,5,2,1,60,0,0
46485,-111.111111111111,5,2,1,65,0,0
47085,-100,5,2,1,70,0,0
48285,-83.3333333333333,5,2,1,70,0,0
48510,-83.3333333333333,5,2,1,5,0,0
48585,-100,5,2,1,70,0,0
53085,-100,5,2,1,75,0,0
53760,-100,5,2,1,5,0,0
53835,-100,5,2,1,75,0,0
55260,-100,5,2,1,5,0,0
55335,-100,5,2,1,75,0,0
56085,-90.9090909090909,5,2,1,80,0,1
56535,-66.6666666666667,5,2,1,80,0,1
56760,-66.6666666666667,5,2,1,5,0,1
56835,-66.6666666666667,5,2,1,80,0,1
57135,-90.9090909090909,5,2,1,80,0,1
57585,-90.9090909090909,5,2,1,85,0,1
58485,-90.9090909090909,5,2,1,90,0,1
59085,-125,5,2,1,65,0,0
63510,-125,5,2,1,5,0,0
63585,-125,5,2,1,65,0,0

[Colours]
Combo1 : 250,180,240
Combo2 : 120,200,230
Combo3 : 255,230,130
Combo4 : 160,230,150

[HitObjects]
451,117,585,5,10,0:0:0:0:
286,194,735,2,0,L|180:185,1,95.9999970703126,8|0,0:0|0:0,0:0:0:0:
369,355,1035,2,0,P|433:360|518:276,1,191.999994140625,10|10,0:0|0:0,0:0:0:0:
358,161,1485,2,0,B|374:193|359:231|359:231|387:198|382:164,1,143.999995605469,10|0,0:0|0:0,0:0:0:0:
337,150,1785,2,0,B|297:158|297:158|281:206|213:206,1,120,10|0,0:0|0:0,0:0:0:0:
9,305,2085,6,0,P|37:358|98:353,1,128,6|0,3:1|0:0,0:0:0:0:
147,214,2535,2,0,P|139:155|127:66,1,128,8|0,0:0|0:0,0:0:0:0:
237,208,2985,2,0,P|231:248|225:291,1,64,0|0,3:2|1:2,0:0:0:0:
45,99,3285,2,0,P|51:59|57:16,1,64,8|0,1:2|0:0,0:0:0:0:
247,17,3585,6,0,P|213:67|155:54,1,128,0|0,3:2|0:0,0:0:0:0:
21,205,4035,2,0,B|55:177|106:183|106:183|121:207|156:212,1,128,8|0,0:0|0:0,0:0:0:0:
222,347,4485,1,0,3:2:0:0:
284,166,4635,1,0,1:2:0:0:
222,347,4785,2,0,L|215:280,1,64,8|0,1:2|0:0,0:0:0:0:
356,226,5085,6,0,P|420:233|500:243,1,128,0|0,3:2|0:0,0:0:0:0:
340,76,5535,2,0,P|276:83|212:90,1,128,8|0,0:0|0:0,0:0:0:0:
123,142,5985,2,0,P|121:111|111:76,1,64,0|0,3:2|1:2,0:0:0:0:
255,232,6285,2,0,P|249:272|243:320,1,64,8|0,1:2|0:0,0:0:0:0:
349,152,6585,5,8,0:0:0:0:
141,274,6735,2,0,L|42:265,1,80,8|0,0:0|0:0,0:0:0:0:
121,44,7035,1,8,0:3:0:0:
121,44,7072,2,0,B|131:39|131:39|171:81|161:130|126:171,1,140,8|0,0:3|3:2,0:0:0:0:
18,14,7485,5,8,0:3:0:0:
280,130,7785,1,4,0:3:0:0:
280,130,8085,6,0,B|318:101|370:110|370:110|397:137|435:132,1,143.999995605469,6|0,3:1|0:0,0:0:0:0:
225,54,8535,1,10,0:0:0:0:
225,54,8835,1,2,0:0:0:0:
330,262,8985,2,0,P|334:219|343:177,1,71.9999978027344,2|2,3:2|0:0,0:0:0:0:
201,38,9285,2,0,P|197:81|188:123,1,71.9999978027344,10|2,0:0|0:0,0:0:0:0:
48,273,9585,5,2,3:2:0:0:
239,196,9735,1,2,0:0:0:0:
239,196,10035,2,0,P|174:189|88:179,1,143.999995605469,10|0,0:0|0:0,0:0:0:0:
187,363,10485,2,0,P|190:327|195:291,1,71.9999978027344,0|2,3:2|0:0,0:0:0:0:
313,138,10785,1,10,0:0:0:0:
121,214,10935,1,2,0:0:0:0:
333,320,11085,6,0,B|407:330|395:275|496:299,1,143.999995605469,2|0,3:2|0:0,0:0:0:0:
446,384,11535,1,10,0:0:0:0:
446,384,11835,1,2,0:0:0:0:
293,233,11985,2,0,P|258:236|221:240,1,71.9999978027344,2|2,3:2|0:0,0:0:0:0:
408,97,12285,2,0,P|443:101|478:111,1,71.9999978027344,10|2,0:0|0:0,0:0:0:0:
263,20,12585,5,2,3:2:0:0:
373,185,12735,1,2,0:0:0:0:
373,185,13035,2,0,B|339:154|284:160|284:160|267:180|219:187,1,143.999995605469,10|0,0:0|0:0,0:0:0:0:
38,63,13485,5,2,3:0:0:0:
104,319,13635,1,2,0:0:0:0:
38,63,13785,1,10,0:0:0:0:
142,129,13935,1,2,0:0:0:0:
0,257,14085,6,0,P|48:248|149:230,1,143.999995605469,6|0,3:1|0:0,0:0:0:0:
277,312,14535,1,10,0:0:0:0:
277,312,14835,5,2,0:0:0:0:
313,210,14985,1,2,3:2:0:0:
350,108,15135,2,0,P|344:71|339:23,1,71.9999978027344,2|8,0:0|0:0,0:0:0:0:
249,132,15435,1,2,0:0:0:0:
425,187,15585,6,0,P|387:183|371:270,1,143.999995605469,2|0,3:2|0:0,0:0:0:0:
435,326,16035,1,10,0:0:0:0:
435,326,16335,5,2,0:0:0:0:
333,290,16485,1,2,3:2:0:0:
231,253,16635,2,0,P|194:259|149:274,1,71.9999978027344,2|8,0:0|0:0,0:0:0:0:
295,176,16935,1,2,0:0:0:0:
113,366,17085,5,2,3:2:0:0:
132,145,17235,2,0,L|141:27,1,107.999996704102,2|0,0:0|0:0,0:0:0:0:
133,26,17535,2,0,P|83:9|51:21,1,71.9999978027344,10|0,0:0|0:0,0:0:0:0:
16,99,17835,1,2,0:0:0:0:
191,237,17985,2,0,P|231:228|287:221,1,71.9999978027344,2|2,3:2|0:0,0:0:0:0:
86,85,18285,2,0,P|46:94|-10:101,1,71.9999978027344,10|2,0:0|0:0,0:0:0:0:
63,217,18585,5,2,3:2:0:0:
69,199,18735,1,0,0:0:0:0:
168,231,18885,5,2,0:0:0:0:
145,154,19035,1,8,0:0:0:0:
249,262,19185,5,2,0:0:0:0:
282,88,19335,1,0,0:0:0:0:
353,277,19485,6,0,B|372:240|372:240|358:175,1,80,10|0,3:2|0:0,0:0:0:0:
185,16,19785,2,0,B|166:53|166:53|180:118,1,80,10|0,3:2|0:0,0:0:0:0:
434,91,20085,6,0,B|347:61|347:61|295:92,1,143.999995605469,6|0,3:1|0:0,0:0:0:0:
242,190,20535,1,10,0:0:0:0:
242,190,20835,1,2,0:0:0:0:
373,320,20985,2,0,P|376:284|382:248,1,71.9999978027344,2|2,3:2|0:0,0:0:0:0:
223,98,21285,2,0,P|219:133|213:169,1,71.9999978027344,10|2,0:0|0:0,0:0:0:0:
96,23,21585,5,2,3:2:0:0:
161,261,21735,1,10,0:0:0:0:
161,261,22035,2,0,L|14:248,1,143.999995605469,10|0,0:0|0:0,0:0:0:0:
82,40,22485,1,2,3:2:0:0:
109,122,22635,1,2,0:0:0:0:
27,148,22785,1,10,0:0:0:0:
0,66,22935,1,2,0:0:0:0:
219,149,23085,6,0,B|294:157|278:111|373:127,1,143.999995605469,2|0,3:2|0:0,0:0:0:0:
460,189,23535,1,10,0:0:0:0:
460,189,23835,5,2,0:0:0:0:
358,225,23985,1,2,3:2:0:0:
256,262,24135,2,0,P|248:210|242:185,1,71.9999978027344,2|8,0:0|0:0,0:0:0:0:
291,100,24435,1,2,0:0:0:0:
239,366,24585,6,0,B|182:386|182:386|129:352|131:298|170:268,1,191.999994140625,6|0,3:3|0:0,0:0:0:0:
336,25,25035,2,0,B|393:5|393:5|446:39|444:93|405:123,1,191.999994140625,10|10,3:2|3:2,0:0:0:0:
173,133,25485,6,0,P|165:93|185:48,1,80,10|2,3:2|0:0,0:0:0:0:
356,259,25785,2,0,P|364:299|344:344,1,80,4|2,0:3|0:0,0:0:0:0:
116,231,26085,5,6,3:1:0:0:
256,360,26235,1,2,0:0:0:0:
256,360,26535,2,0,B|227:331|161:337|161:337|147:357|85:373,1,143.999995605469,10|2,0:0|0:0,0:0:0:0:
40,310,26985,2,0,P|37:274|31:238,1,71.9999978027344,2|2,3:2|0:0,0:0:0:0:
194,62,27285,2,0,P|196:97|202:133,1,71.9999978027344,10|2,0:0|0:0,0:0:0:0:
12,52,27585,6,0,P|18:2|107:33,1,143.999995605469,2|2,3:2|0:0,0:0:0:0:
207,137,27985,1,2,0:0:0:0:
207,137,28035,2,0,P|200:208|193:280,1,143.999995605469,10|0,0:0|0:0,0:0:0:0:
263,332,28485,2,0,P|297:324|342:321,1,71.9999978027344,2|0,3:2|0:0,0:0:0:0:
471,220,28785,1,10,0:0:0:0:
353,117,28935,1,2,0:0:0:0:
471,220,29085,6,0,P|404:214|306:205,1,143.999995605469,6|0,3:2|0:0,0:0:0:0:
236,78,29535,1,10,0:0:0:0:
236,78,29835,5,2,0:0:0:0:
200,180,29985,1,2,3:2:0:0:
163,282,30135,2,0,P|168:321|174:370,1,71.9999978027344,2|8,0:0|0:0,0:0:0:0:
84,210,30435,1,2,0:0:0:0:
268,305,30585,6,0,P|326:297|411:288,1,143.999995605469,2|0,3:2|0:0,0:0:0:0:
484,127,31035,1,10,0:0:0:0:
484,127,31335,5,2,0:0:0:0:
382,163,31485,1,2,3:2:0:0:
280,200,31635,2,0,P|241:195|192:189,1,71.9999978027344,2|8,0:0|0:0,0:0:0:0:
342,290,31935,1,2,0:0:0:0:
116,374,32085,6,0,B|150:327|212:330|212:330|267:362,1,143.999995605469,6|0,3:1|0:0,0:0:0:0:
46,186,32535,2,0,B|103:195|144:149|144:149|161:87,1,143.999995605469,8|0,0:0|0:0,0:0:0:0:
78,13,32985,2,0,P|71:60|62:93,1,71.9999978027344,0|0,3:2|0:0,0:0:0:0:
212,246,33285,2,0,P|219:199|228:166,1,71.9999978027344,8|0,0:0|0:0,0:0:0:0:
153,115,33585,5,8,0:0:0:0:
318,223,33735,2,0,P|350:216|406:212,1,64,8|0,0:0|0:0,0:0:0:0:
182,349,34035,2,0,P|147:359|59:302,1,128,8|4,0:3|0:3,0:0:0:0:
28,94,34485,5,8,0:0:0:0:
318,223,34785,1,6,3:0:0:0:
254,143,34935,1,2,0:0:0:0:
286,63,35085,5,6,3:2:0:0:
158,159,35235,2,0,L|121:154,2,30.0000011444092
318,223,35535,2,0,B|352:222|372:193|372:193|349:216|307:209,1,120.000004577637,8|0,0:0|3:2,0:0:0:0:
201,270,35985,2,0,P|186:305|195:368,1,90.0000034332277,2|0,3:2|0:0,0:0:0:0:
201,365,36285,1,10,0:0:0:0:
201,365,36585,5,2,3:2:0:0:
221,362,36660,1,2,0:0:0:0:
242,359,36735,1,2,0:0:0:0:
263,356,36810,1,2,0:0:0:0:
284,354,36885,1,2,0:0:0:0:
329,269,37035,2,0,L|317:187,1,60.0000022888184,2|0,3:2|0:0,0:0:0:0:
252,135,37335,1,2,3:2:0:0:
385,54,37485,2,0,P|411:39|387:59,1,90.0000034332277,10|0,0:0|0:0,0:0:0:0:
389,61,37785,2,0,P|358:58|309:53,1,60.0000022888184,8|0,0:0|0:0,0:0:0:0:
150,0,38085,5,2,3:2:0:0:
219,123,38235,2,0,L|225:70,2,30.0000011444092
87,209,38535,2,0,P|83:163|77:136,1,60.0000022888184,10|0,0:0|0:0,0:0:0:0:
251,286,38835,2,0,B|213:270|191:233|191:233|191:277|161:319,1,160,2|0,3:2|0:0,0:0:0:0:
96,359,39285,1,10,0:0:0:0:
10,231,39435,5,0,1:2:0:0:
10,231,39510,1,0,1:2:0:0:
10,231,39585,2,0,L|19:278,1,40,2|0,3:2|0:0,0:0:0:0:
82,196,39735,2,0,L|91:243,1,40,2|0,0:0|0:0,0:0:0:0:
146,113,39885,1,2,0:0:0:0:
57,84,40035,1,2,3:2:0:0:
169,201,40185,2,0,P|201:194|249:192,1,64,0|0,0:0|3:2,0:0:0:0:
304,23,40485,6,0,L|295:96,1,64,8|0,0:0|0:0,0:0:0:0:
429,233,40785,2,0,L|438:160,1,64,10|2,0:0|0:0,0:0:0:0:
337,251,41085,5,2,3:2:0:0:
481,311,41235,2,0,L|523:305,2,32
394,366,41535,1,10,0:0:0:0:
394,366,41685,2,0,P|357:363|313:359,1,64,2|2,0:0|0:0,0:0:0:0:
179,314,41985,2,0,B|206:323|216:346|216:346|240:340|241:316|230:298,1,96,2|0,3:2|0:0,0:0:0:0:
226,301,42285,1,10,0:0:0:0:
226,301,42585,5,2,3:2:0:0:
228,279,42660,1,2,0:0:0:0:
230,257,42735,1,2,0:0:0:0:
232,235,42810,1,2,0:0:0:0:
234,212,42885,1,2,0:0:0:0:
157,154,43035,2,0,P|118:160|83:167,1,64,2|0,3:2|0:0,0:0:0:0:
244,24,43335,2,0,B|265:1|315:-2|337:27|337:27|321:32|311:42,1,128,2|0,3:2|0:0,0:0:0:0:
285,113,43785,1,10,0:0:0:0:
285,113,44085,5,2,3:2:0:0:
385,175,44235,2,0,L|436:166,2,32
265,262,44535,2,0,B|224:242|188:248|188:248|174:271|136:276,1,128,8|0,0:0|0:0,0:0:0:0:
39,201,44985,2,0,P|31:159|45:128,1,64,0|0,3:2|0:0,0:0:0:0:
146,37,45285,2,0,P|142:70|139:109,1,64,8|0,0:0|0:0,0:0:0:0:
241,191,45585,5,8,0:0:0:0:
241,191,45735,2,0,L|340:179,1,71.9999978027344,0|0,0:0|3:2,0:0:0:0:
441,40,46035,2,0,B|431:13|431:13|424:11|424:11|387:32|375:85|417:116,1,143.999995605469,8|8,0:3|0:0,0:0:0:0:
503,274,46485,2,0,P|513:234|507:181,1,71.9999978027344,10|2,0:0|0:0,0:0:0:0:
396,334,46785,5,6,0:3:0:0:
396,319,46885,1,2,0:0:0:0:
408,326,46985,1,2,0:0:0:0:
307,274,47085,6,0,P|231:285|133:300,1,160,6|0,3:1|0:0,0:0:0:0:
29,154,47535,1,8,0:0:0:0:
29,154,47685,2,0,P|25:114|39:78,1,80,2|0,0:0|0:0,0:0:0:0:
218,199,47985,2,0,P|232:162|228:122,1,80,2|0,3:2|0:0,0:0:0:0:
55,252,48285,2,0,B|75:244|95:223|95:223|81:259|84:292|110:320,1,143.999995605469,10|0,0:0|0:0,0:0:0:0:
126,330,48585,6,0,P|173:316|224:312,1,80,2|0,3:2|0:0,0:0:0:0:
339,368,48885,1,2,0:0:0:0:
339,368,49035,2,0,P|331:305|329:275,1,80,10|0,0:0|0:0,0:0:0:0:
269,227,49335,1,2,0:0:0:0:
470,128,49485,1,2,3:2:0:0:
440,218,49635,1,2,0:0:0:0:
350,189,49785,1,10,0:0:0:0:
379,99,49935,1,2,0:0:0:0:
454,244,50085,5,6,3:2:0:0:
454,244,50160,2,0,P|448:299|441:373,1,120,2|0,0:0|0:0,0:0:0:0:
277,185,50535,2,0,P|284:226|290:271,1,80,10|0,0:0|0:0,0:0:0:0:
420,44,50835,1,2,0:0:0:0:
512,158,50985,2,0,B|428:173|444:113|341:140,1,160,2|10,3:2|0:0,0:0:0:0:
102,176,51585,5,6,3:2:0:0:
289,264,51735,1,2,0:0:0:0:
234,50,51885,2,0,L|229:129,1,80,2|10,0:0|0:0,0:0:0:0:
202,145,52110,1,2,0:0:0:0:
202,145,52185,2,0,L|207:224,1,80,2|2,0:0|0:0,0:0:0:0:
164,313,52485,1,2,3:2:0:0:
0,63,52635,1,2,0:0:0:0:
202,145,52785,1,10,0:0:0:0:
30,248,52935,1,2,0:0:0:0:
228,129,53085,6,0,B|272:99|331:114|331:114|349:140|393:142,1,160,14|0,3:1|0:0,0:0:0:0:
512,273,53535,2,0,P|467:222|403:243,1,120,10|0,0:0|0:0,0:0:0:0:
413,236,53835,1,10,0:0:0:0:
299,377,53985,2,0,P|292:320|283:288,1,80,10|2,0:0|0:0,0:0:0:0:
457,63,54285,2,0,P|464:120|473:152,1,80,8|2,0:0|0:0,0:0:0:0:
291,20,54585,5,14,3:1:0:0:
141,119,54735,2,0,P|96:112|48:106,1,80,8|0,0:0|0:0,0:0:0:0:
266,273,55035,2,0,P|297:239|279:158,1,120,10|0,0:0|0:0,0:0:0:0:
279,162,55335,1,10,0:0:0:0:
143,328,55485,2,0,P|138:288|129:249,1,80,10|0,0:0|0:0,0:0:0:0:
374,384,55785,2,0,P|365:345|360:305,1,80,10|2,0:0|0:0,0:0:0:0:
457,155,56085,6,0,B|440:135|440:135|404:127|404:127|355:173|276:142,1,176.000005371094,14|0,3:1|0:0,0:0:0:0:
124,24,56535,2,0,B|115:13|115:13|160:-14|239:20|233:91,1,180.000006866455,10|0,0:0|0:0,0:0:0:0:
230,95,56835,1,10,0:0:0:0:
138,316,56985,1,10,0:0:0:0:
357,239,57135,2,0,P|311:231|251:221,1,88.000002685547,2|8,0:0|0:0,0:0:0:0:
116,337,57435,1,2,0:0:0:0:
6,180,57585,5,6,3:1:0:0:
0,151,57660,1,8,0:3:0:0:
0,120,57735,1,4,0:3:0:0:
6,91,57810,1,4,0:3:0:0:
25,68,57885,1,0,3:2:0:0:
216,124,58035,5,6,0:3:0:0:
222,153,58110,1,4,0:3:0:0:
222,184,58185,1,0,3:2:0:0:
216,213,58260,1,0,3:2:0:0:
197,236,58335,1,2,3:2:0:0:
251,328,58485,5,10,0:0:0:0:
385,142,58635,1,2,0:0:0:0:
168,251,58785,1,10,0:0:0:0:
420,355,58935,1,2,0:0:0:0:
287,126,59085,6,0,P|226:93|159:119,1,128,6|0,3:1|0:0,0:0:0:0:
47,253,59535,2,0,B|124:232|124:232|143:252|196:252,1,128,8|0,0:0|0:0,0:0:0:0:
61,348,59985,2,0,P|31:340|-7:334,1,64,0|0,3:2|1:2,0:0:0:0:
185,158,60285,2,0,P|215:166|253:172,1,64,8|2,1:2|0:0,0:0:0:0:
269,210,60510,1,2,0:0:0:0:
269,210,60585,6,0,B|202:217|216:176|132:190,1,128,2|0,3:2|0:0,0:0:0:0:
53,357,61035,2,0,P|69:306|142:311,1,128,8|0,0:0|0:0,0:0:0:0:
225,384,61485,2,0,P|229:328|236:305,1,64,0|0,3:2|1:2,0:0:0:0:
136,125,61785,2,0,P|141:160|149:217,1,64,10|0,1:2|0:0,0:0:0:0:
300,223,62085,6,0,P|356:217|450:209,1,128,6|0,3:2|0:0,0:0:0:0:
272,37,62535,2,0,P|216:43|122:51,1,128,8|0,0:0|0:0,0:0:0:0:
50,181,62985,2,0,P|88:173|128:166,1,64,0|0,3:2|1:2,0:0:0:0:
223,344,63285,2,0,P|190:354|146:301,1,96,10|0,1:2|0:0,0:0:0:0:
160,292,63585,5,8,0:0:0:0:
336,244,63735,1,8,0:0:0:0:
208,116,63885,1,0,3:2:0:0:
240,212,64035,1,8,0:3:0:0:
304,128,64185,1,6,0:3:0:0:
272,32,64335,1,8,0:0:0:0:
336,244,64485,5,8,0:0:0:0:
240,212,64635,1,8,0:3:0:0:
161,243,64785,1,8,0:3:0:0:
143,263,64935,1,4,0:3:0:0:
145,275,65085,5,6,3:1:0:0:
