osu file format v14

[General]
AudioFilename: audio.mp3
AudioLeadIn: 0
PreviewTime: 8085
Countdown: 0
SampleSet: Soft
StackLeniency: 0.7
Mode: 0
LetterboxInBreaks: 0
WidescreenStoryboard: 1

[Editor]
DistanceSpacing: 1
BeatDivisor: 2
GridSize: 32
TimelineZoom: 1

[Metadata]
Title:Wild Woods
TitleUnicode:ネイチャーロード
Artist:Asahi Atsuko
ArtistUnicode:朝日温子
Creator:reiSevia
Version:Easy
Source:マリオカート8
Tags:phynta ascended -_ascended_- -ascended- mario kart cart mariokart deluxe 8 mk8d mk8dx mk8 nintendo wii u switch nature road electronic folk instrumental racing video game ost original soundtrack roda totsuki roda_totsuki
BeatmapID:3171160
BeatmapSetID:1551755

[Difficulty]
HPDrainRate:3
CircleSize:3
OverallDifficulty:3
ApproachRate:4
SliderMultiplier:0.9
SliderTickRate:1

[Events]
//Background and Video events
0,0,"ww.jpg",0,0
//Break Periods
//Storyboard Layer 0 (Background)
//Storyboard Layer 1 (Fail)
//Storyboard Layer 2 (Pass)
//Storyboard Layer 3 (Foreground)
//Storyboard Layer 4 (Overlay)
//Storyboard Sound Samples

[TimingPoints]
585,300,5,2,1,65,1,0
2085,-111.111111111111,5,2,1,55,0,0
13485,-111.111111111111,5,2,1,65,0,0
14085,-111.111111111111,5,2,1,60,0,0
18585,-111.111111111111,5,2,1,65,0,0
19485,-111.111111111111,5,2,1,70,0,0
20085,-111.111111111111,5,2,1,55,0,0
23085,-111.111111111111,5,2,1,60,0,0
24585,-111.111111111111,5,2,1,70,0,0
26085,-111.111111111111,5,2,1,60,0,0
35085,-111.111111111111,5,2,1,50,0,0
45585,-111.111111111111,5,2,1,60,0,0
46485,-111.111111111111,5,2,1,65,0,0
47085,-100,5,2,1,70,0,0
53085,-100,5,2,1,75,0,0
56085,-100,5,2,1,80,0,1
57585,-100,5,2,1,85,0,1
58485,-100,5,2,1,90,0,1
59085,-100,5,2,1,65,0,0

[Colours]
Combo1 : 250,180,240
Combo2 : 120,200,230
Combo3 : 255,230,130
Combo4 : 160,230,150

[HitObjects]
496,268,2085,6,0,B|454:288|414:259|414:259|414:313|342:351|298:322,1,242.999992584229,6|0,3:1|3:2,0:0:0:0:
246,260,3285,1,8,1:2:0:0:
222,182,3585,2,0,P|225:115|239:38,2,121.499996292114,0|8|0,3:2|0:0|3:2,0:0:0:0:
246,260,4785,1,8,1:2:0:0:
190,319,5085,2,0,B|134:365|56:319|48:259|48:259|80:222|73:178,1,242.999992584229,0|0,3:2|3:2,0:0:0:0:
30,139,6285,1,8,1:2:0:0:
73,70,6585,2,0,L|198:52,2,121.499996292114,8|8|8,0:0|0:3|0:3,0:0:0:0:
30,139,7785,1,4,0:3:0:0:
91,191,8085,6,0,P|146:177|227:171,1,121.499996292114,6|10,3:1|0:0,0:0:0:0:
324,211,8985,2,0,P|364:218|411:239,1,80.9999975280763,2|10,3:2|0:0,0:0:0:0:
468,187,9585,2,0,P|473:127|446:74,2,121.499996292114,2|10|0,3:2|0:0|3:2,0:0:0:0:
401,233,10785,1,10,0:0:0:0:
437,305,11085,2,0,P|396:281|309:308,1,121.499996292114,2|10,3:2|0:0,0:0:0:0:
228,366,11985,2,0,P|167:376|136:366,1,80.9999975280763,2|10,3:2|0:0,0:0:0:0:
104,304,12585,2,0,P|49:319|-8:368,2,121.499996292114,2|10|2,3:2|0:0|3:2,0:0:0:0:
157,243,13785,1,10,0:0:0:0:
124,168,14085,6,0,P|116:102|133:46,2,121.499996292114,6|10|2,3:1|0:0|3:2,0:0:0:0:
157,243,15285,1,8,0:0:0:0:
211,182,15585,2,0,P|252:129|303:102,2,121.499996292114,2|10|2,3:2|0:0|3:2,0:0:0:0:
157,243,16785,1,8,0:0:0:0:
216,298,17085,2,0,P|273:285|367:272,1,121.499996292114,2|10,3:2|0:0,0:0:0:0:
428,197,17985,2,0,P|441:149|423:95,1,80.9999975280763,2|10,3:2|0:0,0:0:0:0:
393,49,18585,2,0,P|363:61|244:69,1,121.499996292114,2|8,3:2|0:0,0:0:0:0:
162,26,19485,1,10,3:2:0:0:
82,42,19785,1,10,3:2:0:0:
46,114,20085,6,0,L|62:270,1,121.499996292114,6|10,3:1|0:0,0:0:0:0:
146,318,20985,2,0,P|182:308|229:306,1,80.9999975280763,2|10,3:2|0:0,0:0:0:0:
296,345,21585,2,0,P|356:352|402:285,2,121.499996292114,2|10|2,3:2|0:0|3:2,0:0:0:0:
225,305,22785,1,10,0:0:0:0:
190,231,23085,2,0,P|193:162|205:98,1,121.499996292114,2|10,3:2|0:0,0:0:0:0:
283,20,23985,2,0,P|321:23|361:44,1,80.9999975280763,2|8,3:2|0:0,0:0:0:0:
435,16,24585,1,6,3:3:0:0:
498,119,25035,1,10,3:2:0:0:
436,223,25485,2,0,P|427:263|427:311,1,80.9999975280763,10|4,3:2|0:3,0:0:0:0:
375,366,26085,6,0,P|301:347|233:345,1,121.499996292114,6|10,3:1|0:0,0:0:0:0:
172,256,26985,2,0,P|166:199|194:165,1,80.9999975280763,2|10,3:2|0:0,0:0:0:0:
241,131,27585,2,0,P|317:141|382:158,2,121.499996292114,2|10|2,3:2|0:0|3:2,0:0:0:0:
191,66,28785,1,10,0:0:0:0:
117,32,29085,2,0,P|54:22|25:83,1,121.499996292114,6|10,3:2|0:0,0:0:0:0:
69,176,29985,2,0,P|109:169|159:161,1,80.9999975280763,2|8,3:2|0:0,0:0:0:0:
215,209,30585,2,0,P|225:272|164:301,1,121.499996292114,2|10,3:2|0:0,0:0:0:0:
68,262,31485,1,2,3:2:0:0:
9,318,31785,1,8,0:0:0:0:
60,380,32085,5,6,3:1:0:0:
256,192,32235,12,6,35085,3:2:0:0:
368,86,36585,6,0,B|429:130|474:100|463:41,2,121.499996292114,2|2|10,3:2|3:2|0:0,0:0:0:0:
213,35,38085,2,0,P|154:43|78:68,1,121.499996292114,2|10,3:2|0:0,0:0:0:0:
39,120,38835,1,2,3:2:0:0:
110,218,39285,1,10,0:0:0:0:
58,280,39585,2,0,P|40:333|109:370,2,121.499996292114,2|2|8,3:2|3:2|0:0,0:0:0:0:
110,218,40785,1,10,0:0:0:0:
181,255,41085,6,0,P|241:264|337:305,1,161.999995056153,2|2,3:2|0:0,0:0:0:0:
414,291,41985,2,0,P|432:244|411:204,1,80.9999975280763,2|10,3:2|0:0,0:0:0:0:
377,149,42585,2,0,P|384:88|405:23,2,121.499996292114,2|2|8,3:2|3:2|0:0,0:0:0:0:
299,173,43785,1,10,0:0:0:0:
220,193,44085,2,0,P|156:180|71:167,2,121.499996292114,2|8|0,3:2|0:0|3:2,0:0:0:0:
181,350,45585,2,0,P|114:366|69:332,1,121.499996292114,8|8,0:0|0:3,0:0:0:0:
47,220,46485,1,10,0:0:0:0:
87,149,46785,1,6,0:3:0:0:
48,77,47085,6,0,P|56:20|165:26,1,180,6|2,3:1|0:0,0:0:0:0:
201,97,47985,1,2,3:2:0:0:
282,58,48285,1,10,0:0:0:0:
336,129,48585,2,0,P|321:172|322:270,2,135,2|10|2,3:2|0:0|3:2,0:0:0:0:
488,33,50085,2,0,P|503:76|502:174,2,135,6|10|2,3:2|0:0|3:2,0:0:0:0:
401,8,51285,1,10,0:0:0:0:
342,76,51585,2,0,P|339:143|358:207,1,135,6|8,3:2|0:0,0:0:0:0:
278,317,52485,2,0,P|231:329|185:313,1,90,0|10,3:2|0:0,0:0:0:0:
114,363,53085,6,0,P|138:304|103:203,1,135,14|10,3:1|0:0,0:0:0:0:
38,132,53985,1,10,0:0:0:0:
56,43,54285,1,8,0:0:0:0:
141,13,54585,2,0,P|200:12|278:67,1,135,14|10,3:1|0:0,0:0:0:0:
357,146,55485,1,10,0:0:0:0:
299,215,55785,1,10,0:0:0:0:
329,299,56085,6,0,P|264:306|185:331,1,135,14|10,3:1|0:0,0:0:0:0:
70,279,56985,1,10,0:0:0:0:
18,205,57285,1,8,0:0:0:0:
44,118,57585,1,6,3:1:0:0:
156,43,58035,1,6,0:3:0:0:
289,65,58485,2,0,P|330:52|395:49,1,90,10|10,0:0|0:0,0:0:0:0:
453,94,59085,5,6,3:1:0:0:
256,192,59235,12,6,65085,3:1:0:0:
