osu file format v14

[General]
AudioFilename: audio.mp3
AudioLeadIn: 0
PreviewTime: 8085
Countdown: 0
SampleSet: Soft
StackLeniency: 0.5
Mode: 0
LetterboxInBreaks: 0
WidescreenStoryboard: 1

[Editor]
DistanceSpacing: 1
BeatDivisor: 4
GridSize: 32
TimelineZoom: 1.5

[Metadata]
Title:Wild Woods
TitleUnicode:ネイチャーロード
Artist:Asahi Atsuko
ArtistUnicode:朝日温子
Creator:reiSevia
Version:Ascended's Normal
Source:マリオカート8
Tags:phynta ascended -_ascended_- -ascended- mario kart cart mariokart deluxe 8 mk8d mk8dx mk8 nintendo wii u switch nature road electronic folk instrumental racing video game ost original soundtrack roda totsuki roda_totsuki
BeatmapID:3240327
BeatmapSetID:1551755

[Difficulty]
HPDrainRate:4
CircleSize:3.5
OverallDifficulty:4
ApproachRate:5.5
SliderMultiplier:1
SliderTickRate:1

[Events]
//Background and Video events
0,0,"ww.jpg",0,0
//Break Periods
//Storyboard Layer 0 (Background)
//Storyboard Layer 1 (Fail)
//Storyboard Layer 2 (Pass)
//Storyboard Layer 3 (Foreground)
//Storyboard Layer 4 (Overlay)
//Storyboard Sound Samples

[TimingPoints]
585,300,5,2,1,65,1,0
585,-111.111111111111,5,2,1,65,0,0
2085,-99.9999999999999,5,2,1,55,0,0
13485,-99.9999999999999,5,2,1,65,0,0
14085,-99.9999999999999,5,2,1,60,0,0
18585,-99.9999999999999,5,2,1,65,0,0
19485,-99.9999999999999,5,2,1,70,0,0
20085,-100,5,2,1,55,0,0
23085,-100,5,2,1,60,0,0
24585,-100,5,2,1,70,0,0
26085,-100,5,2,1,60,0,0
35085,-111.111111111111,5,2,1,50,0,0
45585,-111.111111111111,5,2,1,60,0,0
46485,-111.111111111111,5,2,1,65,0,0
47085,-100,5,2,1,70,0,0
53085,-100,5,2,1,75,0,0
56085,-100,5,2,1,80,0,0
57585,-100,5,2,1,85,0,0
58485,-100,5,2,1,90,0,0
59085,-100,5,2,1,65,0,0

[Colours]
Combo1 : 250,180,240
Combo2 : 120,200,230
Combo3 : 255,230,130
Combo4 : 160,230,150

[HitObjects]
449,281,585,6,0,L|442:236,1,44.999998626709,10|8,0:0|0:0,0:0:0:0:
355,260,1035,1,10,0:0:0:0:
288,319,1335,1,10,0:0:0:0:
288,319,1485,1,10,0:0:0:0:
200,297,1785,1,10,0:0:0:0:
109,339,2085,6,0,B|74:308|74:308|90:260,1,100,6|0,3:1|0:0,0:0:0:0:
102,207,2535,2,0,P|92:161|80:116,1,100,8|0,0:0|0:0,0:0:0:0:
52,67,2985,1,0,3:2:0:0:
144,27,3285,1,8,1:2:0:0:
212,100,3585,6,0,B|256:84|256:84|286:119,1,100,0|0,3:2|0:0,0:0:0:0:
303,173,4035,2,0,P|287:216|275:265,1,100,8|0,0:0|0:0,0:0:0:0:
278,318,4485,1,0,3:2:0:0:
364,367,4785,1,8,1:2:0:0:
454,325,5085,6,0,B|469:280|469:280|434:250,1,100,0|0,3:2|0:0,0:0:0:0:
394,209,5535,2,0,P|406:161|414:104,1,100,8|0,0:0|0:0,0:0:0:0:
417,61,5985,1,0,3:2:0:0:
324,23,6285,1,8,1:2:0:0:
247,86,6585,5,8,0:0:0:0:
247,86,6735,2,0,B|258:103|258:103|255:137,1,50,8|0,0:0|0:0,0:0:0:0:
248,182,7035,1,8,0:3:0:0:
303,271,7335,1,0,3:2:0:0:
303,271,7485,1,8,0:3:0:0:
230,339,7785,1,4,0:3:0:0:
130,339,8085,6,0,P|68:332|58:283,1,100,6|0,3:1|0:0,0:0:0:0:
79,258,8535,2,0,P|70:197|58:153,1,100,10|2,0:0|0:0,0:0:0:0:
66,110,8985,2,0,P|52:84|27:67,2,50,2|2|10,3:2|0:0|0:0,0:0:0:0:
149,53,9585,5,2,3:2:0:0:
149,53,9735,1,2,0:0:0:0:
197,140,10035,2,0,P|183:183|173:240,1,100,10|0,0:0|0:0,0:0:0:0:
177,283,10485,1,0,3:2:0:0:
248,352,10785,1,10,0:0:0:0:
341,316,11085,6,0,P|346:253|362:204,1,100,2|0,3:2|0:0,0:0:0:0:
396,187,11535,2,0,P|437:168|439:108,1,100,10|2,0:0|0:0,0:0:0:0:
404,86,11985,2,0,P|401:61|392:30,2,50,2|2|10,3:2|0:0|0:0,0:0:0:0:
310,114,12585,5,2,3:2:0:0:
310,114,12735,1,2,0:0:0:0:
237,45,13035,2,0,P|204:6|144:12,1,100,10|0,0:0|0:0,0:0:0:0:
133,48,13485,2,0,P|139:75|141:107,1,50,2|2,3:2|0:0,0:0:0:0:
165,140,13785,2,0,P|159:167|157:199,1,50,10|2,0:0|0:0,0:0:0:0:
138,235,14085,6,0,B|220:220|198:273|283:258,1,150,6|10,3:1|0:0,0:0:0:0:
356,333,14835,1,2,0:0:0:0:
356,333,14985,2,0,P|374:349|407:350,1,50,2|0,3:2|0:0,0:0:0:0:
482,295,15435,1,2,0:0:0:0:
482,295,15585,6,0,B|497:213|444:235|459:150,1,150,2|10,3:2|0:0,0:0:0:0:
458,54,16335,1,2,0:0:0:0:
458,54,16485,2,0,P|425:57|409:68,1,50,2|2,3:2|0:0,0:0:0:0:
321,104,16935,1,2,0:0:0:0:
321,104,17085,6,0,P|325:126|330:165,1,50,2|2,3:2|0:0,0:0:0:0:
340,251,17535,1,10,0:0:0:0:
290,339,17835,1,2,0:0:0:0:
290,339,17985,2,0,P|265:333|239:333,1,50,2|2,3:2|0:0,0:0:0:0:
192,318,18285,2,0,P|169:326|135:333,1,50,10|2,0:0|0:0,0:0:0:0:
95,344,18585,6,0,P|84:294|72:241,1,100,2|2,3:2|0:0,0:0:0:0:
44,212,19035,1,8,0:0:0:0:
44,212,19185,2,0,P|46:185|55:158,2,50,2|0|10,0:0|0:0|3:2,0:0:0:0:
143,206,19785,2,0,P|171:188|179:166,1,50,10|0,3:2|0:0,0:0:0:0:
207,133,20085,6,0,B|252:113|252:113|287:150,1,100,6|0,3:1|0:0,0:0:0:0:
307,195,20535,1,10,0:0:0:0:
339,295,20835,1,2,0:0:0:0:
339,295,20985,2,0,P|348:323|356:353,2,50,2|2|10,3:2|0:0|0:0,0:0:0:0:
431,256,21585,6,0,B|467:220|467:220|447:174,1,100,2|0,3:2|0:0,0:0:0:0:
419,133,22035,1,10,0:0:0:0:
345,72,22335,1,0,0:0:0:0:
345,72,22485,2,0,B|339:46|339:46|337:46|337:46|339:20,2,50,2|2|10,3:2|0:0|0:0,0:0:0:0:
252,110,23085,6,0,B|216:75|216:75|166:96,1,100,2|0,3:2|0:0,0:0:0:0:
132,129,23535,1,10,0:0:0:0:
178,223,23835,1,2,0:0:0:0:
178,223,23985,2,0,P|210:213|231:211,1,50,2|2,3:2|0:0,0:0:0:0:
296,290,24435,1,2,0:0:0:0:
296,290,24585,6,0,B|349:298|349:298|357:291|357:291|405:297,1,100,6|0,3:3|0:0,0:0:0:0:
442,303,25035,2,0,B|449:250|449:250|442:242|442:242|448:194,1,100,10|10,3:2|3:2,0:0:0:0:
424,161,25485,2,0,L|430:103,2,50,10|2|4,3:2|0:0|0:3,0:0:0:0:
339,118,26085,5,6,3:1:0:0:
339,118,26235,2,0,B|289:121|289:121|266:178,1,100,2|10,0:0|0:0,0:0:0:0:
297,268,26835,1,2,0:0:0:0:
297,268,26985,2,0,P|255:274|239:281,1,50,2|2,3:2|0:0,0:0:0:0:
212,312,27285,1,10,0:0:0:0:
116,328,27585,6,0,B|81:291|81:291|99:241,1,100,2|2,3:2|0:0,0:0:0:0:
121,200,28035,2,0,P|111:149|99:96,1,100,10|0,0:0|0:0,0:0:0:0:
84,54,28485,1,2,3:2:0:0:
183,55,28785,2,0,P|211:62|235:75,1,50,10|2,0:0|0:0,0:0:0:0:
276,91,29085,6,0,B|224:155|224:155|243:227,1,150,6|10,3:2|0:0,0:0:0:0:
266,322,29835,1,2,0:0:0:0:
266,322,29985,2,0,P|293:307|316:298,1,50,2|2,3:2|0:0,0:0:0:0:
405,262,30435,1,2,0:0:0:0:
405,262,30585,6,0,B|425:241|401:196|401:196|320:166,1,150,2|10,3:2|0:0,0:0:0:0:
231,185,31335,1,2,0:0:0:0:
231,185,31485,2,0,P|198:201|178:206,1,50,2|2,3:2|0:0,0:0:0:0:
106,152,31935,1,2,0:0:0:0:
106,152,32085,6,0,B|66:132|69:92|69:92|51:131|9:127,2,150,6|8|0,3:1|0:0|3:2,0:0:0:0:
189,96,33285,1,8,0:0:0:0:
272,147,33585,6,0,B|325:139|325:139|333:146|333:146|381:140,1,100,8|0,0:0|0:0,0:0:0:0:
417,132,34035,2,0,B|425:186|425:186|418:194|418:194|424:242,1,100,8|4,0:3|0:3,0:0:0:0:
429,275,34485,1,8,0:0:0:0:
361,348,34785,2,0,P|335:329|329:306,1,50,6|2,3:0|0:0,0:0:0:0:
320,268,35085,6,0,P|275:276|223:297,1,89.9999972534181,6|0,3:2|0:0,0:0:0:0:
194,314,35535,2,0,P|151:298|107:290,1,89.9999972534181,8|0,3:2|0:0,0:0:0:0:
64,278,35985,1,2,3:2:0:0:
28,195,36285,1,10,0:0:0:0:
78,120,36585,6,0,P|138:134|153:164,1,89.9999972534181,2|2,3:2|0:0,0:0:0:0:
165,198,37035,1,2,3:2:0:0:
253,172,37335,1,2,3:2:0:0:
253,172,37485,1,10,0:0:0:0:
306,244,37785,1,8,0:0:0:0:
392,222,38085,6,0,P|451:206|459:176,1,89.9999972534181,2|0,3:2|0:0,0:0:0:0:
453,139,38535,1,10,0:0:0:0:
403,63,38835,1,2,3:2:0:0:
403,63,38985,2,0,P|351:74|311:85,1,89.9999972534181,2|10,3:2|0:0,0:0:0:0:
227,66,39585,6,0,P|233:32|243:12,2,44.999998626709,2|2|2,3:2|0:0|0:0,0:0:0:0:
186,146,40185,2,0,P|196:180|201:201,1,44.999998626709,0|0,0:0|3:2,0:0:0:0:
212,232,40485,1,8,0:0:0:0:
175,314,40785,2,0,P|150:305|126:299,1,44.999998626709,10|2,0:0|0:0,0:0:0:0:
88,312,41085,6,0,P|30:297|20:259,1,89.9999972534181,2|0,3:2|0:0,0:0:0:0:
39,233,41535,2,0,P|33:211|25:190,1,44.999998626709,10|2,0:0|0:0,0:0:0:0:
58,106,41985,1,2,3:2:0:0:
144,125,42285,1,10,0:0:0:0:
224,83,42585,6,0,P|259:84|293:135,1,89.9999972534181,2|2,3:2|0:0,0:0:0:0:
287,168,43035,1,2,3:2:0:0:
223,231,43335,1,2,3:2:0:0:
223,231,43485,1,8,0:0:0:0:
252,315,43785,1,10,0:0:0:0:
332,356,44085,6,0,P|368:336|421:327,1,89.9999972534181,2|0,3:2|0:0,0:0:0:0:
457,343,44535,1,8,0:0:0:0:
502,265,44835,1,0,0:0:0:0:
502,265,44985,2,0,P|499:214|465:193,1,89.9999972534181,0|8,3:2|0:0,0:0:0:0:
421,117,45585,5,8,0:0:0:0:
341,153,45885,1,0,3:2:0:0:
341,153,46035,1,8,0:3:0:0:
262,121,46335,1,8,0:0:0:0:
262,121,46485,2,0,P|230:137|214:156,1,44.999998626709,10|2,0:0|0:0,0:0:0:0:
185,167,46785,2,0,P|182:202|191:226,1,44.999998626709,6|0,0:3|0:0,0:0:0:0:
210,253,47085,6,0,P|150:259|52:286,1,150,6|8,3:1|0:0,0:0:0:0:
14,294,47685,1,2,0:0:0:0:
0,194,47985,1,2,3:2:0:0:
22,96,48285,1,10,0:0:0:0:
99,33,48585,2,0,P|144:39|160:94,1,100,2|2,3:2|0:0,0:0:0:0:
182,131,49035,1,10,0:0:0:0:
167,233,49335,1,2,0:0:0:0:
167,233,49485,2,0,P|181:285|190:344,1,100,2|8,3:2|0:0,0:0:0:0:
281,367,50085,6,0,P|346:347|351:264,1,150,6|10,3:2|0:0,0:0:0:0:
288,207,50835,1,2,0:0:0:0:
288,207,50985,2,0,P|296:157|309:109,1,100,2|10,3:2|0:0,0:0:0:0:
380,40,51585,1,6,3:2:0:0:
380,40,51735,2,0,P|411:43|430:57,1,50,2|2,0:0|0:0,0:0:0:0:
455,93,52035,2,0,P|441:141|433:190,1,100,8|0,0:0|0:0,0:0:0:0:
441,239,52485,1,0,3:2:0:0:
477,332,52785,1,10,0:0:0:0:
382,365,53085,6,0,L|332:358,1,50,14|8,3:1|0:0,0:0:0:0:
233,347,53535,1,10,0:0:0:0:
182,267,53835,1,10,0:0:0:0:
182,267,53985,1,10,0:0:0:0:
83,251,54285,1,8,0:0:0:0:
95,151,54585,6,0,L|145:144,1,50,14|8,3:1|0:0,0:0:0:0:
244,133,55035,1,10,0:0:0:0:
295,53,55335,1,10,0:0:0:0:
295,53,55485,1,10,0:0:0:0:
394,37,55785,1,10,0:0:0:0:
473,97,56085,6,0,P|458:151|451:202,1,100,14|0,3:1|0:0,0:0:0:0:
441,243,56535,2,0,P|387:228|336:221,1,100,10|10,0:0|0:0,0:0:0:0:
293,213,56985,1,10,0:0:0:0:
293,213,57135,1,2,0:0:0:0:
253,121,57435,1,2,0:0:0:0:
253,121,57585,6,0,P|216:123|198:131,1,50,6|4,3:1|0:3,0:0:0:0:
160,151,57885,1,0,3:2:0:0:
160,151,58035,2,0,P|175:205|182:256,1,100,6|2,0:3|3:2,0:0:0:0:
168,296,58485,1,10,0:0:0:0:
247,356,58785,1,10,0:0:0:0:
344,336,59085,6,0,B|442:316|373:287|471:262,2,150,6|8|0,3:1|0:0|3:2,0:0:0:0:
274,264,60285,1,8,1:2:0:0:
297,166,60585,6,0,B|317:68|346:137|371:39,2,150,2|8|0,3:2|0:0|3:2,0:0:0:0:
370,233,61785,1,10,1:2:0:0:
274,264,62085,6,0,B|176:244|245:215|147:190,2,150,6|8|0,3:2|0:0|3:2,0:0:0:0:
342,336,63285,1,10,1:2:0:0:
248,362,63585,5,8,0:0:0:0:
248,362,63735,2,0,P|218:349|188:345,1,50,8|0,0:0|3:2,0:0:0:0:
151,354,64035,1,8,0:3:0:0:
61,323,64335,1,8,0:0:0:0:
61,323,64485,2,0,P|49:288|49:258,1,50,8|8,0:0|0:3,0:0:0:0:
77,234,64785,2,0,P|89:199|89:169,1,50,8|4,0:3|0:3,0:0:0:0:
59,146,65085,5,6,3:1:0:0:
