osu file format v14

[General]
AudioFilename: audio.ogg
AudioLeadIn: 0
PreviewTime: 121443
Countdown: 0
SampleSet: Normal
StackLeniency: 0.7
Mode: 1
LetterboxInBreaks: 0
WidescreenStoryboard: 1

[Editor]
Bookmarks: 38536,64121,106014,109443,112871,116300,121443,135157,148871,162586
DistanceSpacing: 1.2
BeatDivisor: 4
GridSize: 32
TimelineZoom: 2.4

[Metadata]
Title:Yalancinin Mumu Ikindiye Kadar Anca Dayandi
TitleUnicode:Yalancının Mumu İkindiye Kadar Anca Dayandı
Artist:As My Life Falls Apart
ArtistUnicode:As My Life Falls Apart
Creator:skolodojko
Version:Oni
Source:
Tags:turkish metal metalcore amlfa electronicore crabcore
BeatmapID:3932429
BeatmapSetID:1906963

[Difficulty]
HPDrainRate:5.5
CircleSize:2
OverallDifficulty:5.5
ApproachRate:10
SliderMultiplier:1.4
SliderTickRate:1

[Events]
//Background and Video events
0,0,"3383408.jpg",0,-131
//Break Periods
//Storyboard Layer 0 (Background)
//Storyboard Layer 1 (Fail)
//Storyboard Layer 2 (Pass)
//Storyboard Layer 3 (Foreground)
//Storyboard Layer 4 (Overlay)
//Storyboard Sound Samples

[TimingPoints]
121,400,4,1,0,60,1,0
121,-125,4,1,0,60,0,0
12521,-121.951219512195,4,1,0,60,0,0
12621,-119.047619047619,4,1,0,60,0,0
12721,-116.279069767442,4,1,0,60,0,0
12821,-113.636363636364,4,1,0,60,0,0
12896,-111.111111111111,4,1,0,80,0,0
24921,-108.695652173913,4,1,0,80,0,0
25021,-107.52688172043,4,1,0,80,0,0
25121,-106.382978723404,4,1,0,80,0,0
25221,-105.263157894737,4,1,0,80,0,0
25321,-104.166666666667,4,1,0,80,0,0
25421,-103.092783505155,4,1,0,80,0,0
25521,-102.040816326531,4,1,0,80,0,0
25621,-101.010101010101,4,1,0,80,0,0
25721,-100,4,1,0,80,0,0
38496,-100,4,1,0,100,0,0
38521,-100,4,1,0,100,0,1
38721,-105.263157894737,4,1,0,100,0,1
64121,-105.263157894737,4,1,0,100,0,0
64521,-125,4,1,0,70,0,0
76921,413.793103448276,4,1,0,70,1,0
76921,-125,4,1,0,70,0,0
78571,428.571428571429,4,1,0,100,1,0
92285,-95.2380952380952,4,1,0,100,0,0
106213,-96.1538461538461,4,1,0,100,0,0
106428,-97.0873786407767,4,1,0,60,0,0
106642,-98.0392156862745,4,1,0,60,0,0
106856,-99.009900990099,4,1,0,60,0,0
107071,-100,4,1,0,60,0,0
107285,-101.010101010101,4,1,0,60,0,0
107499,-102.040816326531,4,1,0,60,0,0
107713,-103.092783505155,4,1,0,60,0,0
107928,-104.166666666667,4,1,0,60,0,0
108142,-105.263157894737,4,1,0,60,0,0
108356,-106.382978723404,4,1,0,60,0,0
108571,-107.52688172043,4,1,0,60,0,0
108785,-108.695652173913,4,1,0,60,0,0
108999,-109.89010989011,4,1,0,60,0,0
109213,-111.111111111111,4,1,0,60,0,0
109428,-112.359550561798,4,1,0,60,0,0
109642,-113.636363636364,4,1,0,60,0,0
109856,-114.942528735632,4,1,0,60,0,0
110071,-116.279069767442,4,1,0,60,0,0
110285,-117.647058823529,4,1,0,60,0,0
110499,-119.047619047619,4,1,0,60,0,0
110713,-120.481927710843,4,1,0,60,0,0
110928,-121.951219512195,4,1,0,60,0,0
111142,-123.456790123457,4,1,0,60,0,0
111356,-125,4,1,0,60,0,0
111571,-126.582278481013,4,1,0,60,0,0
111785,-128.205128205128,4,1,0,60,0,0
111999,-129.87012987013,4,1,0,60,0,0
112213,-131.578947368421,4,1,0,60,0,0
112428,-133.333333333333,4,1,0,60,0,0
112642,-135.135135135135,4,1,0,60,0,0
112856,-136.986301369863,4,1,0,60,0,0
121213,-136.986301369863,4,1,0,80,0,0
121428,-125,4,1,0,80,0,1
174999,-129.87012987013,4,1,0,80,0,1
175428,-135.135135135135,4,1,0,80,0,1
175856,-140.845070422535,4,1,0,80,0,1
176071,-147.058823529412,4,1,0,60,0,1
176285,-149.253731343284,4,1,0,60,0,0
176472,-149.253731343284,4,1,0,40,0,0

[HitObjects]
186,209,121,5,8,0:0:0:0:
264,175,521,1,0,0:0:0:0:
186,209,721,1,0,0:0:0:0:
186,209,921,1,0,0:0:0:0:
186,209,1321,1,8,0:0:0:0:
186,209,1721,1,0,0:0:0:0:
157,203,1921,1,0,0:0:0:0:
157,203,2121,1,0,0:0:0:0:
157,215,2521,1,8,0:0:0:0:
157,214,2721,1,0,0:0:0:0:
157,214,2921,1,0,0:0:0:0:
157,215,3321,1,8,0:0:0:0:
157,214,3721,1,0,0:0:0:0:
157,214,3921,1,0,0:0:0:0:
157,215,4121,1,0,0:0:0:0:
157,214,4521,1,8,0:0:0:0:
157,214,4921,1,0,0:0:0:0:
189,216,5121,1,8,0:0:0:0:
189,216,5321,1,0,0:0:0:0:
189,216,5721,1,8,0:0:0:0:
189,216,5921,1,8,0:0:0:0:
189,216,6121,1,0,0:0:0:0:
189,216,6321,1,8,0:0:0:0:
189,216,6521,1,0,0:0:0:0:
189,216,6921,1,0,0:0:0:0:
189,216,7321,1,8,0:0:0:0:
189,216,7721,1,0,0:0:0:0:
189,216,8121,1,0,0:0:0:0:
189,216,8521,1,0,0:0:0:0:
189,216,8721,1,0,0:0:0:0:
189,216,8921,1,8,0:0:0:0:
189,216,9321,1,0,0:0:0:0:
189,216,9721,1,0,0:0:0:0:
189,216,10121,1,0,0:0:0:0:
189,216,10521,1,8,0:0:0:0:
189,216,10921,1,0,0:0:0:0:
189,216,11121,1,0,0:0:0:0:
189,216,11321,1,8,0:0:0:0:
189,216,11521,1,0,0:0:0:0:
189,216,11721,1,0,0:0:0:0:
189,216,11921,1,0,0:0:0:0:
189,216,12121,1,8,0:0:0:0:
265,185,12421,1,0,0:0:0:0:
189,216,12521,1,8,0:0:0:0:
265,185,12621,1,8,0:0:0:0:
265,185,12721,1,0,0:0:0:0:
321,157,12921,1,8,0:0:0:0:
203,172,13521,1,0,0:0:0:0:
203,172,13721,1,8,0:0:0:0:
203,172,14521,1,0,0:0:0:0:
204,205,14821,1,0,0:0:0:0:
204,205,15121,1,0,0:0:0:0:
204,205,15321,1,8,0:0:0:0:
216,202,15921,1,8,0:0:0:0:
249,198,16121,1,0,0:0:0:0:
206,176,16721,1,0,0:0:0:0:
207,168,16921,1,8,0:0:0:0:
206,176,17521,1,0,0:0:0:0:
206,176,17721,1,0,0:0:0:0:
257,130,18021,1,0,0:0:0:0:
257,130,18321,1,0,0:0:0:0:
257,130,18521,1,8,0:0:0:0:
263,155,19121,1,8,0:0:0:0:
263,155,19321,1,0,0:0:0:0:
236,167,19921,1,0,0:0:0:0:
237,165,20121,1,8,0:0:0:0:
236,167,20921,1,0,0:0:0:0:
253,212,21221,1,0,0:0:0:0:
244,213,21521,1,0,0:0:0:0:
243,213,21721,1,8,0:0:0:0:
213,201,22321,1,8,0:0:0:0:
213,201,22521,1,0,0:0:0:0:
241,154,23121,1,0,0:0:0:0:
241,154,23321,1,8,0:0:0:0:
241,154,24121,1,0,0:0:0:0:
269,148,24421,1,0,0:0:0:0:
269,148,24721,1,0,0:0:0:0:
226,175,24921,1,8,0:0:0:0:
233,171,25021,1,8,0:0:0:0:
226,175,25121,1,0,0:0:0:0:
233,171,25221,1,0,0:0:0:0:
226,175,25321,1,8,0:0:0:0:
226,175,25521,1,0,0:0:0:0:
233,171,25621,1,0,0:0:0:0:
226,175,25721,1,8,0:0:0:0:
233,167,25921,1,0,0:0:0:0:
233,168,26121,1,8,0:0:0:0:
233,171,26221,1,8,0:0:0:0:
236,168,26321,1,0,0:0:0:0:
237,166,26521,1,8,0:0:0:0:
311,166,26921,1,0,0:0:0:0:
311,166,27121,1,0,0:0:0:0:
311,166,27321,1,8,0:0:0:0:
311,166,27721,1,0,0:0:0:0:
311,166,28121,1,8,0:0:0:0:
311,166,28321,1,8,0:0:0:0:
311,166,28521,1,0,0:0:0:0:
311,166,28721,1,0,0:0:0:0:
311,166,28921,1,8,0:0:0:0:
233,168,29021,1,0,0:0:0:0:
303,166,29121,1,0,0:0:0:0:
233,168,29221,1,0,0:0:0:0:
303,166,29321,1,8,0:0:0:0:
303,166,29521,1,0,0:0:0:0:
237,174,29621,1,0,0:0:0:0:
303,166,29721,1,8,0:0:0:0:
311,166,29921,1,8,0:0:0:0:
303,166,30121,1,8,0:0:0:0:
303,166,30321,1,8,0:0:0:0:
303,166,30521,1,0,0:0:0:0:
311,166,30921,1,0,0:0:0:0:
242,183,31321,1,8,0:0:0:0:
270,246,31721,1,0,0:0:0:0:
216,238,32121,1,8,0:0:0:0:
228,165,32221,1,8,0:0:0:0:
216,238,32321,1,8,0:0:0:0:
216,238,32521,1,0,0:0:0:0:
254,154,32621,1,0,0:0:0:0:
216,238,32721,1,0,0:0:0:0:
216,238,32921,1,8,0:0:0:0:
213,149,33121,1,0,0:0:0:0:
213,149,33321,1,8,0:0:0:0:
213,149,33521,1,8,0:0:0:0:
213,149,33721,1,0,0:0:0:0:
230,200,33921,1,8,0:0:0:0:
195,206,34321,1,8,0:0:0:0:
195,206,34521,1,8,0:0:0:0:
195,206,34721,1,0,0:0:0:0:
195,206,34921,1,0,0:0:0:0:
195,206,35121,1,0,0:0:0:0:
195,206,35321,1,8,0:0:0:0:
195,206,35521,1,0,0:0:0:0:
219,126,35621,1,0,0:0:0:0:
195,206,35721,1,8,0:0:0:0:
219,126,35821,1,8,0:0:0:0:
195,206,35921,1,0,0:0:0:0:
195,206,36121,1,8,0:0:0:0:
195,206,36521,1,0,0:0:0:0:
195,206,36721,1,0,0:0:0:0:
195,206,36921,1,8,0:0:0:0:
208,138,37021,1,8,0:0:0:0:
195,206,37121,1,0,0:0:0:0:
208,138,37221,1,0,0:0:0:0:
195,206,37321,1,8,0:0:0:0:
195,206,37521,1,0,0:0:0:0:
208,138,37621,1,0,0:0:0:0:
195,206,37721,1,8,0:0:0:0:
195,206,37921,1,0,0:0:0:0:
195,206,38121,1,8,0:0:0:0:
195,206,38321,1,0,0:0:0:0:
195,206,38521,1,12,0:0:0:0:
177,199,38921,1,8,0:0:0:0:
177,199,39121,1,0,0:0:0:0:
177,199,39321,1,8,0:0:0:0:
177,199,39521,1,0,0:0:0:0:
237,180,39621,1,0,0:0:0:0:
177,199,39721,1,8,0:0:0:0:
177,199,39921,1,0,0:0:0:0:
177,199,40121,1,8,0:0:0:0:
177,199,40321,1,8,0:0:0:0:
177,199,40521,1,0,0:0:0:0:
177,199,40721,1,0,0:0:0:0:
177,199,40921,1,8,0:0:0:0:
177,199,41121,1,0,0:0:0:0:
213,177,41221,1,0,0:0:0:0:
177,199,41321,1,8,0:0:0:0:
222,157,41421,1,8,0:0:0:0:
177,199,41521,1,0,0:0:0:0:
177,199,41721,1,8,0:0:0:0:
177,199,42121,1,0,0:0:0:0:
177,199,42321,1,0,0:0:0:0:
177,199,42521,1,8,0:0:0:0:
177,199,42721,1,0,0:0:0:0:
220,184,42821,1,0,0:0:0:0:
177,199,42921,1,8,0:0:0:0:
177,199,43121,1,0,0:0:0:0:
177,199,43321,1,8,0:0:0:0:
177,199,43521,1,0,0:0:0:0:
177,199,43721,1,8,0:0:0:0:
177,199,43921,1,8,0:0:0:0:
177,199,44121,1,0,0:0:0:0:
177,199,44321,1,8,0:0:0:0:
218,184,44421,1,8,0:0:0:0:
177,199,44521,1,0,0:0:0:0:
218,184,44621,1,8,0:0:0:0:
177,199,44721,1,0,0:0:0:0:
177,199,44921,1,8,0:0:0:0:
177,199,45321,1,8,0:0:0:0:
177,199,45521,1,0,0:0:0:0:
177,199,45721,1,8,0:0:0:0:
177,199,45921,1,0,0:0:0:0:
217,185,46021,1,0,0:0:0:0:
177,199,46121,1,8,0:0:0:0:
177,199,46321,1,0,0:0:0:0:
177,199,46521,1,8,0:0:0:0:
231,119,46621,1,8,0:0:0:0:
177,199,46721,1,0,0:0:0:0:
231,119,46821,1,0,0:0:0:0:
177,199,46921,1,8,0:0:0:0:
177,199,47121,1,8,0:0:0:0:
217,185,47221,1,8,0:0:0:0:
177,199,47321,1,0,0:0:0:0:
177,199,47521,1,0,0:0:0:0:
177,199,47721,1,8,0:0:0:0:
177,199,47921,1,0,0:0:0:0:
217,185,48021,1,0,0:0:0:0:
177,199,48121,1,8,0:0:0:0:
177,199,48521,5,8,0:0:0:0:
177,199,48721,1,0,0:0:0:0:
177,199,48921,1,8,0:0:0:0:
177,199,49121,1,8,0:0:0:0:
218,186,49221,1,8,0:0:0:0:
177,199,49321,1,8,0:0:0:0:
177,199,49521,1,0,0:0:0:0:
177,199,49721,1,0,0:0:0:0:
177,199,49921,1,8,0:0:0:0:
177,199,50121,1,8,0:0:0:0:
177,199,50321,1,0,0:0:0:0:
218,186,50421,1,0,0:0:0:0:
177,199,50521,1,8,0:0:0:0:
177,199,50721,1,0,0:0:0:0:
218,186,50821,1,0,0:0:0:0:
177,199,50921,1,8,0:0:0:0:
177,199,51121,1,8,0:0:0:0:
177,199,51321,1,0,0:0:0:0:
177,199,51721,5,8,0:0:0:0:
177,199,51921,1,0,0:0:0:0:
177,199,52121,1,8,0:0:0:0:
177,199,52321,1,0,0:0:0:0:
211,177,52421,1,0,0:0:0:0:
177,199,52521,1,8,0:0:0:0:
177,199,52721,1,0,0:0:0:0:
177,199,52921,1,8,0:0:0:0:
177,199,53121,1,8,0:0:0:0:
177,199,53321,1,0,0:0:0:0:
177,199,53521,1,0,0:0:0:0:
177,199,53721,1,8,0:0:0:0:
241,134,53821,1,8,0:0:0:0:
177,199,53921,1,0,0:0:0:0:
211,179,54021,1,0,0:0:0:0:
177,199,54121,1,8,0:0:0:0:
177,199,54321,1,8,0:0:0:0:
177,199,54521,1,0,0:0:0:0:
192,195,54921,1,8,0:0:0:0:
192,195,55121,1,0,0:0:0:0:
216,163,55221,1,0,0:0:0:0:
192,195,55321,1,8,0:0:0:0:
192,195,55521,1,0,0:0:0:0:
192,195,55721,1,8,0:0:0:0:
216,163,55821,1,8,0:0:0:0:
192,195,55921,1,8,0:0:0:0:
216,163,56021,1,8,0:0:0:0:
192,195,56121,1,0,0:0:0:0:
192,195,56321,1,8,0:0:0:0:
192,195,56521,1,0,0:0:0:0:
192,195,56721,1,0,0:0:0:0:
249,129,56821,1,0,0:0:0:0:
192,195,56921,1,8,0:0:0:0:
192,195,57121,1,0,0:0:0:0:
216,162,57221,1,0,0:0:0:0:
192,195,57321,1,8,0:0:0:0:
216,162,57421,1,8,0:0:0:0:
192,195,57521,1,8,0:0:0:0:
192,195,57721,1,0,0:0:0:0:
192,195,58121,1,8,0:0:0:0:
192,195,58321,1,0,0:0:0:0:
192,195,58521,1,8,0:0:0:0:
192,195,58721,1,8,0:0:0:0:
214,166,58821,1,8,0:0:0:0:
192,195,58921,1,0,0:0:0:0:
192,195,59121,1,0,0:0:0:0:
192,195,59321,1,8,0:0:0:0:
211,204,59421,1,0,0:0:0:0:
192,195,59521,1,0,0:0:0:0:
211,204,59621,1,0,0:0:0:0:
192,195,59721,1,8,0:0:0:0:
192,195,59921,1,0,0:0:0:0:
214,166,60021,1,0,0:0:0:0:
192,195,60121,1,8,0:0:0:0:
192,195,60321,1,0,0:0:0:0:
192,195,60521,1,8,0:0:0:0:
192,195,60721,1,8,0:0:0:0:
214,166,60821,1,8,0:0:0:0:
192,195,60921,1,0,0:0:0:0:
192,195,61321,1,8,0:0:0:0:
192,195,61521,1,0,0:0:0:0:
248,126,61621,1,0,0:0:0:0:
192,195,61721,1,8,0:0:0:0:
192,195,61921,1,0,0:0:0:0:
192,195,62121,1,8,0:0:0:0:
192,195,62321,1,8,0:0:0:0:
192,195,62521,1,0,0:0:0:0:
216,167,62621,1,8,0:0:0:0:
192,195,62721,1,0,0:0:0:0:
192,195,62921,1,8,0:0:0:0:
192,195,63121,1,0,0:0:0:0:
216,174,63221,1,0,0:0:0:0:
192,195,63321,1,8,0:0:0:0:
192,195,63521,1,0,0:0:0:0:
192,195,63721,1,8,0:0:0:0:
192,195,63921,1,8,0:0:0:0:
265,167,64121,1,4,0:0:0:0:
203,171,64921,1,8,0:0:0:0:
203,171,65721,1,0,0:0:0:0:
203,171,66321,1,0,0:0:0:0:
203,171,66521,1,8,0:0:0:0:
192,169,67321,1,0,0:0:0:0:
192,169,68121,1,8,0:0:0:0:
192,169,68921,1,0,0:0:0:0:
192,169,69521,1,0,0:0:0:0:
189,181,69721,1,8,0:0:0:0:
188,181,70521,1,0,0:0:0:0:
188,181,71321,1,8,0:0:0:0:
188,181,72121,1,0,0:0:0:0:
188,181,72721,1,0,0:0:0:0:
188,181,72921,1,8,0:0:0:0:
188,181,73721,1,0,0:0:0:0:
188,181,74521,1,8,0:0:0:0:
188,181,75321,1,0,0:0:0:0:
188,181,75921,1,0,0:0:0:0:
188,181,76121,1,8,0:0:0:0:
296,203,78571,1,0,0:0:0:0:
248,165,78678,1,0,0:0:0:0:
296,203,78785,1,0,0:0:0:0:
248,165,78892,1,0,0:0:0:0:
226,189,78999,1,8,0:0:0:0:
226,189,79213,1,0,0:0:0:0:
227,155,79321,1,8,0:0:0:0:
226,189,79428,1,0,0:0:0:0:
226,189,79642,1,8,0:0:0:0:
226,189,79856,1,8,0:0:0:0:
218,154,79963,1,8,0:0:0:0:
226,189,80071,1,0,0:0:0:0:
226,189,80285,1,8,0:0:0:0:
226,189,80499,1,0,0:0:0:0:
218,155,80606,1,0,0:0:0:0:
226,189,80713,1,0,0:0:0:0:
226,189,81142,1,8,0:0:0:0:
226,189,81356,1,0,0:0:0:0:
226,189,81571,1,0,0:0:0:0:
241,195,81785,1,0,0:0:0:0:
226,189,81999,1,8,0:0:0:0:
218,158,82106,1,0,0:0:0:0:
174,173,82213,1,8,0:0:0:0:
218,158,82321,1,8,0:0:0:0:
174,173,82428,1,0,0:0:0:0:
174,173,82642,1,0,0:0:0:0:
218,158,82749,1,0,0:0:0:0:
174,173,82856,1,8,0:0:0:0:
174,173,83071,1,0,0:0:0:0:
219,148,83285,1,8,0:0:0:0:
174,173,83499,1,8,0:0:0:0:
174,173,83713,1,0,0:0:0:0:
219,154,83821,1,0,0:0:0:0:
167,178,83928,1,0,0:0:0:0:
174,173,84142,1,8,0:0:0:0:
207,179,84249,1,8,0:0:0:0:
167,179,84356,1,0,0:0:0:0:
255,124,84463,1,0,0:0:0:0:
167,179,84571,1,8,0:0:0:0:
167,178,84999,1,0,0:0:0:0:
167,179,85428,1,8,0:0:0:0:
200,194,85535,1,8,0:0:0:0:
167,179,85642,1,0,0:0:0:0:
200,194,85749,1,0,0:0:0:0:
167,178,85856,1,8,0:0:0:0:
167,179,86071,1,8,0:0:0:0:
200,194,86178,1,8,0:0:0:0:
167,179,86285,1,0,0:0:0:0:
167,179,86499,1,8,0:0:0:0:
167,179,86713,1,0,0:0:0:0:
224,124,86821,1,0,0:0:0:0:
167,178,86928,1,8,0:0:0:0:
224,124,87035,1,0,0:0:0:0:
167,179,87142,1,8,0:0:0:0:
167,179,87356,1,0,0:0:0:0:
167,179,87571,1,8,0:0:0:0:
167,179,87785,1,8,0:0:0:0:
224,124,87892,1,8,0:0:0:0:
167,178,87999,1,8,0:0:0:0:
167,179,88213,1,0,0:0:0:0:
167,179,88428,1,0,0:0:0:0:
247,123,88535,1,0,0:0:0:0:
216,137,88642,1,8,0:0:0:0:
167,179,88856,1,8,0:0:0:0:
218,129,88963,1,8,0:0:0:0:
167,178,89071,1,0,0:0:0:0:
227,149,89178,1,0,0:0:0:0:
167,179,89285,1,8,0:0:0:0:
167,179,89499,1,0,0:0:0:0:
167,179,89713,1,8,0:0:0:0:
167,178,90142,1,0,0:0:0:0:
167,179,90571,1,0,0:0:0:0:
167,179,90785,1,8,0:0:0:0:
167,178,90999,1,8,0:0:0:0:
167,178,91213,1,0,0:0:0:0:
209,153,91321,1,0,0:0:0:0:
167,179,91428,1,8,0:0:0:0:
167,179,91642,1,0,0:0:0:0:
167,179,91856,1,8,0:0:0:0:
209,153,91963,1,8,0:0:0:0:
167,178,92071,1,8,0:0:0:0:
167,178,92285,1,0,0:0:0:0:
243,125,92392,1,0,0:0:0:0:
172,183,92499,1,0,0:0:0:0:
243,125,92606,1,0,0:0:0:0:
172,183,92713,1,8,0:0:0:0:
172,183,92928,1,0,0:0:0:0:
172,183,93142,1,8,0:0:0:0:
172,183,93571,1,0,0:0:0:0:
243,125,93678,1,0,0:0:0:0:
243,125,93785,1,0,0:0:0:0:
172,183,93999,1,0,0:0:0:0:
172,183,94213,1,8,0:0:0:0:
172,183,94428,1,8,0:0:0:0:
172,183,94642,1,0,0:0:0:0:
172,183,94856,1,8,0:0:0:0:
243,142,94963,1,8,0:0:0:0:
172,183,95071,1,0,0:0:0:0:
172,183,95285,1,0,0:0:0:0:
172,183,95499,1,0,0:0:0:0:
172,183,95713,1,8,0:0:0:0:
246,149,95821,1,8,0:0:0:0:
172,183,95928,1,0,0:0:0:0:
246,149,96035,1,0,0:0:0:0:
172,183,96142,1,8,0:0:0:0:
172,183,96356,1,0,0:0:0:0:
172,183,96571,1,8,0:0:0:0:
172,183,96999,1,0,0:0:0:0:
172,183,97428,1,0,0:0:0:0:
172,183,97642,1,8,0:0:0:0:
260,146,97749,1,8,0:0:0:0:
172,183,97856,1,8,0:0:0:0:
172,183,98071,1,0,0:0:0:0:
247,154,98178,1,0,0:0:0:0:
172,183,98285,1,8,0:0:0:0:
172,183,98499,1,0,0:0:0:0:
172,183,98713,1,8,0:0:0:0:
227,147,98821,1,0,0:0:0:0:
172,183,98928,1,0,0:0:0:0:
172,183,99142,1,8,0:0:0:0:
247,154,99249,1,0,0:0:0:0:
172,183,99356,1,8,0:0:0:0:
247,154,99463,1,8,0:0:0:0:
172,183,99571,1,0,0:0:0:0:
253,210,99785,1,8,0:0:0:0:
253,210,99892,1,8,0:0:0:0:
172,183,99999,1,0,0:0:0:0:
172,183,100428,1,0,0:0:0:0:
172,183,100856,1,0,0:0:0:0:
172,183,101071,1,0,0:0:0:0:
172,183,101285,1,8,0:0:0:0:
172,183,101499,1,0,0:0:0:0:
239,122,101606,1,0,0:0:0:0:
172,183,101713,1,8,0:0:0:0:
172,183,101928,1,0,0:0:0:0:
172,183,102142,1,0,0:0:0:0:
172,183,102356,1,0,0:0:0:0:
172,183,102571,1,8,0:0:0:0:
242,129,102678,1,8,0:0:0:0:
172,183,102785,1,8,0:0:0:0:
242,129,102892,1,8,0:0:0:0:
172,183,102999,1,0,0:0:0:0:
172,183,103213,1,0,0:0:0:0:
216,162,103321,1,0,0:0:0:0:
172,183,103428,1,8,0:0:0:0:
172,183,103856,1,0,0:0:0:0:
172,183,104285,1,0,0:0:0:0:
172,183,104499,1,0,0:0:0:0:
172,183,104713,1,8,0:0:0:0:
172,183,104928,1,0,0:0:0:0:
242,136,105035,1,0,0:0:0:0:
172,183,105142,1,8,0:0:0:0:
172,183,105356,1,0,0:0:0:0:
283,146,105463,1,0,0:0:0:0:
172,183,105571,1,8,0:0:0:0:
242,136,105678,1,8,0:0:0:0:
172,183,105785,1,8,0:0:0:0:
192,201,105999,1,4,0:0:0:0:
191,172,106428,1,0,0:0:0:0:
193,180,106856,1,8,0:0:0:0:
194,181,107285,1,0,0:0:0:0:
193,180,107713,1,0,0:0:0:0:
194,181,108142,1,0,0:0:0:0:
193,180,108356,1,0,0:0:0:0:
193,180,108571,1,8,0:0:0:0:
194,181,108999,1,0,0:0:0:0:
193,180,109428,1,4,0:0:0:0:
194,181,109856,1,0,0:0:0:0:
193,180,110285,1,8,0:0:0:0:
194,181,110713,1,0,0:0:0:0:
193,180,111142,1,0,0:0:0:0:
231,129,111571,1,0,0:0:0:0:
231,129,111785,1,0,0:0:0:0:
231,129,111999,1,8,0:0:0:0:
216,140,112428,1,8,0:0:0:0:
339,218,112642,1,8,0:0:0:0:
184,175,112856,1,4,0:0:0:0:
184,175,113285,1,0,0:0:0:0:
184,175,113713,1,8,0:0:0:0:
184,175,114142,1,0,0:0:0:0:
184,175,114571,1,0,0:0:0:0:
184,175,114999,1,8,0:0:0:0:
184,175,115213,1,0,0:0:0:0:
184,175,115428,1,8,0:0:0:0:
188,180,115856,1,0,0:0:0:0:
188,180,116285,1,4,0:0:0:0:
188,180,116713,1,0,0:0:0:0:
176,184,117142,1,8,0:0:0:0:
171,223,117571,1,0,0:0:0:0:
171,223,117999,1,0,0:0:0:0:
171,223,118428,1,0,0:0:0:0:
171,223,118642,1,0,0:0:0:0:
171,223,118856,1,8,0:0:0:0:
206,184,119285,1,8,0:0:0:0:
205,187,121428,1,4,0:0:0:0:
213,199,121642,1,0,0:0:0:0:
213,199,121856,1,0,0:0:0:0:
213,199,122071,1,0,0:0:0:0:
213,199,122285,1,8,0:0:0:0:
213,199,122499,1,0,0:0:0:0:
213,199,122713,1,0,0:0:0:0:
213,199,122928,1,0,0:0:0:0:
213,199,123142,1,0,0:0:0:0:
213,199,123999,1,8,0:0:0:0:
213,199,124213,1,8,0:0:0:0:
213,199,124428,1,0,0:0:0:0:
213,199,124642,1,0,0:0:0:0:
213,199,124856,1,8,0:0:0:0:
213,199,125071,1,0,0:0:0:0:
213,199,125285,1,0,0:0:0:0:
213,199,125499,1,0,0:0:0:0:
213,199,125713,1,8,0:0:0:0:
213,199,125928,1,8,0:0:0:0:
213,199,126142,1,0,0:0:0:0:
213,199,126356,1,0,0:0:0:0:
213,199,126571,1,8,0:0:0:0:
213,199,126999,1,8,0:0:0:0:
186,230,127428,1,8,0:0:0:0:
176,214,127856,1,8,0:0:0:0:
176,214,128285,1,0,0:0:0:0:
176,214,128499,1,0,0:0:0:0:
176,214,128713,1,0,0:0:0:0:
176,214,128928,1,0,0:0:0:0:
176,214,129142,1,8,0:0:0:0:
176,214,129356,1,0,0:0:0:0:
176,214,129571,1,0,0:0:0:0:
176,214,129785,1,0,0:0:0:0:
176,214,129999,1,0,0:0:0:0:
173,192,130856,1,8,0:0:0:0:
173,192,131071,1,0,0:0:0:0:
173,192,131285,1,0,0:0:0:0:
173,192,131499,1,0,0:0:0:0:
173,192,131713,1,8,0:0:0:0:
173,192,131928,1,8,0:0:0:0:
173,192,132142,1,0,0:0:0:0:
173,192,132356,1,0,0:0:0:0:
173,192,132571,1,8,0:0:0:0:
178,197,132785,1,0,0:0:0:0:
178,197,132999,1,0,0:0:0:0:
178,197,133213,1,0,0:0:0:0:
178,197,133428,1,8,0:0:0:0:
178,197,133856,1,8,0:0:0:0:
178,197,134285,1,8,0:0:0:0:
178,197,134499,1,0,0:0:0:0:
258,193,134606,1,0,0:0:0:0:
178,197,134713,1,8,0:0:0:0:
258,193,134821,1,8,0:0:0:0:
178,197,134928,1,8,0:0:0:0:
178,197,135142,1,4,0:0:0:0:
203,184,135356,1,0,0:0:0:0:
204,184,135571,1,0,0:0:0:0:
204,184,135785,1,0,0:0:0:0:
204,185,135999,1,8,0:0:0:0:
203,184,136213,1,0,0:0:0:0:
203,184,136428,1,0,0:0:0:0:
204,184,136642,1,0,0:0:0:0:
204,184,136856,1,0,0:0:0:0:
204,184,137713,1,8,0:0:0:0:
209,192,137928,1,0,0:0:0:0:
209,193,138142,1,0,0:0:0:0:
209,193,138356,1,0,0:0:0:0:
209,193,138571,1,8,0:0:0:0:
209,193,138785,1,8,0:0:0:0:
209,192,138999,1,0,0:0:0:0:
209,193,139213,1,0,0:0:0:0:
209,193,139428,1,8,0:0:0:0:
209,193,139642,1,0,0:0:0:0:
209,193,139856,1,0,0:0:0:0:
209,192,140071,1,0,0:0:0:0:
209,193,140285,1,8,0:0:0:0:
209,193,140713,1,8,0:0:0:0:
209,192,141142,1,8,0:0:0:0:
209,193,141571,1,8,0:0:0:0:
213,197,141999,1,0,0:0:0:0:
214,199,142213,1,0,0:0:0:0:
214,199,142428,1,0,0:0:0:0:
213,197,142642,1,0,0:0:0:0:
213,197,142856,1,8,0:0:0:0:
213,197,143071,1,0,0:0:0:0:
214,199,143285,1,0,0:0:0:0:
214,199,143499,1,0,0:0:0:0:
213,197,143713,1,0,0:0:0:0:
214,199,144571,1,8,0:0:0:0:
213,197,144785,1,0,0:0:0:0:
214,199,144999,1,0,0:0:0:0:
214,199,145213,1,0,0:0:0:0:
214,199,145428,1,8,0:0:0:0:
214,199,145642,1,0,0:0:0:0:
218,203,145856,1,0,0:0:0:0:
214,199,146071,1,0,0:0:0:0:
214,199,146285,1,8,0:0:0:0:
214,199,146499,1,8,0:0:0:0:
214,199,146713,1,0,0:0:0:0:
218,203,146928,1,0,0:0:0:0:
214,199,147142,1,8,0:0:0:0:
223,191,147249,1,8,0:0:0:0:
223,191,147356,1,8,0:0:0:0:
223,191,147571,1,0,0:0:0:0:
223,191,147678,1,0,0:0:0:0:
223,191,147785,1,0,0:0:0:0:
218,203,147999,1,8,0:0:0:0:
195,229,148106,1,8,0:0:0:0:
195,229,148213,1,0,0:0:0:0:
195,229,148321,1,0,0:0:0:0:
195,229,148428,1,8,0:0:0:0:
195,229,148642,1,8,0:0:0:0:
194,229,148856,1,4,0:0:0:0:
277,222,149071,1,0,0:0:0:0:
265,221,149285,1,0,0:0:0:0:
264,221,149499,1,0,0:0:0:0:
264,221,149713,1,8,0:0:0:0:
219,221,149928,1,0,0:0:0:0:
219,221,150142,1,0,0:0:0:0:
219,221,150356,1,0,0:0:0:0:
219,221,150571,1,0,0:0:0:0:
217,214,151428,1,8,0:0:0:0:
217,214,151642,1,0,0:0:0:0:
217,214,151856,1,0,0:0:0:0:
217,214,152071,1,0,0:0:0:0:
217,214,152285,1,8,0:0:0:0:
217,214,152499,1,8,0:0:0:0:
217,214,152713,1,0,0:0:0:0:
217,214,152928,1,0,0:0:0:0:
217,214,153142,1,8,0:0:0:0:
214,220,153356,1,0,0:0:0:0:
214,220,153571,1,0,0:0:0:0:
214,221,153785,1,0,0:0:0:0:
214,221,153999,1,8,0:0:0:0:
214,220,154428,1,8,0:0:0:0:
214,221,154856,1,8,0:0:0:0:
214,220,155285,1,8,0:0:0:0:
214,221,155713,1,0,0:0:0:0:
214,220,155928,1,0,0:0:0:0:
214,220,156142,1,0,0:0:0:0:
214,221,156356,1,0,0:0:0:0:
214,221,156571,1,8,0:0:0:0:
214,221,156785,1,0,0:0:0:0:
214,220,156999,1,0,0:0:0:0:
214,220,157213,1,0,0:0:0:0:
214,221,157428,1,0,0:0:0:0:
207,177,158285,1,8,0:0:0:0:
207,177,158499,1,0,0:0:0:0:
207,177,158713,1,0,0:0:0:0:
207,177,158928,1,0,0:0:0:0:
207,177,159142,1,8,0:0:0:0:
207,177,159356,1,8,0:0:0:0:
207,177,159571,1,0,0:0:0:0:
207,177,159785,1,0,0:0:0:0:
207,177,159999,1,8,0:0:0:0:
207,177,160213,1,0,0:0:0:0:
207,177,160428,1,0,0:0:0:0:
207,177,160642,1,0,0:0:0:0:
207,177,160856,1,8,0:0:0:0:
207,177,161285,1,8,0:0:0:0:
207,177,161713,1,8,0:0:0:0:
207,177,161928,1,0,0:0:0:0:
243,174,162035,1,0,0:0:0:0:
207,177,162142,1,8,0:0:0:0:
243,174,162249,1,8,0:0:0:0:
207,177,162356,1,8,0:0:0:0:
207,177,162571,1,4,0:0:0:0:
207,177,162785,1,0,0:0:0:0:
207,177,162999,1,0,0:0:0:0:
207,177,163213,1,0,0:0:0:0:
207,177,163428,1,8,0:0:0:0:
207,177,163642,1,0,0:0:0:0:
207,177,163856,1,0,0:0:0:0:
207,177,164071,1,0,0:0:0:0:
207,177,164285,1,0,0:0:0:0:
207,177,165142,1,8,0:0:0:0:
212,172,165356,1,0,0:0:0:0:
207,177,165571,1,0,0:0:0:0:
207,177,165785,1,0,0:0:0:0:
207,177,165999,1,8,0:0:0:0:
207,177,166213,1,8,0:0:0:0:
212,172,166428,1,0,0:0:0:0:
207,177,166642,1,0,0:0:0:0:
207,177,166856,1,8,0:0:0:0:
207,177,167071,1,0,0:0:0:0:
212,172,167285,1,0,0:0:0:0:
207,177,167499,1,0,0:0:0:0:
207,177,167713,1,8,0:0:0:0:
212,172,168142,1,8,0:0:0:0:
207,177,168571,1,8,0:0:0:0:
212,172,168999,1,8,0:0:0:0:
207,177,169428,1,0,0:0:0:0:
212,172,169642,1,0,0:0:0:0:
212,172,169856,1,0,0:0:0:0:
212,172,170071,1,0,0:0:0:0:
213,174,170285,1,8,0:0:0:0:
213,174,170499,1,0,0:0:0:0:
212,172,170713,1,0,0:0:0:0:
212,172,170928,1,0,0:0:0:0:
213,174,171142,1,0,0:0:0:0:
213,174,171999,1,8,0:0:0:0:
213,174,172213,1,8,0:0:0:0:
213,174,172428,1,0,0:0:0:0:
213,174,172642,1,0,0:0:0:0:
213,174,172856,1,8,0:0:0:0:
213,174,173071,1,0,0:0:0:0:
213,174,173285,1,0,0:0:0:0:
213,174,173499,1,0,0:0:0:0:
213,174,173713,1,8,0:0:0:0:
213,174,173928,1,0,0:0:0:0:
213,174,174142,1,0,0:0:0:0:
213,174,174356,1,0,0:0:0:0:
213,174,174571,1,8,0:0:0:0:
213,174,174999,1,8,0:0:0:0:
213,174,175428,1,8,0:0:0:0:
213,174,175856,1,8,0:0:0:0:
167,23,176285,1,0,0:0:0:0:
256,192,176499,12,0,183035,0:0:0:0:
