osu file format v14

[General]
AudioFilename: audio.ogg
AudioLeadIn: 0
PreviewTime: 121443
Countdown: 0
SampleSet: Normal
StackLeniency: 0.7
Mode: 1
LetterboxInBreaks: 0
WidescreenStoryboard: 1

[Editor]
Bookmarks: 38536,64121,106014,109443,112871,116300,121443,135157,148871,162586
DistanceSpacing: 1.2
BeatDivisor: 4
GridSize: 32
TimelineZoom: 2

[Metadata]
Title:Yalancinin Mumu Ikindiye Kadar Anca Dayandi
TitleUnicode:Yalancının Mumu İkindiye Kadar Anca Dayandı
Artist:As My Life Falls Apart
ArtistUnicode:As My Life Falls Apart
Creator:skolodojko
Version:Futsuu
Source:
Tags:turkish metal metalcore amlfa electronicore crabcore
BeatmapID:3933369
BeatmapSetID:1906963

[Difficulty]
HPDrainRate:7
CircleSize:2
OverallDifficulty:4
ApproachRate:10
SliderMultiplier:1.4
SliderTickRate:1

[Events]
//Background and Video events
0,0,"3383408.jpg",0,-131
//Break Periods
//Storyboard Layer 0 (Background)
//Storyboard Layer 1 (Fail)
//Storyboard Layer 2 (Pass)
//Storyboard Layer 3 (Foreground)
//Storyboard Layer 4 (Overlay)
//Storyboard Sound Samples

[TimingPoints]
121,400,4,1,0,60,1,0
121,-107.142857142857,4,1,0,60,0,0
12521,-107.142857142857,4,1,0,60,0,0
12621,-107.142857142857,4,1,0,60,0,0
12721,-107.142857142857,4,1,0,60,0,0
12821,-107.142857142857,4,1,0,60,0,0
12896,-107.142857142857,4,1,0,80,0,0
24921,-107.142857142857,4,1,0,80,0,0
25021,-107.142857142857,4,1,0,80,0,0
25121,-107.142857142857,4,1,0,80,0,0
25221,-107.142857142857,4,1,0,80,0,0
25321,-107.142857142857,4,1,0,80,0,0
25421,-107.142857142857,4,1,0,80,0,0
25521,-107.142857142857,4,1,0,80,0,0
25621,-107.142857142857,4,1,0,80,0,0
25721,-107.142857142857,4,1,0,80,0,0
38496,-107.142857142857,4,1,0,100,0,0
38521,-107.142857142857,4,1,0,100,0,1
38721,-107.142857142857,4,1,0,100,0,1
64121,-107.142857142857,4,1,0,100,0,0
64521,-107.142857142857,4,1,0,70,0,0
76921,413.793103448276,4,1,0,70,1,0
76921,-107.52688172043,4,1,0,70,0,0
78571,428.571428571429,4,1,0,100,1,0
92285,-100,4,1,0,100,0,0
106213,-100,4,1,0,100,0,0
106428,-100,4,1,0,60,0,0
106642,-100,4,1,0,60,0,0
106856,-100,4,1,0,60,0,0
107071,-100,4,1,0,60,0,0
107285,-100,4,1,0,60,0,0
107499,-100,4,1,0,60,0,0
107713,-100,4,1,0,60,0,0
107928,-100,4,1,0,60,0,0
108142,-100,4,1,0,60,0,0
108356,-100,4,1,0,60,0,0
108571,-100,4,1,0,60,0,0
108785,-100,4,1,0,60,0,0
108999,-100,4,1,0,60,0,0
109213,-100,4,1,0,60,0,0
109428,-100,4,1,0,60,0,0
109642,-100,4,1,0,60,0,0
109856,-100,4,1,0,60,0,0
110071,-100,4,1,0,60,0,0
110285,-100,4,1,0,60,0,0
110499,-100,4,1,0,60,0,0
110713,-100,4,1,0,60,0,0
110928,-100,4,1,0,60,0,0
111142,-100,4,1,0,60,0,0
111356,-100,4,1,0,60,0,0
111571,-100,4,1,0,60,0,0
111785,-100,4,1,0,60,0,0
111999,-100,4,1,0,60,0,0
112213,-100,4,1,0,60,0,0
112428,-100,4,1,0,60,0,0
112642,-100,4,1,0,60,0,0
112856,-100,4,1,0,60,0,0
121213,-100,4,1,0,80,0,0
121428,-100,4,1,0,80,0,1
174999,-100,4,1,0,80,0,1
175428,-100,4,1,0,80,0,1
175856,-100,4,1,0,80,0,1
176071,-100,4,1,0,60,0,1
176285,-100,4,1,0,60,0,0
176472,-100,4,1,0,40,0,0

[HitObjects]
186,209,121,5,8,0:0:0:0:
264,175,521,1,0,0:0:0:0:
186,209,721,1,0,0:0:0:0:
186,209,921,1,0,0:0:0:0:
186,209,1321,1,8,0:0:0:0:
186,209,1721,1,0,0:0:0:0:
157,203,1921,1,0,0:0:0:0:
157,203,2121,1,0,0:0:0:0:
157,215,2521,1,8,0:0:0:0:
157,215,3321,1,8,0:0:0:0:
157,214,3721,1,0,0:0:0:0:
157,214,3921,1,0,0:0:0:0:
157,215,4121,1,0,0:0:0:0:
157,214,4521,1,8,0:0:0:0:
157,214,4921,1,0,0:0:0:0:
189,216,5121,1,8,0:0:0:0:
189,216,5321,1,0,0:0:0:0:
189,216,5721,1,8,0:0:0:0:
189,216,5921,1,8,0:0:0:0:
189,216,6121,1,0,0:0:0:0:
189,216,6321,1,8,0:0:0:0:
189,216,6521,1,0,0:0:0:0:
189,216,6921,1,0,0:0:0:0:
189,216,7321,1,8,0:0:0:0:
189,216,7721,1,0,0:0:0:0:
189,216,8121,1,0,0:0:0:0:
189,216,8521,1,0,0:0:0:0:
189,216,8721,1,0,0:0:0:0:
189,216,8921,1,8,0:0:0:0:
189,216,9721,1,0,0:0:0:0:
189,216,10121,1,0,0:0:0:0:
189,216,10521,1,8,0:0:0:0:
189,216,10921,1,0,0:0:0:0:
189,216,11121,1,0,0:0:0:0:
189,216,11321,1,8,0:0:0:0:
189,216,11721,1,0,0:0:0:0:
189,216,12121,1,8,0:0:0:0:
189,216,12521,1,8,0:0:0:0:
265,185,12721,1,0,0:0:0:0:
321,157,12921,1,8,0:0:0:0:
203,172,13521,1,0,0:0:0:0:
203,172,13721,1,8,0:0:0:0:
203,172,14521,1,0,0:0:0:0:
204,205,14821,1,0,0:0:0:0:
204,205,15121,1,0,0:0:0:0:
204,205,15321,1,8,0:0:0:0:
216,202,15921,1,8,0:0:0:0:
249,198,16121,1,0,0:0:0:0:
206,176,16721,1,0,0:0:0:0:
207,168,16921,1,8,0:0:0:0:
206,176,17521,1,0,0:0:0:0:
206,176,17721,1,0,0:0:0:0:
257,130,18021,1,0,0:0:0:0:
257,130,18321,1,0,0:0:0:0:
257,130,18521,1,8,0:0:0:0:
263,155,19121,1,8,0:0:0:0:
263,155,19321,1,0,0:0:0:0:
236,167,19921,1,0,0:0:0:0:
237,165,20121,1,8,0:0:0:0:
236,167,20921,1,0,0:0:0:0:
253,212,21221,1,0,0:0:0:0:
244,213,21521,1,0,0:0:0:0:
243,213,21721,1,8,0:0:0:0:
213,201,22321,1,8,0:0:0:0:
213,201,22521,1,0,0:0:0:0:
241,154,23121,1,0,0:0:0:0:
241,154,23321,1,8,0:0:0:0:
241,154,24121,5,0,0:0:0:0:
269,148,24421,1,0,0:0:0:0:
269,148,24721,1,0,0:0:0:0:
226,175,24921,1,8,0:0:0:0:
226,175,25121,1,8,0:0:0:0:
226,175,25321,1,0,0:0:0:0:
226,175,25521,1,0,0:0:0:0:
226,175,25721,1,8,0:0:0:0:
285,174,26121,1,0,0:0:0:0:
195,233,26321,1,0,0:0:0:0:
195,233,26521,1,0,0:0:0:0:
195,233,26921,1,8,0:0:0:0:
217,144,27121,1,0,0:0:0:0:
217,144,27321,1,8,0:0:0:0:
217,144,27721,1,0,0:0:0:0:
217,144,28121,1,8,0:0:0:0:
217,144,28321,1,8,0:0:0:0:
205,153,28521,1,0,0:0:0:0:
205,153,28721,1,0,0:0:0:0:
205,153,28921,1,8,0:0:0:0:
205,153,29721,1,8,0:0:0:0:
205,153,29921,1,8,0:0:0:0:
205,153,30121,1,8,0:0:0:0:
205,153,30321,1,8,0:0:0:0:
205,153,30521,1,0,0:0:0:0:
205,153,30921,1,0,0:0:0:0:
205,153,31321,1,8,0:0:0:0:
205,153,31721,1,8,0:0:0:0:
205,153,32121,1,0,0:0:0:0:
205,153,32321,1,0,0:0:0:0:
205,153,32521,1,8,0:0:0:0:
205,153,32721,1,0,0:0:0:0:
205,153,32921,1,8,0:0:0:0:
205,153,33321,1,0,0:0:0:0:
205,153,33721,1,8,0:0:0:0:
205,153,33921,1,0,0:0:0:0:
205,153,34321,1,0,0:0:0:0:
205,153,34521,1,8,0:0:0:0:
205,153,34721,1,0,0:0:0:0:
205,153,34921,1,0,0:0:0:0:
205,153,35121,1,0,0:0:0:0:
205,153,35321,1,8,0:0:0:0:
168,169,36121,5,8,0:0:0:0:
168,169,36521,1,0,0:0:0:0:
168,169,36921,1,8,0:0:0:0:
168,169,37121,1,8,0:0:0:0:
168,169,37321,1,0,0:0:0:0:
168,169,37521,1,0,0:0:0:0:
168,169,37721,1,8,0:0:0:0:
189,142,38121,1,8,0:0:0:0:
189,142,38321,1,0,0:0:0:0:
189,142,38521,1,12,0:0:0:0:
189,142,38921,1,8,0:0:0:0:
189,154,39321,1,0,0:0:0:0:
174,175,39521,1,0,0:0:0:0:
174,175,39721,1,8,0:0:0:0:
174,175,40121,1,0,0:0:0:0:
174,175,40521,1,8,0:0:0:0:
174,175,40721,1,8,0:0:0:0:
174,175,40921,1,0,0:0:0:0:
208,165,41721,1,0,0:0:0:0:
200,171,42121,1,8,0:0:0:0:
200,171,42521,1,0,0:0:0:0:
200,171,42721,1,0,0:0:0:0:
200,171,42921,1,8,0:0:0:0:
200,171,43121,1,0,0:0:0:0:
200,171,43321,1,8,0:0:0:0:
200,171,43721,1,0,0:0:0:0:
200,171,44121,1,8,0:0:0:0:
200,171,44321,1,0,0:0:0:0:
200,171,44521,1,8,0:0:0:0:
200,171,44721,1,8,0:0:0:0:
200,171,44921,1,0,0:0:0:0:
200,171,45321,1,8,0:0:0:0:
200,171,45721,1,0,0:0:0:0:
200,171,45921,1,0,0:0:0:0:
200,171,46121,1,8,0:0:0:0:
200,171,46521,1,0,0:0:0:0:
200,171,46921,1,8,0:0:0:0:
200,171,47121,1,0,0:0:0:0:
200,171,47321,1,8,0:0:0:0:
200,171,48121,1,0,0:0:0:0:
200,171,48521,1,8,0:0:0:0:
200,171,48921,1,0,0:0:0:0:
200,171,49121,1,0,0:0:0:0:
200,171,49321,1,8,0:0:0:0:
200,171,49721,1,0,0:0:0:0:
200,171,49921,1,8,0:0:0:0:
200,171,50121,1,0,0:0:0:0:
200,171,50521,1,8,0:0:0:0:
200,171,50721,1,0,0:0:0:0:
200,171,50921,1,8,0:0:0:0:
200,171,51121,1,8,0:0:0:0:
200,171,51321,1,0,0:0:0:0:
200,171,51721,1,8,0:0:0:0:
200,171,52121,1,0,0:0:0:0:
200,171,52321,1,0,0:0:0:0:
200,171,52521,1,8,0:0:0:0:
200,171,52921,1,0,0:0:0:0:
200,171,53321,1,8,0:0:0:0:
200,171,53721,1,0,0:0:0:0:
200,171,54521,1,0,0:0:0:0:
200,171,54921,1,8,0:0:0:0:
200,171,55321,1,8,0:0:0:0:
200,171,55521,1,0,0:0:0:0:
200,171,55721,1,8,0:0:0:0:
200,171,56121,1,0,0:0:0:0:
200,171,56521,1,8,0:0:0:0:
200,171,56921,1,0,0:0:0:0:
200,171,57121,1,8,0:0:0:0:
200,171,57321,1,0,0:0:0:0:
200,171,57521,1,0,0:0:0:0:
200,171,57721,1,8,0:0:0:0:
200,171,58121,1,8,0:0:0:0:
200,171,58521,1,0,0:0:0:0:
200,171,58721,1,0,0:0:0:0:
200,171,58921,1,8,0:0:0:0:
200,171,59321,1,0,0:0:0:0:
200,171,59721,1,8,0:0:0:0:
200,171,59921,1,8,0:0:0:0:
200,171,60121,1,0,0:0:0:0:
200,171,60921,1,0,0:0:0:0:
200,171,61321,1,8,0:0:0:0:
200,171,61721,1,0,0:0:0:0:
200,171,61921,1,0,0:0:0:0:
200,171,62121,1,8,0:0:0:0:
200,171,62521,1,0,0:0:0:0:
200,171,62721,1,8,0:0:0:0:
200,171,62921,1,8,0:0:0:0:
200,171,63121,1,0,0:0:0:0:
200,171,63321,1,8,0:0:0:0:
200,171,63721,1,0,0:0:0:0:
265,167,64121,1,4,0:0:0:0:
203,171,64921,1,8,0:0:0:0:
203,171,65721,1,0,0:0:0:0:
203,171,66321,1,0,0:0:0:0:
203,171,66521,1,8,0:0:0:0:
192,169,67321,1,0,0:0:0:0:
192,169,68121,1,8,0:0:0:0:
192,169,68921,1,0,0:0:0:0:
192,169,69521,1,0,0:0:0:0:
189,181,69721,1,8,0:0:0:0:
188,181,70521,1,0,0:0:0:0:
188,181,71321,1,8,0:0:0:0:
188,181,72121,1,0,0:0:0:0:
188,181,72721,1,0,0:0:0:0:
188,181,72921,1,8,0:0:0:0:
188,181,73721,1,0,0:0:0:0:
188,181,74521,1,8,0:0:0:0:
188,181,75321,1,0,0:0:0:0:
188,181,75921,1,0,0:0:0:0:
188,181,76121,1,8,0:0:0:0:
292,182,78571,1,0,0:0:0:0:
218,174,78785,1,0,0:0:0:0:
218,174,78999,1,8,0:0:0:0:
218,174,79213,1,0,0:0:0:0:
218,174,79428,1,8,0:0:0:0:
218,174,79856,1,0,0:0:0:0:
218,174,80285,1,8,0:0:0:0:
218,174,80713,1,0,0:0:0:0:
218,174,81142,1,8,0:0:0:0:
218,174,81356,1,0,0:0:0:0:
218,174,81571,1,0,0:0:0:0:
218,174,81999,1,8,0:0:0:0:
218,174,82213,1,0,0:0:0:0:
218,174,82428,1,8,0:0:0:0:
218,174,82642,1,8,0:0:0:0:
218,174,82856,1,0,0:0:0:0:
218,174,83285,1,8,0:0:0:0:
218,174,83713,1,8,0:0:0:0:
218,174,83928,1,0,0:0:0:0:
218,174,84142,1,8,0:0:0:0:
218,174,84356,1,0,0:0:0:0:
218,174,84571,1,8,0:0:0:0:
217,181,85428,1,8,0:0:0:0:
217,181,85856,1,8,0:0:0:0:
217,181,86071,1,8,0:0:0:0:
217,181,86285,1,0,0:0:0:0:
217,181,86713,1,0,0:0:0:0:
184,171,87142,1,8,0:0:0:0:
184,170,87571,1,0,0:0:0:0:
184,171,87999,1,8,0:0:0:0:
184,171,88213,1,8,0:0:0:0:
184,170,88428,1,0,0:0:0:0:
184,171,88642,1,8,0:0:0:0:
184,171,88856,1,0,0:0:0:0:
184,171,89285,1,0,0:0:0:0:
184,171,89713,1,8,0:0:0:0:
184,171,89928,1,8,0:0:0:0:
184,171,90142,1,0,0:0:0:0:
184,171,90356,1,0,0:0:0:0:
184,171,90571,1,8,0:0:0:0:
184,171,90999,1,0,0:0:0:0:
184,171,91213,1,0,0:0:0:0:
184,171,91428,1,8,0:0:0:0:
184,171,92285,1,0,0:0:0:0:
184,171,92499,1,0,0:0:0:0:
184,171,92713,1,8,0:0:0:0:
184,171,92928,1,0,0:0:0:0:
184,171,93142,1,8,0:0:0:0:
186,186,93571,1,0,0:0:0:0:
186,186,93999,1,8,0:0:0:0:
221,114,94213,1,0,0:0:0:0:
221,114,94642,1,0,0:0:0:0:
221,114,94856,1,8,0:0:0:0:
219,123,95071,1,0,0:0:0:0:
219,123,95285,1,0,0:0:0:0:
219,123,95713,1,8,0:0:0:0:
219,123,96142,1,0,0:0:0:0:
219,123,96356,1,0,0:0:0:0:
219,123,96571,1,8,0:0:0:0:
219,123,96999,1,0,0:0:0:0:
219,123,97428,1,8,0:0:0:0:
219,123,97856,1,8,0:0:0:0:
219,123,98071,1,0,0:0:0:0:
219,123,98285,1,8,0:0:0:0:
219,123,99142,1,0,0:0:0:0:
219,123,99356,1,0,0:0:0:0:
219,123,99571,1,0,0:0:0:0:
219,123,99785,1,0,0:0:0:0:
219,123,99999,1,8,0:0:0:0:
219,123,100428,1,0,0:0:0:0:
219,123,100856,1,0,0:0:0:0:
219,123,101285,1,0,0:0:0:0:
223,129,101713,1,8,0:0:0:0:
223,129,101928,1,0,0:0:0:0:
223,129,102142,1,0,0:0:0:0:
223,129,102571,1,8,0:0:0:0:
181,131,102785,1,8,0:0:0:0:
181,131,102999,1,0,0:0:0:0:
181,131,103428,1,8,0:0:0:0:
181,131,103856,1,0,0:0:0:0:
181,131,104285,1,0,0:0:0:0:
181,131,104499,1,0,0:0:0:0:
181,131,104713,1,8,0:0:0:0:
185,136,105142,1,8,0:0:0:0:
192,201,105999,1,4,0:0:0:0:
191,172,106428,1,0,0:0:0:0:
193,180,106856,1,8,0:0:0:0:
194,181,107285,1,0,0:0:0:0:
193,180,107713,1,0,0:0:0:0:
194,181,108142,1,0,0:0:0:0:
193,180,108356,1,0,0:0:0:0:
193,180,108571,1,8,0:0:0:0:
193,180,109428,1,4,0:0:0:0:
194,181,109856,1,0,0:0:0:0:
193,180,110285,1,8,0:0:0:0:
194,181,110713,1,0,0:0:0:0:
193,180,111142,1,0,0:0:0:0:
231,129,111571,1,0,0:0:0:0:
231,129,111785,1,0,0:0:0:0:
231,129,111999,1,8,0:0:0:0:
216,140,112428,1,8,0:0:0:0:
184,175,112856,1,4,0:0:0:0:
184,175,113285,1,0,0:0:0:0:
184,175,113713,1,8,0:0:0:0:
184,175,114142,1,0,0:0:0:0:
184,175,114571,1,0,0:0:0:0:
184,175,114999,1,8,0:0:0:0:
184,175,115213,1,0,0:0:0:0:
184,175,115428,1,8,0:0:0:0:
188,180,116285,1,4,0:0:0:0:
188,180,116713,1,0,0:0:0:0:
176,184,117142,1,8,0:0:0:0:
171,223,117571,1,0,0:0:0:0:
171,223,117999,1,0,0:0:0:0:
171,223,118428,1,0,0:0:0:0:
171,223,118642,1,0,0:0:0:0:
171,223,118856,1,8,0:0:0:0:
206,184,119285,1,8,0:0:0:0:
205,187,121428,1,4,0:0:0:0:
213,199,121856,1,0,0:0:0:0:
213,199,122071,1,0,0:0:0:0:
213,199,122285,1,8,0:0:0:0:
213,199,122713,1,0,0:0:0:0:
213,199,122928,1,0,0:0:0:0:
213,199,123142,1,0,0:0:0:0:
213,199,123999,1,8,0:0:0:0:
213,199,124428,1,0,0:0:0:0:
213,199,124642,1,0,0:0:0:0:
213,199,124856,1,8,0:0:0:0:
213,199,125285,1,0,0:0:0:0:
213,199,125713,1,8,0:0:0:0:
213,199,125928,1,8,0:0:0:0:
213,199,126142,1,0,0:0:0:0:
213,199,126356,1,0,0:0:0:0:
213,199,126571,1,8,0:0:0:0:
213,199,126999,1,8,0:0:0:0:
186,230,127428,1,8,0:0:0:0:
176,214,127856,1,8,0:0:0:0:
176,214,128285,1,0,0:0:0:0:
176,214,128713,1,0,0:0:0:0:
176,214,128928,1,0,0:0:0:0:
176,214,129142,1,8,0:0:0:0:
176,214,129571,1,0,0:0:0:0:
176,214,129785,1,0,0:0:0:0:
176,214,129999,1,0,0:0:0:0:
173,192,130856,1,8,0:0:0:0:
173,192,131285,1,0,0:0:0:0:
173,192,131499,1,0,0:0:0:0:
173,192,131713,1,8,0:0:0:0:
173,192,132142,1,0,0:0:0:0:
173,192,132356,1,0,0:0:0:0:
173,192,132571,1,8,0:0:0:0:
178,197,132785,1,0,0:0:0:0:
178,197,132999,1,0,0:0:0:0:
178,197,133428,1,8,0:0:0:0:
178,197,133856,1,8,0:0:0:0:
178,197,134285,1,8,0:0:0:0:
178,197,134499,1,0,0:0:0:0:
178,197,134713,1,8,0:0:0:0:
178,197,135142,1,4,0:0:0:0:
204,184,135571,1,0,0:0:0:0:
204,184,135785,1,0,0:0:0:0:
204,185,135999,1,8,0:0:0:0:
203,184,136428,1,0,0:0:0:0:
204,184,136642,1,0,0:0:0:0:
204,184,136856,1,0,0:0:0:0:
204,184,137713,1,8,0:0:0:0:
209,193,138142,1,0,0:0:0:0:
209,193,138356,1,0,0:0:0:0:
209,193,138571,1,8,0:0:0:0:
209,192,138999,1,0,0:0:0:0:
209,193,139428,1,8,0:0:0:0:
209,193,139642,1,0,0:0:0:0:
209,193,139856,1,0,0:0:0:0:
209,192,140071,1,0,0:0:0:0:
209,193,140285,1,8,0:0:0:0:
209,193,140713,1,8,0:0:0:0:
209,192,141142,1,8,0:0:0:0:
209,193,141571,1,8,0:0:0:0:
213,197,141999,1,0,0:0:0:0:
214,199,142428,1,0,0:0:0:0:
213,197,142642,1,0,0:0:0:0:
213,197,142856,1,8,0:0:0:0:
214,199,143285,1,0,0:0:0:0:
214,199,143499,1,0,0:0:0:0:
213,197,143713,1,0,0:0:0:0:
214,199,144571,1,8,0:0:0:0:
214,199,144999,1,0,0:0:0:0:
214,199,145213,1,0,0:0:0:0:
214,199,145428,1,8,0:0:0:0:
218,203,145856,1,0,0:0:0:0:
214,199,146285,1,8,0:0:0:0:
214,199,146499,1,8,0:0:0:0:
214,199,146713,1,0,0:0:0:0:
218,203,146928,1,0,0:0:0:0:
214,199,147142,1,8,0:0:0:0:
223,191,147571,1,0,0:0:0:0:
218,203,147999,1,8,0:0:0:0:
195,229,148213,1,0,0:0:0:0:
195,229,148428,1,8,0:0:0:0:
195,229,148642,1,8,0:0:0:0:
194,229,148856,1,4,0:0:0:0:
265,221,149285,1,0,0:0:0:0:
264,221,149499,1,0,0:0:0:0:
264,221,149713,1,8,0:0:0:0:
219,221,150142,1,0,0:0:0:0:
219,221,150571,1,0,0:0:0:0:
217,214,151428,1,8,0:0:0:0:
217,214,151642,1,0,0:0:0:0:
217,214,151856,1,0,0:0:0:0:
217,214,152071,1,0,0:0:0:0:
217,214,152285,1,8,0:0:0:0:
217,214,152713,1,0,0:0:0:0:
217,214,152928,1,0,0:0:0:0:
217,214,153142,1,8,0:0:0:0:
214,220,153571,1,0,0:0:0:0:
214,221,153999,1,8,0:0:0:0:
214,220,154428,1,8,0:0:0:0:
214,221,154856,1,8,0:0:0:0:
214,220,155285,1,8,0:0:0:0:
214,221,155713,1,0,0:0:0:0:
214,220,155928,1,0,0:0:0:0:
214,220,156142,1,0,0:0:0:0:
214,221,156356,1,0,0:0:0:0:
214,221,156571,1,8,0:0:0:0:
214,220,156999,1,0,0:0:0:0:
214,220,157213,1,0,0:0:0:0:
214,221,157428,1,0,0:0:0:0:
207,177,158285,1,8,0:0:0:0:
207,177,158499,1,0,0:0:0:0:
207,177,158713,1,0,0:0:0:0:
207,177,159142,1,8,0:0:0:0:
207,177,159571,1,0,0:0:0:0:
207,177,159785,1,0,0:0:0:0:
207,177,159999,1,8,0:0:0:0:
207,177,160213,1,8,0:0:0:0:
207,177,160428,1,0,0:0:0:0:
207,177,160856,1,8,0:0:0:0:
207,177,161285,1,8,0:0:0:0:
207,177,161713,1,8,0:0:0:0:
207,177,161928,1,0,0:0:0:0:
207,177,162142,1,8,0:0:0:0:
207,177,162356,1,8,0:0:0:0:
207,177,162571,1,4,0:0:0:0:
207,177,162999,1,0,0:0:0:0:
207,177,163213,1,0,0:0:0:0:
207,177,163428,1,8,0:0:0:0:
207,177,163856,1,0,0:0:0:0:
207,177,164285,1,0,0:0:0:0:
207,177,165142,1,8,0:0:0:0:
212,172,165356,1,0,0:0:0:0:
207,177,165571,1,0,0:0:0:0:
207,177,165999,1,8,0:0:0:0:
212,172,166428,1,0,0:0:0:0:
207,177,166642,1,0,0:0:0:0:
207,177,166856,1,8,0:0:0:0:
207,177,167071,1,0,0:0:0:0:
212,172,167285,1,0,0:0:0:0:
207,177,167713,1,8,0:0:0:0:
212,172,168142,1,8,0:0:0:0:
207,177,168571,1,8,0:0:0:0:
212,172,168999,1,8,0:0:0:0:
207,177,169428,1,0,0:0:0:0:
212,172,169642,1,0,0:0:0:0:
212,172,169856,1,0,0:0:0:0:
212,172,170071,1,0,0:0:0:0:
213,174,170285,1,8,0:0:0:0:
212,172,170713,1,0,0:0:0:0:
212,172,170928,1,0,0:0:0:0:
213,174,171142,1,0,0:0:0:0:
213,174,171999,1,8,0:0:0:0:
213,174,172428,1,0,0:0:0:0:
213,174,172642,1,0,0:0:0:0:
213,174,172856,1,8,0:0:0:0:
213,174,173285,1,0,0:0:0:0:
213,174,173499,1,0,0:0:0:0:
213,174,173713,1,8,0:0:0:0:
213,174,173928,1,8,0:0:0:0:
213,174,174142,1,0,0:0:0:0:
213,174,174571,1,8,0:0:0:0:
213,174,174999,1,8,0:0:0:0:
213,174,175428,1,8,0:0:0:0:
213,174,175856,1,8,0:0:0:0:
167,23,176285,1,0,0:0:0:0:
256,192,176499,12,0,183035,0:0:0:0:
