osu file format v14

[General]
AudioFilename: audio.ogg
AudioLeadIn: 0
PreviewTime: 63605
Countdown: 0
SampleSet: Normal
StackLeniency: 0.7
Mode: 1
LetterboxInBreaks: 0
WidescreenStoryboard: 1

[Editor]
Bookmarks: 7845,94880,108587,122301,124015,137730,154880,168594
DistanceSpacing: 0.6
BeatDivisor: 4
GridSize: 32
TimelineZoom: 0.7999998

[Metadata]
Title:Sizofreni ve Belirtileri
TitleUnicode:Şizofreni ve Belirtileri
Artist:As My Life Falls Apart
ArtistUnicode:As My Life Falls Apart
Creator:skolodojko
Version:Kantan
Source:
Tags:turkish metal metalcore amlfa electronicore crabcore
BeatmapID:3855545
BeatmapSetID:1873063

[Difficulty]
HPDrainRate:8
CircleSize:2
OverallDifficulty:3
ApproachRate:10
SliderMultiplier:1.4
SliderTickRate:1

[Events]
//Background and Video events
0,0,"4078391.jpg",0,0
//Break Periods
2,88590,94426
2,151438,154425
//Storyboard Layer 0 (Background)
//Storyboard Layer 1 (Fail)
//Storyboard Layer 2 (Pass)
//Storyboard Layer 3 (Foreground)
//Storyboard Layer 4 (Overlay)
//Storyboard Sound Samples

[TimingPoints]
6319,387.096774193548,4,1,0,100,1,0
6319,-117.647058823529,4,1,0,100,0,0
7867,387.096774193548,4,1,0,100,1,0
7867,-117.647058823529,4,1,0,100,0,0
57797,-117.647058823529,4,1,0,80,0,0
62918,-117.647058823529,4,1,0,80,0,0
63014,-117.647058823529,4,1,0,80,0,0
63111,-117.647058823529,4,1,0,80,0,0
63208,-117.647058823529,4,1,0,80,0,0
63305,-117.647058823529,4,1,0,80,0,0
63402,-117.647058823529,4,1,0,80,0,0
63499,-117.647058823529,4,1,0,80,0,0
63571,-117.647058823529,4,1,0,100,0,0
63608,-117.647058823529,4,1,0,100,0,1
69802,-117.647058823529,4,1,0,100,0,0
70178,-117.647058823529,4,1,0,100,0,0
75793,-117.647058823529,4,1,0,100,0,0
75996,-117.647058823529,4,1,0,100,0,1
82189,-117.647058823529,4,1,0,100,0,0
82569,-117.647058823529,4,1,0,100,0,0
88383,387.096774193548,4,1,0,100,1,8
88390,659.34065934066,4,1,0,100,1,0
88390,-69.0702087286527,4,1,0,100,0,0
88581,-69.0702087286527,4,1,0,70,0,0
90361,759.493670886078,4,1,0,70,1,0
90361,-59.9620493358634,4,1,0,70,0,0
91564,638.297872340425,4,1,0,70,1,8
92202,638.297872340425,4,1,0,70,1,0
92202,-71.3472485768501,4,1,0,70,0,0
92840,705.882352941176,4,1,0,70,1,8
93545,447.76119402985,4,1,0,70,1,0
93545,-101.707779886148,4,1,0,70,0,0
94876,428.571428571429,4,1,0,100,1,0
94876,-106.261859582543,4,1,0,100,0,0
108035,-106.261859582543,4,1,0,100,0,0
108142,-106.261859582543,4,1,0,100,0,0
108249,-106.261859582543,4,1,0,100,0,0
108357,-106.261859582543,4,1,0,100,0,0
108571,-106.261859582543,4,1,0,100,0,0
124018,428.571428571429,4,1,0,100,1,1
124018,-106.261859582543,4,1,0,100,0,1
151339,-106.261859582543,4,1,0,100,0,0
151857,-106.261859582543,4,1,0,70,0,0
154875,428.571428571429,4,1,0,70,1,0
154875,-106.382978723404,4,1,0,70,0,0
168045,-106.261859582543,4,1,0,70,0,0
168142,-106.261859582543,4,1,0,70,0,0
168249,-106.261859582543,4,1,0,70,0,0
168357,-106.261859582543,4,1,0,70,0,0
168544,-106.261859582543,4,1,0,70,0,0

[HitObjects]
222,215,7867,5,12,0:0:0:0:
172,214,8641,1,8,0:0:0:0:
172,214,9028,1,8,0:0:0:0:
172,214,9415,1,0,0:0:0:0:
172,214,9802,1,0,0:0:0:0:
172,214,10189,1,8,0:0:0:0:
172,214,10963,1,0,0:0:0:0:
172,214,11350,1,8,0:0:0:0:
172,214,11737,1,0,0:0:0:0:
172,214,12512,1,0,0:0:0:0:
172,214,13286,1,8,0:0:0:0:
172,214,14060,1,0,0:0:0:0:
172,214,14447,1,0,0:0:0:0:
172,214,14834,1,8,0:0:0:0:
183,177,15608,1,0,0:0:0:0:
183,177,16383,1,8,0:0:0:0:
183,177,16770,1,8,0:0:0:0:
183,177,17157,1,0,0:0:0:0:
183,177,17544,1,8,0:0:0:0:
183,177,17931,1,0,0:0:0:0:
183,177,18705,1,0,0:0:0:0:
185,195,20254,1,0,0:0:0:0:
185,195,21028,1,8,0:0:0:0:
160,178,21802,1,0,0:0:0:0:
150,210,22189,1,0,0:0:0:0:
150,209,22576,1,8,0:0:0:0:
150,210,22963,1,8,0:0:0:0:
150,209,23350,1,0,0:0:0:0:
150,209,24125,1,8,0:0:0:0:
159,183,24899,1,0,0:0:0:0:
159,183,25673,1,8,0:0:0:0:
159,183,26060,1,0,0:0:0:0:
159,183,26447,1,8,0:0:0:0:
159,183,27221,1,0,0:0:0:0:
159,183,27996,1,0,0:0:0:0:
159,183,28383,1,0,0:0:0:0:
159,183,28770,1,8,0:0:0:0:
159,183,29544,1,0,0:0:0:0:
159,183,30318,1,8,0:0:0:0:
163,188,30705,1,8,0:0:0:0:
163,188,31092,1,0,0:0:0:0:
251,212,32641,1,8,0:0:0:0:
179,187,33028,1,0,0:0:0:0:
232,212,33415,1,8,0:0:0:0:
232,212,34189,1,0,0:0:0:0:
188,181,34576,1,8,0:0:0:0:
188,181,34963,1,8,0:0:0:0:
188,181,35350,1,8,0:0:0:0:
188,181,35737,1,0,0:0:0:0:
188,181,36512,1,8,0:0:0:0:
188,181,37286,1,0,0:0:0:0:
188,181,37673,1,0,0:0:0:0:
188,181,38060,1,8,0:0:0:0:
180,176,38834,1,0,0:0:0:0:
180,176,39608,1,8,0:0:0:0:
180,176,39996,1,8,0:0:0:0:
180,176,40383,1,0,0:0:0:0:
180,176,41157,1,0,0:0:0:0:
180,176,41931,1,0,0:0:0:0:
180,176,42318,1,0,0:0:0:0:
180,176,42705,1,8,0:0:0:0:
180,176,43479,1,0,0:0:0:0:
194,212,45028,1,8,0:0:0:0:
177,222,45415,1,8,0:0:0:0:
176,222,45802,1,0,0:0:0:0:
183,231,46576,1,8,0:0:0:0:
183,231,46963,1,8,0:0:0:0:
183,231,47350,1,0,0:0:0:0:
176,231,47737,1,0,0:0:0:0:
176,231,48125,1,8,0:0:0:0:
176,231,48899,1,0,0:0:0:0:
162,213,49673,1,0,0:0:0:0:
162,213,50060,1,8,0:0:0:0:
162,213,50447,1,0,0:0:0:0:
162,213,51221,1,8,0:0:0:0:
162,213,51996,1,0,0:0:0:0:
162,213,52770,1,8,0:0:0:0:
185,181,53157,1,0,0:0:0:0:
185,181,53544,1,8,0:0:0:0:
185,181,53931,1,8,0:0:0:0:
185,181,54318,1,0,0:0:0:0:
185,181,55092,1,0,0:0:0:0:
185,181,55479,1,0,0:0:0:0:
185,181,55866,1,8,0:0:0:0:
189,187,56641,1,8,0:0:0:0:
189,187,57415,1,0,0:0:0:0:
196,200,58576,1,0,0:0:0:0:
188,186,59737,1,8,0:0:0:0:
159,168,60125,1,8,0:0:0:0:
161,174,60512,1,0,0:0:0:0:
163,182,61673,5,0,0:0:0:0:
186,166,62447,1,8,0:0:0:0:
186,166,62834,1,8,0:0:0:0:
186,166,63221,1,8,0:0:0:0:
186,166,63608,1,0,0:0:0:0:
190,171,64383,1,8,0:0:0:0:
190,171,65157,1,0,0:0:0:0:
190,171,65544,1,0,0:0:0:0:
190,171,65931,1,8,0:0:0:0:
190,171,66318,1,8,0:0:0:0:
190,171,66705,1,0,0:0:0:0:
190,171,67479,1,8,0:0:0:0:
190,171,68254,1,0,0:0:0:0:
197,167,68641,1,0,0:0:0:0:
197,167,69028,1,8,0:0:0:0:
213,135,69802,1,0,0:0:0:0:
181,158,70576,1,8,0:0:0:0:
181,158,70963,1,0,0:0:0:0:
202,138,72125,1,0,0:0:0:0:
202,138,72899,1,0,0:0:0:0:
202,138,73673,1,8,0:0:0:0:
202,138,74060,1,0,0:0:0:0:
179,177,75221,1,0,0:0:0:0:
179,177,75996,1,8,0:0:0:0:
179,177,76770,1,0,0:0:0:0:
179,177,77544,1,8,0:0:0:0:
179,177,77931,1,8,0:0:0:0:
179,177,78318,1,0,0:0:0:0:
179,177,78705,1,8,0:0:0:0:
179,177,79092,1,0,0:0:0:0:
179,177,79866,1,8,0:0:0:0:
179,177,80641,1,0,0:0:0:0:
179,177,81415,1,8,0:0:0:0:
179,177,81802,1,8,0:0:0:0:
185,179,82189,1,0,0:0:0:0:
185,179,82963,1,8,0:0:0:0:
185,179,83350,1,0,0:0:0:0:
186,181,84512,1,0,0:0:0:0:
186,181,85286,1,0,0:0:0:0:
186,181,86060,1,8,0:0:0:0:
186,181,86447,1,0,0:0:0:0:
187,183,87608,1,8,0:0:0:0:
187,183,88390,1,0,0:0:0:0:
391,163,94876,5,12,0:0:0:0:
226,184,95733,1,0,0:0:0:0:
226,184,96590,1,0,0:0:0:0:
226,184,97018,1,0,0:0:0:0:
226,184,97447,1,8,0:0:0:0:
226,184,98304,1,0,0:0:0:0:
223,191,99161,1,8,0:0:0:0:
223,191,100018,1,0,0:0:0:0:
223,191,100447,1,0,0:0:0:0:
223,191,100876,1,8,0:0:0:0:
223,191,101733,1,0,0:0:0:0:
223,191,102590,1,8,0:0:0:0:
223,191,103018,1,0,0:0:0:0:
171,117,104304,1,8,0:0:0:0:
173,128,105161,1,0,0:0:0:0:
173,128,106018,1,8,0:0:0:0:
173,128,106447,1,0,0:0:0:0:
217,186,107733,1,8,0:0:0:0:
217,186,108161,1,8,0:0:0:0:
217,186,108590,1,4,0:0:0:0:
217,186,109447,1,8,0:0:0:0:
190,122,110518,1,0,0:0:0:0:
145,194,111161,1,8,0:0:0:0:
151,198,111590,1,0,0:0:0:0:
151,198,112018,1,0,0:0:0:0:
151,198,112876,1,8,0:0:0:0:
184,139,113947,1,0,0:0:0:0:
184,139,114590,1,8,0:0:0:0:
185,146,115018,1,8,0:0:0:0:
185,146,115447,1,0,0:0:0:0:
185,146,116304,1,8,0:0:0:0:
185,146,116733,1,0,0:0:0:0:
187,151,118018,1,8,0:0:0:0:
187,151,118876,1,0,0:0:0:0:
187,151,119733,1,8,0:0:0:0:
167,136,120161,1,0,0:0:0:0:
167,140,121447,1,0,0:0:0:0:
167,140,121876,1,8,0:0:0:0:
167,140,122304,1,4,0:0:0:0:
145,211,124018,1,4,0:0:0:0:
189,240,124446,1,8,0:0:0:0:
188,238,124875,1,0,0:0:0:0:
197,196,125732,1,8,0:0:0:0:
197,196,126589,1,0,0:0:0:0:
197,196,127018,1,8,0:0:0:0:
197,196,127446,1,8,0:0:0:0:
197,196,127875,1,8,0:0:0:0:
197,196,128303,1,0,0:0:0:0:
197,196,129160,1,8,0:0:0:0:
197,196,130018,1,0,0:0:0:0:
197,196,130446,1,8,0:0:0:0:
197,196,130875,1,0,0:0:0:0:
197,196,131732,1,0,0:0:0:0:
197,196,132589,1,8,0:0:0:0:
197,196,133018,1,8,0:0:0:0:
202,199,133446,1,0,0:0:0:0:
202,200,133875,1,8,0:0:0:0:
202,199,134303,1,0,0:0:0:0:
202,199,135160,1,8,0:0:0:0:
202,199,136018,1,0,0:0:0:0:
214,171,137732,1,4,0:0:0:0:
195,187,138589,1,8,0:0:0:0:
195,187,139018,1,8,0:0:0:0:
195,187,139446,1,0,0:0:0:0:
195,187,140303,1,8,0:0:0:0:
195,187,141160,1,0,0:0:0:0:
195,187,141589,1,0,0:0:0:0:
195,194,142018,1,8,0:0:0:0:
195,194,142446,1,0,0:0:0:0:
195,194,142875,1,8,0:0:0:0:
195,194,143732,1,0,0:0:0:0:
195,194,144589,1,8,0:0:0:0:
195,194,145018,1,8,0:0:0:0:
195,194,145446,1,0,0:0:0:0:
195,194,146303,1,8,0:0:0:0:
195,194,147160,1,0,0:0:0:0:
195,194,147589,1,8,0:0:0:0:
195,194,148018,1,0,0:0:0:0:
194,201,148875,1,8,0:0:0:0:
194,201,149732,1,8,0:0:0:0:
194,201,150160,1,8,0:0:0:0:
194,201,150589,1,0,0:0:0:0:
194,201,151018,1,0,0:0:0:0:
257,199,154875,5,4,0:0:0:0:
298,224,155732,1,8,0:0:0:0:
253,216,156160,1,0,0:0:0:0:
236,216,157446,1,8,0:0:0:0:
236,216,157875,1,0,0:0:0:0:
236,216,158303,1,0,0:0:0:0:
236,216,158732,1,0,0:0:0:0:
236,216,159589,1,0,0:0:0:0:
236,221,160875,1,8,0:0:0:0:
180,170,161732,1,0,0:0:0:0:
157,156,162589,1,8,0:0:0:0:
157,156,163017,1,0,0:0:0:0:
206,150,164303,1,8,0:0:0:0:
206,150,164732,1,8,0:0:0:0:
206,150,165160,1,0,0:0:0:0:
206,150,166017,1,8,0:0:0:0:
206,150,166446,1,0,0:0:0:0:
209,156,167303,1,0,0:0:0:0:
211,126,167732,1,8,0:0:0:0:
180,144,168160,1,8,0:0:0:0:
180,144,168589,1,4,0:0:0:0:
188,134,169446,1,8,0:0:0:0:
188,134,169875,1,0,0:0:0:0:
189,138,171160,1,8,0:0:0:0:
189,138,172017,1,0,0:0:0:0:
193,146,172875,1,8,0:0:0:0:
193,146,173303,1,0,0:0:0:0:
194,148,174589,1,8,0:0:0:0:
194,148,175446,1,0,0:0:0:0:
194,148,176303,1,8,0:0:0:0:
194,148,176732,1,0,0:0:0:0:
195,152,178017,1,8,0:0:0:0:
195,152,178875,1,0,0:0:0:0:
195,152,179732,1,8,0:0:0:0:
195,152,180160,1,0,0:0:0:0:
195,154,181446,1,0,0:0:0:0:
199,99,181875,1,8,0:0:0:0:
