osu file format v14

[General]
AudioFilename: audio.mp3
AudioLeadIn: 0
PreviewTime: 41782
Countdown: 1
SampleSet: None
StackLeniency: 0.7
Mode: 0
LetterboxInBreaks: 0
WidescreenStoryboard: 0

[Editor]
Bookmarks: 28497,42211,69639,97817,110782,138210,170781,179352,213638
DistanceSpacing: 1
BeatDivisor: 4
GridSize: 16
TimelineZoom: 1

[Metadata]
Title:ECHO ft. dj-Jo
TitleUnicode:ECHO ft. dj-Jo
Artist:Aruvn
ArtistUnicode:Aruvn
Creator:MyTic190
Version:Normal
Source:
Tags:song echo dj jo male aruvn pop music
BeatmapID:1448739
BeatmapSetID:684554

[Difficulty]
HPDrainRate:3
CircleSize:3
OverallDifficulty:3
ApproachRate:5
SliderMultiplier:1.2
SliderTickRate:2

[Events]
//Background and Video events
0,0,"ECHO Immagine.jpg",0,0
//Break Periods
2,69839,82033
2,111410,116319
//Storyboard Layer 0 (Background)
//Storyboard Layer 1 (Fail)
//Storyboard Layer 2 (Pass)
//Storyboard Layer 3 (Foreground)
//Storyboard Sound Samples

[TimingPoints]
1069,428.56666666667,4,1,0,100,1,0
14354,-105.263157894737,4,1,0,30,0,0
17140,-181.818181818183,4,1,0,30,0,0
17997,-105.263157894737,4,1,0,30,0,0
20568,-181.818181818183,4,1,0,30,0,0
21425,-105.263157894737,4,1,0,30,0,0
23997,-181.818181818183,4,1,0,30,0,0
24854,-105.263157894737,4,1,0,30,0,0
27425,-181.818181818183,4,1,0,30,0,0
28497,-102.040816326531,4,1,0,40,0,0
40497,-200,4,1,0,30,0,0
41782,-105.263157894737,4,1,0,45,0,0
42211,-100,4,1,0,70,0,1
48639,-95.2380952380952,4,1,0,70,0,1
49068,-100,4,1,0,70,0,1
55925,-95.2380952380952,4,1,0,70,0,1
56782,-100,4,1,0,70,0,1
57639,-95.2380952380952,4,1,0,70,0,1
58496,-100,4,1,0,70,0,1
63211,-133.333333333333,4,1,0,70,0,1
63639,-100,4,1,0,70,0,1
69639,-102.040816326531,4,1,0,50,0,0
76496,-105.263157894737,4,1,0,50,0,0
83353,-95.2380952380954,4,1,0,50,0,0
83568,-105.263157894737,4,1,0,50,0,0
86782,-95.2380952380954,4,1,0,50,0,0
86996,-105.263157894737,4,1,0,50,0,0
90210,-95.2380952380954,4,1,0,50,0,0
90425,-105.263157894737,4,1,0,50,0,0
93639,-95.2380952380954,4,1,0,50,0,0
93853,-105.263157894737,4,1,0,50,0,0
97710,-102.040816326531,4,1,0,50,0,0
110782,-95.2380952380952,4,1,0,50,0,0
111210,-105.263157894737,4,1,0,50,0,0
117639,-133.333333333334,4,1,0,51,0,0
118067,-105.263157894737,4,1,0,50,0,0
131353,-117.64705882353,4,1,0,50,0,0
131781,-105.263157894737,4,1,0,50,0,0
137781,-95.2380952380954,4,1,0,60,0,0
138210,-105.263157894737,4,1,0,40,0,0
145067,-102.040816326531,4,1,0,60,0,0
151924,-100,4,1,0,60,0,0
170781,-133.333333333334,4,1,0,40,0,0
172067,-102.040816326531,4,1,0,60,0,0
178924,-100,4,1,0,70,0,0
179352,-100,4,1,0,100,0,1
192638,-95.2380952380954,4,1,0,70,0,1
193066,-100,4,1,0,70,0,1
199923,-95.2380952380952,4,1,0,70,0,1
200781,-100,4,1,0,70,0,1
201638,-95.2380952380954,4,1,0,70,0,1
202495,-100,4,1,0,70,0,1
206781,-95.2380952380954,4,1,0,70,0,1
207638,-100,4,1,0,70,0,1
208495,-95.2380952380954,4,1,0,70,0,1
209352,-100,4,1,0,70,0,1
213638,-100,4,1,0,100,0,0

[Colours]
Combo1 : 18,18,18
Combo2 : 249,249,249
Combo3 : 192,192,192
Combo4 : 128,128,128

[HitObjects]
96,80,14354,6,0,L|96:208,1,113.999996955872,0|2,0:0|2:0,0:0:0:0:
96,288,15211,1,0,0:0:0:0:
96,288,15640,2,0,L|176:288,1,56.9999984779358,2|0,2:0|0:0,0:0:0:0:
256,288,16283,1,0,0:0:0:0:
256,288,16497,2,0,L|256:160,1,113.999996955872,2|0,2:0|0:0,0:0:0:0:
176,176,17140,2,2,P|192:112|256:80,1,132.00000402832,0|0,0:0|0:0,2:0:0:0:
320,48,18211,2,0,L|448:48,1,113.999996955872,0|2,0:0|2:0,0:0:0:0:
368,144,19068,2,0,L|240:144,1,113.999996955872,0|2,0:0|2:0,0:0:0:0:
144,144,19925,2,0,L|144:208,1,56.9999984779358
64,240,20568,6,2,B|80:304|80:304|192:304,1,165.000005035401,0|0,0:0|0:0,2:0:0:0:
224,224,22068,2,0,L|224:160,1,56.9999984779358,2|0,2:0|0:0,0:0:0:0:
160,96,22497,2,0,P|192:64|272:48,2,113.999996955872,0|2|0,0:0|2:0|0:0,0:0:0:0:
160,96,23568,1,0,0:0:0:0:
64,128,23997,2,0,P|96:176|144:192,1,99.0000030212403,0|2,0:0|2:0,0:0:0:0:
160,96,24854,1,0,0:0:0:0:
160,96,25068,2,0,L|288:96,1,113.999996955872,0|2,0:0|2:0,0:0:0:0:
352,48,25925,2,0,P|384:64|384:144,1,113.999996955872,0|2,0:0|2:0,0:0:0:0:
480,176,26783,2,0,P|464:224|400:256,1,113.999996955872,0|2,0:0|2:0,0:0:0:0:
384,176,27425,2,0,B|352:176|352:208|320:224|320:224|272:240,1,132.00000402832
272,240,28497,5,4,3:0:0:0:
288,144,28925,2,0,L|288:80,1,58.7999994616699,2|0,3:0|0:0,0:0:0:0:
240,16,29354,2,0,P|208:32|208:112,1,117.59999892334,0|2,0:0|3:0,0:0:0:0:
208,112,30211,1,0,0:0:0:0:
96,160,30640,2,0,P|96:208|96:240,1,58.7999994616699,2|0,3:0|0:0,0:0:0:0:
32,288,31068,2,0,P|96:320|144:304,1,117.59999892334,0|2,0:0|3:0,0:0:0:0:
137,308,31925,1,0,0:0:0:0:
160,224,32354,2,0,L|288:256,2,117.59999892334,2|0|2,3:0|0:0|3:0,0:0:0:0:
160,112,33640,1,0,0:0:0:0:
160,112,34068,1,2,3:0:0:0:
160,112,34497,5,0,0:0:0:0:
160,112,34925,2,0,L|304:112,1,117.59999892334,2|0,3:0|0:0,0:0:0:0:
336,48,35782,2,0,L|400:96,1,58.7999994616699,2|0,3:0|0:0,0:0:0:0:
480,112,36211,2,0,P|464:160|304:176,1,235.19999784668,0|0,3:0|0:0,0:0:0:0:
352,288,37497,2,0,P|304:288|272:288,1,58.7999994616699,2|0,3:0|0:0,0:0:0:0:
224,208,37925,2,0,P|176:224|192:384,1,235.19999784668
64,224,39211,2,0,L|112:160,1,58.7999994616699,2|0,3:0|0:0,0:0:0:0:
0,128,39640,2,0,B|48:80|48:80|160:80,1,176.39999838501
256,80,40497,2,2,B|304:80|304:80|352:64|352:64|384:80|384:80|432:80|432:80|432:80,1,180,2|2,1:0|1:0,1:0:0:0:
352,192,42211,6,0,P|352:240|288:272,2,120,4|8|0,1:0|1:0|0:0,0:0:0:0:
352,192,43497,1,8,1:0:0:0:
336,96,43925,2,0,L|272:96,1,60
224,32,44354,2,0,P|192:96|208:144,1,120,8|0,1:0|0:0,0:0:0:0:
96,176,45211,1,8,1:0:0:0:
96,272,45639,1,0,0:0:0:0:
176,320,46068,1,8,1:0:0:0:
176,224,46497,2,0,L|304:192,1,120,0|8,0:0|1:0,0:0:0:0:
304,288,47354,2,0,L|368:304,1,60
448,320,47782,2,0,P|432:256|384:224,1,120,8|0,1:0|0:0,0:0:0:0:
256,192,48639,5,4,3:0:0:0:
256,192,49068,1,4,3:0:0:0:
320,128,49497,2,0,L|288:64,1,60,8|0,1:0|0:0,0:0:0:0:
208,112,49925,2,0,P|160:128|80:96,1,120,0|8,0:0|1:0,0:0:0:0:
32,208,50782,2,0,L|64:272,1,60
0,336,51211,2,0,P|48:352|128:336,1,120,8|0,1:0|0:0,0:0:0:0:
176,256,52068,1,8,1:0:0:0:
144,160,52497,2,0,P|208:160|256:208,1,120,0|8,0:0|1:0,0:0:0:0:
272,288,53354,2,0,P|320:272|352:208,2,120,0|8|0,0:0|1:0|0:0,0:0:0:0:
272,176,54639,2,0,L|304:112,1,60,8|0,1:0|0:0,0:0:0:0:
256,48,55068,6,0,P|304:32|368:64,1,120,0|8,0:0|1:0,0:0:0:0:
464,128,55925,2,8,B|416:160|416:160|432:224|432:224|368:224|368:224|352:272|352:272|336:304,1,251.999992309571,8|8,3:0|3:0,1:0:0:0:
96,288,57639,2,8,B|118:227|118:227|182:227|182:227|166:163|166:163|214:131,1,251.999992309571,8|8,3:0|3:0,1:0:0:0:
256,48,58925,1,8,1:0:0:0:
352,48,59354,2,0,L|480:48,2,120,0|8|0,0:0|1:0|0:0,0:0:0:0:
288,128,60639,2,0,L|288:192,1,60,8|0,1:0|0:0,0:0:0:0:
368,192,61068,2,0,P|352:240|288:272,1,120,0|8,0:0|1:0,0:0:0:0:
160,272,61925,2,0,P|96:224|96:176,1,120,0|8,0:0|1:0,0:0:0:0:
96,64,62782,1,2,2:0:0:0:
96,64,63211,2,4,L|192:64,1,90.0000034332277,4|4,3:0|3:0,3:0:0:0:
320,64,64068,6,0,L|320:128,1,60,8|0,3:0|0:0,0:0:0:0:
240,144,64496,2,0,P|256:192|336:192,2,120,0|8|0,0:0|3:0|0:0,0:0:0:0:
128,112,65782,2,0,L|64:144,1,60,8|0,3:0|0:0,0:0:0:0:
0,192,66211,2,0,P|32:224|128:224,1,120,0|8,0:0|3:0,0:0:0:0:
128,320,67068,2,0,P|192:272|192:224,1,120,0|8,0:0|3:0,0:0:0:0:
272,176,67925,2,0,L|352:192,2,60,0|0|8,0:0|0:0|3:0,0:0:0:0:
256,80,68782,2,0,L|192:48,2,60,0|0|8,0:0|0:0|3:0,0:0:0:0:
256,80,69639,1,4,1:0:0:0:
256,64,83353,6,0,L|256:160,2,94.499997116089,4|4|0,3:0|3:0|0:0,0:0:0:0:
128,80,84639,2,0,P|80:128|80:176,1,113.999996955872
80,288,85496,2,8,L|208:288,1,113.999996955872
304,288,86353,1,0,0:0:0:0:
400,224,86782,2,0,L|400:128,2,94.499997116089,4|4|0,3:0|3:0|0:0,0:0:0:0:
288,80,88068,2,0,P|240:128|240:176,1,113.999996955872
224,304,88925,2,8,P|272:288|304:224,1,113.999996955872
224,160,89782,1,0,0:0:0:0:
208,48,90210,6,0,L|96:48,2,94.499997116089,4|4|0,3:0|3:0|0:0,0:0:0:0:
256,160,91496,2,0,L|128:208,1,113.999996955872
48,272,92353,2,8,B|64:320|64:320|144:320,1,113.999996955872
240,320,93210,1,0,0:0:0:0:
192,208,93639,2,0,L|80:160,2,94.499997116089,4|4|0,3:0|3:0|0:0,0:0:0:0:
224,96,94925,2,0,L|352:48,2,113.999996955872,0|0|8,0:0|0:0|0:0,0:0:0:0:
320,160,96210,2,0,P|336:192|416:208,1,113.999996955872,8|0,0:0|0:0,0:0:0:0:
320,304,97067,2,0,L|208:304,2,85.4999977169037,4|4|0,3:0|3:0|0:0,0:0:0:0:
384,144,98353,2,0,P|352:112|272:96,1,117.59999892334
160,96,99210,2,8,P|112:112|64:176,1,117.59999892334
32,256,100067,1,0,0:0:0:0:
160,256,100496,2,0,L|160:352,2,88.1999991925049,4|4|0,3:0|3:0|0:0,0:0:0:0:
160,48,101782,2,0,L|288:48,1,117.59999892334
256,160,102639,2,0,L|400:160,2,117.59999892334,8|8|0,0:0|0:0|0:0,0:0:0:0:
272,272,103925,2,0,L|176:288,2,88.1999991925049,4|4|0,3:0|3:0|0:0,0:0:0:0:
368,320,105210,6,0,L|448:224,1,117.59999892334
416,112,106067,2,8,L|336:208,1,117.59999892334
240,208,106924,1,0,0:0:0:0:
240,96,107353,2,0,L|144:48,2,88.1999991925049,4|4|0,3:0|3:0|0:0,0:0:0:0:
96,144,108639,2,0,B|64:192|64:192|64:256,1,117.59999892334
160,256,109496,2,8,L|288:256,1,117.59999892334
384,256,110353,1,0,0:0:0:0:
432,160,110782,2,8,B|384:128|384:128|336:160|336:160|304:176,1,125.999996154785,8|12,0:0|1:0,0:0:0:0:
144,96,117639,6,4,B|208:96|208:96|240:96,1,90.0000034332277,4|12,3:0|3:0,3:0:0:0:
176,192,118496,2,0,L|144:240,1,56.9999984779358
64,256,118924,2,0,P|96:304|160:320,1,113.999996955872,8|0,3:0|0:0,0:0:0:0:
256,320,119781,1,8,3:0:0:0:
352,320,120210,1,0,0:0:0:0:
416,240,120639,2,0,L|352:224,1,56.9999984779358,8|0,3:0|0:0,0:0:0:0:
272,240,121067,2,0,P|272:208|320:144,1,113.999996955872,0|8,0:0|3:0,0:0:0:0:
352,48,121924,1,0,0:0:0:0:
224,48,122353,2,0,L|160:48,2,56.9999984779358,8|0|0,3:0|0:0|0:0,0:0:0:0:
192,144,123210,2,0,L|80:192,1,113.999996955872,8|0,3:0|0:0,0:0:0:0:
48,288,124067,5,8,3:0:0:0:
144,320,124496,2,0,L|208:320,1,56.9999984779358
208,224,124924,2,0,P|256:240|288:304,1,113.999996955872,8|0,3:0|0:0,0:0:0:0:
384,320,125781,1,8,3:0:0:0:
448,240,126210,1,0,0:0:0:0:
400,144,126639,1,8,3:0:0:0:
352,224,127067,2,0,P|304:192|288:128,1,113.999996955872,0|8,0:0|3:0,0:0:0:0:
352,80,127924,2,0,P|320:64|224:80,1,113.999996955872,0|8,0:0|3:0,0:0:0:0:
176,144,128781,2,0,L|112:112,1,56.9999984779358
48,96,129210,2,0,P|48:128|96:208,1,113.999996955872,8|0,3:0|0:0,0:0:0:0:
48,288,130067,5,8,3:0:0:0:
144,256,130496,2,0,L|208:256,2,56.9999984779358,0|0|8,0:0|0:0|3:0,0:0:0:0:
96,160,131353,1,0,0:0:0:0:
192,160,131781,2,0,P|224:112|288:112,1,113.999996955872,4|0,1:0|0:0,0:0:0:0:
352,48,132638,2,0,P|400:80|400:144,1,113.999996955872,8|0,1:0|0:0,0:0:0:0:
384,240,133496,1,8,1:0:0:0:
272,272,133924,2,0,L|256:208,1,56.9999984779358
336,160,134353,2,0,P|288:128|224:144,1,113.999996955872,8|0,1:0|0:0,0:0:0:0:
176,64,135210,1,8,1:0:0:0:
80,128,135638,2,0,L|48:192,2,56.9999984779358,0|0|8,0:0|0:0|1:0,0:0:0:0:
144,192,136496,2,0,L|144:320,2,113.999996955872,0|8|0,0:0|1:0|0:0,0:0:0:0:
208,96,137781,6,0,L|336:96,1,125.999996154785,2|0,2:0|0:0,0:0:0:0:
432,160,138638,2,0,L|448:224,1,56.9999984779358,2|0,2:0|0:0,0:0:0:0:
480,288,139067,2,0,P|432:304|368:256,1,113.999996955872,0|2,0:0|2:0,0:0:0:0:
256,208,139924,2,0,L|176:208,2,56.9999984779358,0|0|2,0:0|0:0|2:0,0:0:0:0:
256,112,140781,2,0,P|224:80|144:80,1,113.999996955872,0|2,0:0|2:0,0:0:0:0:
192,160,141638,2,0,P|144:192|80:192,1,113.999996955872,0|2,0:0|2:0,0:0:0:0:
96,320,142496,2,0,L|176:336,1,56.9999984779358
240,336,142924,2,0,L|240:208,1,113.999996955872,2|0,2:0|0:0,0:0:0:0:
160,176,143781,1,2,2:0:0:0:
240,128,144210,1,0,0:0:0:0:
320,176,144638,1,2,2:0:0:0:
400,224,145067,6,0,L|464:112,1,117.59999892334,0|2,0:0|3:0,0:0:0:0:
384,48,145924,2,0,L|304:160,1,117.59999892334,0|2,0:0|3:0,0:0:0:0:
208,208,146781,2,0,L|144:208,2,58.7999994616699,0|0|2,0:0|0:0|3:0,0:0:0:0:
288,272,147638,2,0,L|176:352,1,117.59999892334,0|2,0:0|3:0,0:0:0:0:
112,272,148495,1,0,0:0:0:0:
112,160,148924,1,2,3:0:0:0:
192,208,149353,2,0,P|208:176|192:96,1,117.59999892334,0|2,0:0|3:0,0:0:0:0:
288,48,150210,2,0,L|352:48,2,58.7999994616699,0|0|2,0:0|0:0|3:0,0:0:0:0:
320,128,151067,2,0,L|320:256,2,117.59999892334,0|2|0,0:0|3:0|0:0,0:0:0:0:
416,176,152353,1,8,1:0:0:0:
416,272,152781,5,0,0:0:0:0:
336,336,153210,1,8,1:0:0:0:
304,224,153638,2,0,L|160:224,1,120,0|8,0:0|1:0,0:0:0:0:
176,224,154495,1,0,0:0:0:0:
64,160,154924,2,0,P|80:112|144:80,1,120,8|0,1:0|0:0,0:0:0:0:
144,208,155781,2,0,L|112:272,1,60,8|0,1:0|0:0,0:0:0:0:
32,320,156210,2,0,L|160:368,1,120,0|8,0:0|1:0,0:0:0:0:
256,304,157067,2,0,L|320:304,2,60,0|0|8,0:0|0:0|1:0,0:0:0:0:
256,208,157924,1,0,0:0:0:0:
256,208,158352,1,8,1:0:0:0:
144,176,158781,6,0,L|144:32,1,120,0|8,0:0|1:0,0:0:0:0:
240,128,159638,2,0,L|240:256,1,120,0|8,0:0|1:0,0:0:0:0:
320,304,160495,2,0,L|400:304,1,60
464,272,160924,2,0,P|432:224|368:208,1,120,8|0,1:0|0:0,0:0:0:0:
416,112,161781,1,8,1:0:0:0:
352,32,162210,2,0,L|240:128,1,120,0|8,0:0|1:0,0:0:0:0:
176,48,163067,2,0,L|176:176,1,120,0|8,0:0|1:0,0:0:0:0:
96,256,163924,2,0,L|160:256,2,60,0|0|8,0:0|0:0|1:0,0:0:0:0:
16,336,164781,2,0,L|144:336,1,120,0|8,0:0|1:0,0:0:0:0:
224,336,165638,1,0,0:0:0:0:
240,240,166067,6,0,P|288:240|336:304,2,120,8|0|8,1:0|0:0|1:0,0:0:0:0:
224,128,167352,2,0,L|160:128,2,60,0|0|10,0:0|0:0|2:0,0:0:0:0:
320,128,168210,1,2,2:0:0:0:
400,256,169067,2,0,L|400:320,2,60,0|0|10,0:0|0:0|2:0,0:0:0:0:
400,160,169924,1,2,2:0:0:0:
304,112,170781,2,8,B|256:64|256:64|208:112|208:112|144:112|144:112,1,180.000006866455,8|8,3:0|3:0,3:0:0:0:
48,160,172067,2,0,L|64:240,1,58.7999994616699
0,288,172495,2,0,P|48:320|112:304,1,117.59999892334,4|2,1:0|3:0,0:0:0:0:
208,304,173352,1,0,0:0:0:0:
208,304,173781,1,2,3:0:0:0:
272,208,174209,6,0,L|336:240,2,58.7999994616699,0|0|2,0:0|0:0|3:0,0:0:0:0:
272,96,175067,2,0,L|192:80,2,58.7999994616699,0|0|2,0:0|0:0|3:0,0:0:0:0:
368,48,175924,2,0,B|400:80|400:80|400:160,1,117.59999892334,0|2,0:0|3:0,0:0:0:0:
464,240,176781,2,0,L|320:240,1,117.59999892334,0|2,0:0|3:0,0:0:0:0:
352,336,177638,2,0,L|224:336,1,117.59999892334,0|2,0:0|3:0,0:0:0:0:
144,336,178495,1,0,0:0:0:0:
192,256,178924,2,0,L|224:192,1,60,2|0,3:0|0:0,0:0:0:0:
144,160,179352,2,0,P|192:128|256:128,1,120,4|8,1:0|1:0,0:0:0:0:
320,48,180209,1,0,0:0:0:0:
416,48,180638,1,8,1:0:0:0:
368,144,181067,6,0,B|400:176|400:176|400:256,2,120,0|8|0,0:0|1:0|0:0,0:0:0:0:
240,144,182352,2,0,B|272:176|272:176|272:272,2,120,8|0|8,1:0|0:0|1:0,0:0:0:0:
176,64,183638,1,0,0:0:0:0:
80,112,184066,1,8,1:0:0:0:
32,208,184495,2,0,L|112:240,1,60
112,320,184924,2,0,P|144:304|176:208,1,120,8|0,1:0|0:0,0:0:0:0:
256,160,185781,1,4,3:0:0:0:
256,160,185995,1,0,0:0:0:0:
256,160,186209,2,0,L|256:304,1,120,4|8,3:0|0:0,0:0:0:0:
352,192,187066,2,0,L|352:64,1,120,0|8,0:0|1:0,0:0:0:0:
240,64,187924,6,0,L|176:64,2,60,0|0|8,0:0|0:0|1:0,0:0:0:0:
272,160,188781,2,0,L|336:160,2,60,0|0|8,0:0|0:0|1:0,0:0:0:0:
192,192,189638,2,0,P|208:240|160:288,1,120,0|8,0:0|1:0,0:0:0:0:
80,208,190495,2,0,L|32:160,1,60
32,80,190924,2,0,L|160:80,1,120,8|0,1:0|0:0,0:0:0:0:
144,160,191781,2,0,B|176:192|176:192|208:160|208:160|256:160,1,120,8|0,1:0|0:0,0:0:0:0:
304,80,192638,2,0,L|368:128,1,62.9999980773926,4|0,3:0|0:0,0:0:0:0:
400,192,193066,2,0,L|400:320,1,120,4|8,3:0|1:0,0:0:0:0:
288,224,193924,2,0,L|288:80,1,120,0|8,0:0|1:0,0:0:0:0:
176,48,194781,2,0,L|112:64,1,60
48,112,195209,6,0,P|80:144|160:144,1,120,8|0,1:0|0:0,0:0:0:0:
176,240,196066,1,8,1:0:0:0:
112,320,196495,1,0,0:0:0:0:
224,320,196923,1,8,1:0:0:0:
320,272,197352,2,0,L|384:304,1,60
448,320,197781,2,0,P|448:272|400:224,1,120,8|0,1:0|0:0,0:0:0:0:
448,128,198638,2,0,L|368:32,1,120,8|0,1:0|0:0,0:0:0:0:
320,144,199495,1,8,1:0:0:0:
176,144,199923,6,8,B|148:164|128:176|128:176|144:240|144:240|80:240|80:240|48:320,1,251.999992309571,8|8,3:0|3:0,1:0:0:0:
352,304,201638,2,8,B|375:244|375:244|439:244|439:244|423:180|423:180|487:132,1,251.999992309571,8|8,3:0|3:0,1:0:0:0:
464,48,202923,1,0,0:0:0:0:
352,64,203352,2,0,P|336:112|256:128,1,120,0|8,0:0|1:0,0:0:0:0:
208,48,204209,2,0,L|80:48,1,120,0|8,0:0|1:0,0:0:0:0:
32,128,204852,1,0,0:0:0:0:
32,224,205066,2,0,P|96:208|128:144,1,120,0|8,0:0|1:0,0:0:0:0:
208,96,205923,1,0,0:0:0:0:
208,96,206352,1,8,1:0:0:0:
336,176,206781,2,8,B|304:208|304:208|256:256|256:256|208:304|208:304|144:240,1,251.999992309571,8|8,3:0|3:0,1:0:0:0:
192,160,208495,2,8,B|336:48|336:48|400:112,1,251.999992309571,8|8,3:0|3:0,1:0:0:0:
432,176,209780,5,0,0:0:0:0:
464,272,210209,2,0,L|352:320,1,120,0|8,0:0|1:0,0:0:0:0:
256,272,211066,2,0,L|368:208,1,120,0|8,0:0|1:0,0:0:0:0:
360,212,211709,1,0,0:0:0:0:
352,96,212138,1,0,0:0:0:0:
352,96,212352,2,0,L|240:48,1,120,8|0,1:0|0:0,0:0:0:0:
112,48,213209,1,8,1:0:0:0:
48,176,213638,2,0,P|96:224|144:224,1,120,4|8,1:0|3:0,0:0:0:0:
256,256,214495,2,0,L|256:320,2,60,0|0|8,0:0|0:0|3:0,0:0:0:0:
256,144,215352,2,0,L|384:144,2,120,0|8|0,0:0|3:0|0:0,0:0:0:0:
256,48,216638,5,8,3:0:0:0:
352,48,217066,1,0,0:0:0:0:
464,48,217495,1,8,3:0:0:0:
400,128,217923,2,0,P|368:176|304:192,1,120,0|8,0:0|3:0,0:0:0:0:
224,192,218780,2,0,P|256:112|304:96,1,120,0|8,0:0|3:0,0:0:0:0:
336,208,219638,1,0,0:0:0:0:
336,208,220066,1,8,3:0:0:0:
256,320,220495,2,0,L|320:320,2,60,0|0|8,0:0|0:0|3:0,0:0:0:0:
256,224,221352,2,0,L|176:224,2,60,0|0|8,0:0|0:0|3:0,0:0:0:0:
352,208,222209,2,0,L|320:80,1,120,0|8,0:0|3:0,0:0:0:0:
208,64,223066,6,0,L|240:192,1,120,0|8,0:0|3:0,0:0:0:0:
272,288,223923,2,0,L|208:320,1,60
160,336,224352,2,0,L|160:192,1,120,8|0,3:0|0:0,0:0:0:0:
144,80,225209,2,0,P|192:96|272:64,2,120,8|0|8,3:0|0:0|3:0,0:0:0:0:
256,192,226495,1,8,3:0:0:0:
256,192,226923,1,8,3:0:0:0:
256,192,227352,12,2,232495,2:0:0:0:
