osu file format v14

[General]
AudioFilename: audio.mp3
AudioLeadIn: 0
PreviewTime: 95589
Countdown: 0
SampleSet: Normal
StackLeniency: 0.7
Mode: 3
LetterboxInBreaks: 0
SpecialStyle: 0
WidescreenStoryboard: 1

[Editor]
Bookmarks: 15142,41958,68774,95589,122405
DistanceSpacing: 0.8
BeatDivisor: 4
GridSize: 4
TimelineZoom: 1.4

[Metadata]
Title:Summon
TitleUnicode:Summon
Artist:Artisan
ArtistUnicode:Artisan
Creator:-MysticEyes
Version:Normal
Source:
Tags:slyleaf tnmt :thonking: Newbie mania Tournament group stage gs ausnz!4k aus/nz! tourney 2020 electronic instrumental orchestral sichi vocal sleef sara leaf link
BeatmapID:4222677
BeatmapSetID:988031

[Difficulty]
HPDrainRate:7
CircleSize:4
OverallDifficulty:7
ApproachRate:5
SliderMultiplier:1.4
SliderTickRate:1

[Events]
//Background and Video events
0,0,"high.jpg",0,0
//Break Periods
//Storyboard Layer 0 (Background)
//Storyboard Layer 1 (Fail)
//Storyboard Layer 2 (Pass)
//Storyboard Layer 3 (Foreground)
//Storyboard Layer 4 (Overlay)
//Storyboard Sound Samples

[TimingPoints]
1735,335.195530726257,5,1,1,70,1,0
15142,-100,5,1,1,100,0,0
68774,-100,5,1,1,80,0,0
88885,-100,5,1,1,90,0,0
95589,-100,5,1,1,100,0,0

[HitObjects]
192,192,1735,5,0,0:0:0:0:
192,192,2070,1,0,0:0:0:0:
448,192,2405,1,0,0:0:0:0:
448,192,2740,1,0,0:0:0:0:
448,192,3075,1,0,0:0:0:0:
320,192,3410,1,0,0:0:0:0:
320,192,3746,1,0,0:0:0:0:
192,192,4081,1,0,0:0:0:0:
192,192,4416,1,0,0:0:0:0:
192,192,4751,1,0,0:0:0:0:
64,192,5086,1,0,0:0:0:0:
64,192,5422,1,0,0:0:0:0:
320,192,5757,1,0,0:0:0:0:
320,192,6092,1,0,0:0:0:0:
320,192,6427,1,0,0:0:0:0:
64,192,6762,1,0,0:0:0:0:
64,192,7098,1,0,0:0:0:0:
320,192,7433,1,0,0:0:0:0:
320,192,7768,1,0,0:0:0:0:
320,192,8103,1,0,0:0:0:0:
192,192,8438,1,0,0:0:0:0:
192,192,8774,1,0,0:0:0:0:
448,192,9109,1,0,0:0:0:0:
448,192,9444,1,0,0:0:0:0:
448,192,9779,1,0,0:0:0:0:
320,192,10114,1,0,0:0:0:0:
320,192,10450,1,0,0:0:0:0:
192,192,10785,1,0,0:0:0:0:
192,192,11120,1,0,0:0:0:0:
192,192,11455,1,0,0:0:0:0:
64,192,11790,1,0,0:0:0:0:
64,192,12126,1,0,0:0:0:0:
320,192,12461,1,0,0:0:0:0:
320,192,12796,1,0,0:0:0:0:
320,192,13131,1,0,0:0:0:0:
64,192,13466,1,0,0:0:0:0:
64,192,13802,1,0,0:0:0:0:
320,192,14137,1,0,0:0:0:0:
320,192,14472,1,0,0:0:0:0:
320,192,14807,1,0,0:0:0:0:
192,192,15142,1,2,0:0:0:0:
64,192,15478,1,0,0:0:0:0:
192,192,15645,1,2,0:0:0:0:
64,192,15813,1,0,0:0:0:0:
448,192,15980,1,0,0:0:0:0:
192,192,16148,1,2,0:0:0:0:
320,192,16316,1,0,0:0:0:0:
192,192,16483,1,2,0:0:0:0:
320,192,16651,1,0,0:0:0:0:
448,192,16818,1,2,0:0:0:0:
320,192,17153,1,0,0:0:0:0:
448,192,17321,1,2,0:0:0:0:
320,192,17489,1,0,0:0:0:0:
192,192,17656,1,0,0:0:0:0:
448,192,17824,1,2,0:0:0:0:
64,192,17991,1,0,0:0:0:0:
448,192,18159,1,2,0:0:0:0:
448,192,18327,1,0,0:0:0:0:
64,192,18494,1,2,0:0:0:0:
320,192,18829,1,0,0:0:0:0:
64,192,18997,1,2,0:0:0:0:
320,192,19165,1,0,0:0:0:0:
192,192,19332,1,0,0:0:0:0:
64,192,19500,1,2,0:0:0:0:
320,192,19667,1,0,0:0:0:0:
64,192,19835,1,2,0:0:0:0:
448,192,20003,1,0,0:0:0:0:
64,192,20170,1,2,0:0:0:0:
320,192,20505,1,0,0:0:0:0:
64,192,20673,1,2,0:0:0:0:
320,192,20841,1,0,0:0:0:0:
192,192,21008,1,0,0:0:0:0:
64,192,21176,1,2,0:0:0:0:
448,192,21343,1,0,0:0:0:0:
64,192,21511,1,2,0:0:0:0:
320,192,21679,1,0,0:0:0:0:
192,192,21846,1,2,0:0:0:0:
64,192,22181,1,0,0:0:0:0:
192,192,22349,1,2,0:0:0:0:
320,192,22517,1,0,0:0:0:0:
448,192,22684,1,0,0:0:0:0:
192,192,22852,1,2,0:0:0:0:
320,192,23019,1,0,0:0:0:0:
192,192,23187,1,2,0:0:0:0:
320,192,23355,1,0,0:0:0:0:
448,192,23522,1,2,0:0:0:0:
320,192,23857,1,0,0:0:0:0:
448,192,24025,1,2,0:0:0:0:
320,192,24193,1,0,0:0:0:0:
192,192,24360,1,0,0:0:0:0:
448,192,24528,1,2,0:0:0:0:
64,192,24695,1,0,0:0:0:0:
448,192,24863,1,2,0:0:0:0:
448,192,25031,1,0,0:0:0:0:
64,192,25198,1,2,0:0:0:0:
320,192,25533,1,0,0:0:0:0:
64,192,25701,1,2,0:0:0:0:
320,192,25869,1,0,0:0:0:0:
192,192,26036,1,0,0:0:0:0:
64,192,26204,1,2,0:0:0:0:
320,192,26371,1,0,0:0:0:0:
64,192,26539,1,2,0:0:0:0:
448,192,26707,1,0,0:0:0:0:
64,192,26874,1,2,0:0:0:0:
320,192,27209,1,0,0:0:0:0:
64,192,27377,1,2,0:0:0:0:
320,192,27545,1,0,0:0:0:0:
192,192,27712,1,0,0:0:0:0:
64,192,27880,1,2,0:0:0:0:
448,192,28047,1,0,0:0:0:0:
64,192,28215,1,2,0:0:0:0:
320,192,28383,1,0,0:0:0:0:
192,192,28550,1,2,0:0:0:0:
64,192,28885,1,0,0:0:0:0:
192,192,29053,1,2,0:0:0:0:
64,192,29221,1,0,0:0:0:0:
448,192,29388,1,0,0:0:0:0:
192,192,29556,1,2,0:0:0:0:
320,192,29723,1,0,0:0:0:0:
192,192,29891,1,2,0:0:0:0:
320,192,30059,1,0,0:0:0:0:
448,192,30226,1,2,0:0:0:0:
320,192,30561,1,0,0:0:0:0:
448,192,30729,1,2,0:0:0:0:
320,192,30897,1,0,0:0:0:0:
192,192,31064,1,0,0:0:0:0:
448,192,31232,1,2,0:0:0:0:
64,192,31399,1,0,0:0:0:0:
448,192,31567,1,2,0:0:0:0:
448,192,31735,1,0,0:0:0:0:
64,192,31902,1,2,0:0:0:0:
320,192,32237,1,0,0:0:0:0:
64,192,32405,1,2,0:0:0:0:
320,192,32572,1,0,0:0:0:0:
192,192,32740,1,0,0:0:0:0:
64,192,32908,1,2,0:0:0:0:
320,192,33075,1,0,0:0:0:0:
64,192,33243,1,2,0:0:0:0:
448,192,33410,1,0,0:0:0:0:
64,192,33578,1,2,0:0:0:0:
320,192,33913,1,0,0:0:0:0:
64,192,34081,1,2,0:0:0:0:
320,192,34248,1,0,0:0:0:0:
192,192,34416,1,0,0:0:0:0:
64,192,34584,1,2,0:0:0:0:
448,192,34751,1,0,0:0:0:0:
64,192,34919,1,2,0:0:0:0:
320,192,35086,1,0,0:0:0:0:
192,192,35254,1,2,0:0:0:0:
64,192,35589,1,0,0:0:0:0:
192,192,35757,1,2,0:0:0:0:
320,192,35924,1,0,0:0:0:0:
448,192,36092,1,0,0:0:0:0:
192,192,36260,1,2,0:0:0:0:
320,192,36427,1,0,0:0:0:0:
192,192,36595,1,2,0:0:0:0:
320,192,36762,1,0,0:0:0:0:
448,192,36930,1,2,0:0:0:0:
320,192,37265,1,0,0:0:0:0:
448,192,37433,1,2,0:0:0:0:
320,192,37600,1,0,0:0:0:0:
192,192,37768,1,0,0:0:0:0:
448,192,37936,1,2,0:0:0:0:
64,192,38103,1,0,0:0:0:0:
448,192,38271,1,2,0:0:0:0:
448,192,38438,1,0,0:0:0:0:
64,192,38606,1,2,0:0:0:0:
320,192,38941,1,0,0:0:0:0:
64,192,39109,1,2,0:0:0:0:
320,192,39276,1,0,0:0:0:0:
192,192,39444,1,0,0:0:0:0:
64,192,39612,1,2,0:0:0:0:
320,192,39779,1,0,0:0:0:0:
64,192,39947,1,2,0:0:0:0:
448,192,40114,1,0,0:0:0:0:
64,192,40282,1,2,0:0:0:0:
320,192,40617,1,0,0:0:0:0:
64,192,40785,1,2,0:0:0:0:
320,192,40952,1,0,0:0:0:0:
192,192,41120,1,0,0:0:0:0:
64,192,41288,1,2,0:0:0:0:
448,192,41455,1,0,0:0:0:0:
64,192,41623,1,2,0:0:0:0:
320,192,41790,1,0,0:0:0:0:
64,192,41958,1,2,0:0:0:0:
192,192,41958,1,4,0:0:0:0:
320,192,42126,1,0,0:0:0:0:
448,192,42293,1,0,0:0:0:0:
192,192,42461,1,2,0:0:0:0:
448,192,42796,1,0,0:0:0:0:
192,192,42964,1,2,0:0:0:0:
320,192,43131,1,0,0:0:0:0:
192,192,43299,1,2,0:0:0:0:
320,192,43466,1,0,0:0:0:0:
448,192,43634,1,2,0:0:0:0:
64,192,43802,1,0,0:0:0:0:
320,192,43969,1,0,0:0:0:0:
448,192,44137,1,2,0:0:0:0:
320,192,44472,1,0,0:0:0:0:
448,192,44640,1,2,0:0:0:0:
192,192,44807,1,0,0:0:0:0:
448,192,44975,1,2,0:0:0:0:
192,192,45142,1,0,0:0:0:0:
64,192,45310,1,2,0:0:0:0:
192,192,45478,1,0,0:0:0:0:
448,192,45645,1,0,0:0:0:0:
64,192,45813,1,2,0:0:0:0:
448,192,46148,1,0,0:0:0:0:
64,192,46316,1,2,0:0:0:0:
320,192,46483,1,0,0:0:0:0:
64,192,46651,1,2,0:0:0:0:
320,192,46818,1,0,0:0:0:0:
64,192,46986,1,2,0:0:0:0:
192,192,47153,1,0,0:0:0:0:
448,192,47321,1,0,0:0:0:0:
64,192,47489,1,2,0:0:0:0:
448,192,47824,1,0,0:0:0:0:
64,192,47991,1,2,0:0:0:0:
320,192,48159,1,0,0:0:0:0:
64,192,48327,1,2,0:0:0:0:
320,192,48494,1,0,0:0:0:0:
192,192,48662,1,2,0:0:0:0:
320,192,48829,1,0,0:0:0:0:
448,192,48997,1,0,0:0:0:0:
192,192,49165,1,2,0:0:0:0:
448,192,49500,1,0,0:0:0:0:
192,192,49667,1,2,0:0:0:0:
320,192,49835,1,0,0:0:0:0:
192,192,50003,1,2,0:0:0:0:
320,192,50170,1,0,0:0:0:0:
448,192,50338,1,2,0:0:0:0:
64,192,50505,1,0,0:0:0:0:
320,192,50673,1,0,0:0:0:0:
448,192,50841,1,2,0:0:0:0:
320,192,51176,1,0,0:0:0:0:
448,192,51343,1,2,0:0:0:0:
192,192,51511,1,0,0:0:0:0:
448,192,51679,1,2,0:0:0:0:
192,192,51846,1,0,0:0:0:0:
64,192,52014,1,2,0:0:0:0:
192,192,52181,1,0,0:0:0:0:
448,192,52349,1,0,0:0:0:0:
64,192,52517,1,2,0:0:0:0:
448,192,52852,1,0,0:0:0:0:
64,192,53019,1,2,0:0:0:0:
320,192,53187,1,0,0:0:0:0:
64,192,53355,1,2,0:0:0:0:
320,192,53522,1,0,0:0:0:0:
64,192,53690,1,2,0:0:0:0:
192,192,53857,1,0,0:0:0:0:
448,192,54025,1,0,0:0:0:0:
64,192,54193,1,2,0:0:0:0:
448,192,54528,1,0,0:0:0:0:
64,192,54695,1,2,0:0:0:0:
448,192,54863,1,0,0:0:0:0:
64,192,55031,1,2,0:0:0:0:
448,192,55198,1,0,0:0:0:0:
192,192,55366,1,2,0:0:0:0:
320,192,55533,1,0,0:0:0:0:
448,192,55701,1,0,0:0:0:0:
192,192,55869,1,2,0:0:0:0:
448,192,56204,1,0,0:0:0:0:
192,192,56371,1,2,0:0:0:0:
320,192,56539,1,0,0:0:0:0:
192,192,56707,1,2,0:0:0:0:
320,192,56874,1,0,0:0:0:0:
448,192,57042,1,2,0:0:0:0:
64,192,57209,1,0,0:0:0:0:
320,192,57377,1,0,0:0:0:0:
448,192,57545,1,2,0:0:0:0:
320,192,57880,1,0,0:0:0:0:
448,192,58047,1,2,0:0:0:0:
192,192,58215,1,0,0:0:0:0:
448,192,58383,1,2,0:0:0:0:
192,192,58550,1,0,0:0:0:0:
64,192,58718,1,2,0:0:0:0:
192,192,58885,1,0,0:0:0:0:
448,192,59053,1,0,0:0:0:0:
64,192,59221,1,2,0:0:0:0:
448,192,59556,1,0,0:0:0:0:
64,192,59723,1,2,0:0:0:0:
320,192,59891,1,0,0:0:0:0:
64,192,60059,1,2,0:0:0:0:
320,192,60226,1,0,0:0:0:0:
64,192,60394,1,2,0:0:0:0:
192,192,60561,1,0,0:0:0:0:
448,192,60729,1,0,0:0:0:0:
64,192,60897,1,2,0:0:0:0:
448,192,61232,1,0,0:0:0:0:
64,192,61399,1,2,0:0:0:0:
320,192,61567,1,0,0:0:0:0:
64,192,61735,1,2,0:0:0:0:
320,192,61902,1,0,0:0:0:0:
192,192,62070,1,2,0:0:0:0:
320,192,62237,1,0,0:0:0:0:
448,192,62405,1,0,0:0:0:0:
192,192,62572,1,2,0:0:0:0:
448,192,62908,1,0,0:0:0:0:
192,192,63075,1,2,0:0:0:0:
320,192,63243,1,0,0:0:0:0:
192,192,63410,1,2,0:0:0:0:
320,192,63578,1,0,0:0:0:0:
448,192,63746,1,2,0:0:0:0:
64,192,63913,1,0,0:0:0:0:
320,192,64081,1,0,0:0:0:0:
448,192,64248,1,2,0:0:0:0:
320,192,64584,1,0,0:0:0:0:
448,192,64751,1,2,0:0:0:0:
192,192,64919,1,0,0:0:0:0:
448,192,65086,1,2,0:0:0:0:
192,192,65254,1,0,0:0:0:0:
64,192,65422,1,2,0:0:0:0:
192,192,65589,1,0,0:0:0:0:
448,192,65757,1,0,0:0:0:0:
64,192,65924,1,2,0:0:0:0:
448,192,66260,1,0,0:0:0:0:
64,192,66427,1,2,0:0:0:0:
320,192,66595,1,0,0:0:0:0:
64,192,66762,1,2,0:0:0:0:
320,192,66930,1,0,0:0:0:0:
64,192,67098,1,2,0:0:0:0:
192,192,67265,1,0,0:0:0:0:
448,192,67433,1,0,0:0:0:0:
64,192,67600,1,2,0:0:0:0:
448,192,67936,1,0,0:0:0:0:
64,192,68103,1,2,0:0:0:0:
320,192,68271,1,0,0:0:0:0:
64,192,68438,1,2,0:0:0:0:
320,192,68606,1,0,0:0:0:0:
192,192,68774,1,4,0:0:0:0:
192,192,69109,1,0,0:0:0:0:
448,192,69444,1,0,0:0:0:0:
448,192,69779,1,0,0:0:0:0:
448,192,70114,1,0,0:0:0:0:
320,192,70450,1,0,0:0:0:0:
320,192,70785,1,0,0:0:0:0:
192,192,71120,1,0,0:0:0:0:
192,192,71455,1,0,0:0:0:0:
192,192,71790,1,0,0:0:0:0:
64,192,72126,1,0,0:0:0:0:
64,192,72461,1,0,0:0:0:0:
320,192,72796,1,0,0:0:0:0:
320,192,73131,1,0,0:0:0:0:
320,192,73466,1,0,0:0:0:0:
64,192,73802,1,0,0:0:0:0:
64,192,74137,1,0,0:0:0:0:
320,192,74472,1,0,0:0:0:0:
320,192,74807,1,0,0:0:0:0:
320,192,75142,1,0,0:0:0:0:
192,192,75478,1,0,0:0:0:0:
192,192,75813,1,0,0:0:0:0:
448,192,76148,1,0,0:0:0:0:
448,192,76483,1,0,0:0:0:0:
448,192,76818,1,0,0:0:0:0:
320,192,77153,1,0,0:0:0:0:
320,192,77489,1,0,0:0:0:0:
192,192,77824,1,0,0:0:0:0:
192,192,78159,1,0,0:0:0:0:
192,192,78494,1,0,0:0:0:0:
64,192,78829,1,0,0:0:0:0:
64,192,79165,1,0,0:0:0:0:
320,192,79500,1,0,0:0:0:0:
320,192,79835,1,0,0:0:0:0:
320,192,80170,1,0,0:0:0:0:
64,192,80505,1,0,0:0:0:0:
64,192,80841,1,0,0:0:0:0:
320,192,81176,1,0,0:0:0:0:
320,192,81511,1,0,0:0:0:0:
320,192,81846,1,0,0:0:0:0:
192,192,82181,1,0,0:0:0:0:
192,192,82517,1,0,0:0:0:0:
448,192,82852,1,0,0:0:0:0:
448,192,83187,1,0,0:0:0:0:
448,192,83522,1,0,0:0:0:0:
320,192,83857,1,8,0:0:0:0:
320,192,84193,1,0,0:0:0:0:
192,192,84528,1,0,0:0:0:0:
192,192,84863,1,8,0:0:0:0:
192,192,85198,1,8,0:0:0:0:
64,192,85533,1,8,0:0:0:0:
64,192,85869,1,0,0:0:0:0:
320,192,86204,1,0,0:0:0:0:
320,192,86539,1,8,0:0:0:0:
320,192,86874,1,8,0:0:0:0:
64,192,87209,1,8,0:0:0:0:
64,192,87545,1,0,0:0:0:0:
320,192,87880,1,0,0:0:0:0:
320,192,88215,1,8,0:0:0:0:
320,192,88550,1,8,0:0:0:0:
192,192,88885,1,8,0:0:0:0:
448,192,88885,1,0,0:0:0:0:
192,192,89221,1,0,0:0:0:0:
64,192,89388,1,8,0:0:0:0:
320,192,89388,1,0,0:0:0:0:
192,192,89891,1,8,0:0:0:0:
448,192,89891,1,0,0:0:0:0:
192,192,90226,1,8,0:0:0:0:
448,192,90226,1,0,0:0:0:0:
192,192,90561,1,8,0:0:0:0:
320,192,90561,1,0,0:0:0:0:
320,192,90897,1,0,0:0:0:0:
64,192,91064,1,8,0:0:0:0:
448,192,91064,1,0,0:0:0:0:
192,192,91567,1,8,0:0:0:0:
320,192,91567,1,0,0:0:0:0:
192,192,91902,1,8,0:0:0:0:
320,192,91902,1,0,0:0:0:0:
64,192,92237,1,8,0:0:0:0:
320,192,92237,1,0,0:0:0:0:
64,192,92572,1,0,0:0:0:0:
192,192,92740,1,8,0:0:0:0:
448,192,92740,1,0,0:0:0:0:
64,192,93243,1,8,0:0:0:0:
320,192,93243,1,0,0:0:0:0:
64,192,93578,1,8,0:0:0:0:
320,192,93578,1,0,0:0:0:0:
64,192,93913,1,8,0:0:0:0:
320,192,93913,1,0,0:0:0:0:
64,192,94248,1,0,0:0:0:0:
192,192,94416,1,8,0:0:0:0:
448,192,94416,1,0,0:0:0:0:
64,192,94919,1,8,0:0:0:0:
320,192,94919,1,0,0:0:0:0:
64,192,95254,1,8,0:0:0:0:
320,192,95254,1,0,0:0:0:0:
64,192,95589,1,2,0:0:0:0:
192,192,95589,1,4,0:0:0:0:
448,192,95924,1,0,0:0:0:0:
192,192,96092,1,2,0:0:0:0:
64,192,96260,1,0,0:0:0:0:
320,192,96427,1,0,0:0:0:0:
192,192,96595,1,2,0:0:0:0:
448,192,96762,1,0,0:0:0:0:
192,192,96930,1,2,0:0:0:0:
64,192,97098,1,0,0:0:0:0:
448,192,97265,1,2,0:0:0:0:
192,192,97600,1,0,0:0:0:0:
448,192,97768,1,2,0:0:0:0:
64,192,97936,1,0,0:0:0:0:
192,192,98103,1,0,0:0:0:0:
448,192,98271,1,2,0:0:0:0:
320,192,98438,1,0,0:0:0:0:
448,192,98606,1,2,0:0:0:0:
192,192,98774,1,0,0:0:0:0:
64,192,98941,1,2,0:0:0:0:
448,192,99276,1,0,0:0:0:0:
64,192,99444,1,2,0:0:0:0:
320,192,99612,1,0,0:0:0:0:
192,192,99779,1,0,0:0:0:0:
64,192,99947,1,2,0:0:0:0:
192,192,100114,1,0,0:0:0:0:
64,192,100282,1,2,0:0:0:0:
320,192,100450,1,0,0:0:0:0:
64,192,100617,1,2,0:0:0:0:
448,192,100952,1,0,0:0:0:0:
64,192,101120,1,2,0:0:0:0:
320,192,101288,1,0,0:0:0:0:
192,192,101455,1,0,0:0:0:0:
64,192,101623,1,2,0:0:0:0:
192,192,101790,1,0,0:0:0:0:
64,192,101958,1,2,0:0:0:0:
320,192,102126,1,0,0:0:0:0:
192,192,102293,1,2,0:0:0:0:
448,192,102628,1,0,0:0:0:0:
192,192,102796,1,2,0:0:0:0:
64,192,102964,1,0,0:0:0:0:
320,192,103131,1,0,0:0:0:0:
192,192,103299,1,2,0:0:0:0:
448,192,103466,1,0,0:0:0:0:
192,192,103634,1,2,0:0:0:0:
64,192,103802,1,0,0:0:0:0:
448,192,103969,1,2,0:0:0:0:
192,192,104304,1,0,0:0:0:0:
448,192,104472,1,2,0:0:0:0:
64,192,104640,1,0,0:0:0:0:
192,192,104807,1,0,0:0:0:0:
448,192,104975,1,2,0:0:0:0:
320,192,105142,1,0,0:0:0:0:
448,192,105310,1,2,0:0:0:0:
192,192,105478,1,0,0:0:0:0:
64,192,105645,1,2,0:0:0:0:
448,192,105980,1,0,0:0:0:0:
64,192,106148,1,2,0:0:0:0:
320,192,106316,1,0,0:0:0:0:
192,192,106483,1,0,0:0:0:0:
64,192,106651,1,2,0:0:0:0:
192,192,106818,1,0,0:0:0:0:
64,192,106986,1,2,0:0:0:0:
320,192,107153,1,0,0:0:0:0:
64,192,107321,1,2,0:0:0:0:
448,192,107656,1,0,0:0:0:0:
64,192,107824,1,2,0:0:0:0:
320,192,107991,1,0,0:0:0:0:
192,192,108159,1,0,0:0:0:0:
64,192,108327,1,2,0:0:0:0:
192,192,108494,1,0,0:0:0:0:
64,192,108662,1,2,0:0:0:0:
320,192,108829,1,0,0:0:0:0:
64,192,108997,1,2,0:0:0:0:
192,192,108997,1,4,0:0:0:0:
448,192,109332,1,0,0:0:0:0:
192,192,109500,1,2,0:0:0:0:
64,192,109667,1,0,0:0:0:0:
320,192,109835,1,0,0:0:0:0:
192,192,110003,1,2,0:0:0:0:
448,192,110170,1,0,0:0:0:0:
192,192,110338,1,2,0:0:0:0:
64,192,110505,1,0,0:0:0:0:
448,192,110673,1,2,0:0:0:0:
192,192,111008,1,0,0:0:0:0:
448,192,111176,1,2,0:0:0:0:
64,192,111343,1,0,0:0:0:0:
192,192,111511,1,0,0:0:0:0:
448,192,111679,1,2,0:0:0:0:
320,192,111846,1,0,0:0:0:0:
448,192,112014,1,2,0:0:0:0:
192,192,112181,1,0,0:0:0:0:
64,192,112349,1,2,0:0:0:0:
448,192,112684,1,0,0:0:0:0:
64,192,112852,1,2,0:0:0:0:
320,192,113019,1,0,0:0:0:0:
192,192,113187,1,0,0:0:0:0:
64,192,113355,1,2,0:0:0:0:
192,192,113522,1,0,0:0:0:0:
64,192,113690,1,2,0:0:0:0:
320,192,113857,1,0,0:0:0:0:
64,192,114025,1,2,0:0:0:0:
448,192,114360,1,0,0:0:0:0:
64,192,114528,1,2,0:0:0:0:
320,192,114695,1,0,0:0:0:0:
192,192,114863,1,0,0:0:0:0:
64,192,115031,1,2,0:0:0:0:
192,192,115198,1,0,0:0:0:0:
64,192,115366,1,2,0:0:0:0:
320,192,115533,1,0,0:0:0:0:
192,192,115701,1,2,0:0:0:0:
448,192,116036,1,0,0:0:0:0:
192,192,116204,1,2,0:0:0:0:
64,192,116371,1,0,0:0:0:0:
320,192,116539,1,0,0:0:0:0:
192,192,116707,1,2,0:0:0:0:
448,192,116874,1,0,0:0:0:0:
192,192,117042,1,2,0:0:0:0:
64,192,117209,1,0,0:0:0:0:
448,192,117377,1,2,0:0:0:0:
192,192,117712,1,0,0:0:0:0:
448,192,117880,1,2,0:0:0:0:
64,192,118047,1,0,0:0:0:0:
192,192,118215,1,0,0:0:0:0:
448,192,118383,1,2,0:0:0:0:
320,192,118550,1,0,0:0:0:0:
448,192,118718,1,2,0:0:0:0:
192,192,118885,1,0,0:0:0:0:
64,192,119053,1,2,0:0:0:0:
448,192,119388,1,0,0:0:0:0:
64,192,119556,1,2,0:0:0:0:
320,192,119723,1,0,0:0:0:0:
192,192,119891,1,0,0:0:0:0:
64,192,120059,1,2,0:0:0:0:
192,192,120226,1,0,0:0:0:0:
64,192,120394,1,2,0:0:0:0:
320,192,120561,1,0,0:0:0:0:
64,192,120729,1,2,0:0:0:0:
448,192,121064,1,0,0:0:0:0:
64,192,121232,1,2,0:0:0:0:
320,192,121399,1,0,0:0:0:0:
192,192,121567,1,0,0:0:0:0:
64,192,121735,1,2,0:0:0:0:
192,192,121902,1,0,0:0:0:0:
64,192,122070,1,2,0:0:0:0:
320,192,122237,1,0,0:0:0:0:
64,192,122405,1,2,0:0:0:0:
192,192,122405,1,4,0:0:0:0:
320,192,122572,1,0,0:0:0:0:
448,192,122740,1,0,0:0:0:0:
192,192,122908,1,2,0:0:0:0:
448,192,123243,1,0,0:0:0:0:
192,192,123410,1,2,0:0:0:0:
320,192,123578,1,0,0:0:0:0:
192,192,123746,1,2,0:0:0:0:
320,192,123913,1,0,0:0:0:0:
448,192,124081,1,2,0:0:0:0:
64,192,124248,1,0,0:0:0:0:
320,192,124416,1,0,0:0:0:0:
448,192,124584,1,2,0:0:0:0:
320,192,124919,1,0,0:0:0:0:
448,192,125086,1,2,0:0:0:0:
192,192,125254,1,0,0:0:0:0:
448,192,125422,1,2,0:0:0:0:
192,192,125589,1,0,0:0:0:0:
64,192,125757,1,2,0:0:0:0:
192,192,125924,1,0,0:0:0:0:
448,192,126092,1,0,0:0:0:0:
64,192,126260,1,2,0:0:0:0:
448,192,126595,1,0,0:0:0:0:
64,192,126762,1,2,0:0:0:0:
320,192,126930,1,0,0:0:0:0:
64,192,127098,1,2,0:0:0:0:
320,192,127265,1,0,0:0:0:0:
64,192,127433,1,2,0:0:0:0:
192,192,127600,1,0,0:0:0:0:
448,192,127768,1,0,0:0:0:0:
64,192,127936,1,2,0:0:0:0:
448,192,128271,1,0,0:0:0:0:
64,192,128438,1,2,0:0:0:0:
320,192,128606,1,0,0:0:0:0:
64,192,128774,1,2,0:0:0:0:
320,192,128941,1,0,0:0:0:0:
192,192,129109,1,2,0:0:0:0:
320,192,129276,1,0,0:0:0:0:
448,192,129444,1,0,0:0:0:0:
192,192,129612,1,2,0:0:0:0:
448,192,129947,1,0,0:0:0:0:
192,192,130114,1,2,0:0:0:0:
320,192,130282,1,0,0:0:0:0:
192,192,130450,1,2,0:0:0:0:
320,192,130617,1,0,0:0:0:0:
448,192,130785,1,2,0:0:0:0:
64,192,130952,1,0,0:0:0:0:
320,192,131120,1,0,0:0:0:0:
448,192,131288,1,2,0:0:0:0:
320,192,131623,1,0,0:0:0:0:
448,192,131790,1,2,0:0:0:0:
192,192,131958,1,0,0:0:0:0:
448,192,132126,1,2,0:0:0:0:
192,192,132293,1,0,0:0:0:0:
64,192,132461,1,2,0:0:0:0:
192,192,132628,1,0,0:0:0:0:
448,192,132796,1,0,0:0:0:0:
64,192,132964,1,2,0:0:0:0:
448,192,133299,1,0,0:0:0:0:
64,192,133466,1,2,0:0:0:0:
320,192,133634,1,0,0:0:0:0:
64,192,133802,1,2,0:0:0:0:
320,192,133969,1,0,0:0:0:0:
64,192,134137,1,2,0:0:0:0:
192,192,134304,1,0,0:0:0:0:
448,192,134472,1,0,0:0:0:0:
64,192,134640,1,2,0:0:0:0:
448,192,134975,1,0,0:0:0:0:
64,192,135142,1,2,0:0:0:0:
320,192,135310,1,0,0:0:0:0:
64,192,135478,1,2,0:0:0:0:
320,192,135645,1,0,0:0:0:0:
192,192,135813,1,2,0:0:0:0:
320,192,135980,1,0,0:0:0:0:
448,192,136148,1,0,0:0:0:0:
192,192,136316,1,2,0:0:0:0:
448,192,136651,1,0,0:0:0:0:
192,192,136818,1,2,0:0:0:0:
320,192,136986,1,0,0:0:0:0:
192,192,137153,1,2,0:0:0:0:
320,192,137321,1,0,0:0:0:0:
448,192,137489,1,2,0:0:0:0:
64,192,137656,1,0,0:0:0:0:
320,192,137824,1,0,0:0:0:0:
448,192,137991,1,2,0:0:0:0:
320,192,138327,1,0,0:0:0:0:
448,192,138494,1,2,0:0:0:0:
192,192,138662,1,0,0:0:0:0:
448,192,138829,1,2,0:0:0:0:
192,192,138997,1,0,0:0:0:0:
64,192,139165,1,2,0:0:0:0:
192,192,139332,1,0,0:0:0:0:
448,192,139500,1,0,0:0:0:0:
64,192,139667,1,2,0:0:0:0:
448,192,140003,1,0,0:0:0:0:
64,192,140170,1,2,0:0:0:0:
320,192,140338,1,0,0:0:0:0:
64,192,140505,1,2,0:0:0:0:
320,192,140673,1,0,0:0:0:0:
64,192,140841,1,2,0:0:0:0:
192,192,141008,1,0,0:0:0:0:
448,192,141176,1,0,0:0:0:0:
64,192,141343,1,2,0:0:0:0:
448,192,141679,1,0,0:0:0:0:
64,192,141846,1,2,0:0:0:0:
320,192,142014,1,0,0:0:0:0:
64,192,142181,1,2,0:0:0:0:
320,192,142349,1,0,0:0:0:0:
192,192,142517,1,2,0:0:0:0:
320,192,142684,1,0,0:0:0:0:
448,192,142852,1,0,0:0:0:0:
192,192,143019,1,2,0:0:0:0:
448,192,143355,1,0,0:0:0:0:
192,192,143522,1,2,0:0:0:0:
320,192,143690,1,0,0:0:0:0:
192,192,143857,1,2,0:0:0:0:
320,192,144025,1,0,0:0:0:0:
448,192,144193,1,2,0:0:0:0:
64,192,144360,1,0,0:0:0:0:
320,192,144528,1,0,0:0:0:0:
448,192,144695,1,2,0:0:0:0:
320,192,145031,1,0,0:0:0:0:
448,192,145198,1,2,0:0:0:0:
192,192,145366,1,0,0:0:0:0:
448,192,145533,1,2,0:0:0:0:
192,192,145701,1,0,0:0:0:0:
64,192,145869,1,2,0:0:0:0:
192,192,146036,1,0,0:0:0:0:
448,192,146204,1,0,0:0:0:0:
64,192,146371,1,2,0:0:0:0:
448,192,146707,1,0,0:0:0:0:
64,192,146874,1,2,0:0:0:0:
320,192,147042,1,0,0:0:0:0:
64,192,147209,1,2,0:0:0:0:
320,192,147377,1,0,0:0:0:0:
64,192,147545,1,2,0:0:0:0:
192,192,147712,1,0,0:0:0:0:
448,192,147880,1,0,0:0:0:0:
64,192,148047,1,2,0:0:0:0:
448,192,148383,1,0,0:0:0:0:
64,192,148550,1,2,0:0:0:0:
320,192,148718,1,0,0:0:0:0:
64,192,148885,1,2,0:0:0:0:
320,192,149053,1,0,0:0:0:0:
192,192,149221,1,4,0:0:0:0:
