osu file format v14

[General]
AudioFilename: 1.mp3
AudioLeadIn: 0
PreviewTime: 41593
Countdown: 0
SampleSet: Soft
StackLeniency: 0.7
Mode: 3
LetterboxInBreaks: 0
SpecialStyle: 0
WidescreenStoryboard: 1

[Editor]
Bookmarks: 43287,70329,97367,110889
DistanceSpacing: 0.8
BeatDivisor: 4
GridSize: 32
TimelineZoom: 1.2

[Metadata]
Title:Reijou Shikku
TitleUnicode:令嬢疾駆
Artist:Arte Refact
ArtistUnicode:Arte Refact
Creator:richardfeder
Version:Hard
Source:月に寄りそう乙女の作法
Tags:COMPLETE SOUNDTRACK Navel アッチョリケ Acchorike アルテ リファクト tsuki ni yorisou otome no sahou Visual Novel Electronic Instrumental Video Game
BeatmapID:832456
BeatmapSetID:379424

[Difficulty]
HPDrainRate:7
CircleSize:7
OverallDifficulty:8
ApproachRate:5
SliderMultiplier:1.4
SliderTickRate:1

[Events]
//Background and Video events
0,0,"BG.jpg",0,0
//Break Periods
2,97571,99340
//Storyboard Layer 0 (Background)
//Storyboard Layer 1 (Fail)
//Storyboard Layer 2 (Pass)
//Storyboard Layer 3 (Foreground)
//Storyboard Layer 4 (Overlay)
//Storyboard Sound Samples

[TimingPoints]
2724,422.535211267606,4,2,0,20,1,0
16245,-100,4,3,0,20,0,0
29766,-100,4,2,0,20,0,0
43287,-100,4,3,0,20,0,1
70329,-100,4,2,0,20,0,0
137935,-100,4,3,0,20,0,1
164977,-100,4,2,0,20,0,0

[HitObjects]
36,192,1984,5,0,0:0:0:0:
182,192,2090,1,0,0:0:0:0:
329,192,2195,1,0,0:0:0:0:
402,192,2301,1,0,0:0:0:0:
109,192,2407,1,0,0:0:0:0:
256,192,2512,1,0,0:0:0:0:
402,192,2618,1,0,0:0:0:0:
475,192,2724,1,0,0:0:0:0:
36,192,2724,1,4,0:0:0:0:
182,192,2724,1,0,0:0:0:0:
329,192,2829,1,0,0:0:0:0:
329,192,3040,1,0,0:0:0:0:
329,192,3252,1,0,0:0:0:0:
182,192,3357,1,0,0:0:0:0:
182,192,3569,1,0,0:0:0:0:
329,192,3674,1,0,0:0:0:0:
329,192,3885,1,0,0:0:0:0:
329,192,4097,1,0,0:0:0:0:
182,192,4202,1,0,0:0:0:0:
182,192,4414,1,0,0:0:0:0:
329,192,4519,1,0,0:0:0:0:
329,192,4731,1,0,0:0:0:0:
329,192,4942,1,0,0:0:0:0:
182,192,5047,1,0,0:0:0:0:
182,192,5259,1,0,0:0:0:0:
329,192,5364,1,0,0:0:0:0:
329,192,5576,1,0,0:0:0:0:
329,192,5787,1,0,0:0:0:0:
475,192,5893,1,0,0:0:0:0:
256,192,6104,1,0,0:0:0:0:
402,192,6209,1,0,0:0:0:0:
402,192,6421,1,0,0:0:0:0:
402,192,6632,1,0,0:0:0:0:
256,192,6738,1,0,0:0:0:0:
256,192,6949,1,0,0:0:0:0:
402,192,7054,1,0,0:0:0:0:
402,192,7266,1,0,0:0:0:0:
402,192,7477,1,0,0:0:0:0:
256,192,7583,1,0,0:0:0:0:
256,192,7794,1,0,0:0:0:0:
402,192,7900,1,0,0:0:0:0:
402,192,8111,1,0,0:0:0:0:
402,192,8322,1,0,0:0:0:0:
256,192,8428,1,0,0:0:0:0:
256,192,8639,1,0,0:0:0:0:
402,192,8745,1,0,0:0:0:0:
402,192,8956,1,0,0:0:0:0:
402,192,9167,1,0,0:0:0:0:
256,192,9273,1,0,0:0:0:0:
36,192,9484,1,0,0:0:0:0:
329,192,9590,1,0,0:0:0:0:
329,192,9801,1,0,0:0:0:0:
329,192,10012,1,0,0:0:0:0:
109,192,10118,1,0,0:0:0:0:
36,192,10329,1,0,0:0:0:0:
329,192,10435,1,0,0:0:0:0:
329,192,10646,1,0,0:0:0:0:
329,192,10857,1,0,0:0:0:0:
109,192,10963,1,0,0:0:0:0:
36,192,11174,1,0,0:0:0:0:
329,192,11280,1,0,0:0:0:0:
329,192,11491,1,0,0:0:0:0:
329,192,11702,1,0,0:0:0:0:
109,192,11808,1,0,0:0:0:0:
36,192,12019,1,0,0:0:0:0:
329,192,12125,1,0,0:0:0:0:
329,192,12336,1,0,0:0:0:0:
329,192,12547,1,0,0:0:0:0:
109,192,12653,1,0,0:0:0:0:
182,192,12864,1,0,0:0:0:0:
256,192,12970,1,0,0:0:0:0:
256,192,13181,1,0,0:0:0:0:
256,192,13393,1,0,0:0:0:0:
329,192,13498,1,0,0:0:0:0:
182,192,13709,1,0,0:0:0:0:
256,192,13815,1,0,0:0:0:0:
256,192,14026,1,0,0:0:0:0:
256,192,14238,1,0,0:0:0:0:
329,192,14343,1,0,0:0:0:0:
36,192,14554,1,0,0:0:0:0:
182,192,14660,1,0,0:0:0:0:
182,192,14871,1,0,0:0:0:0:
182,192,15083,1,0,0:0:0:0:
329,192,15188,1,0,0:0:0:0:
109,192,15400,1,0,0:0:0:0:
256,192,15505,1,0,0:0:0:0:
256,192,15716,1,0,0:0:0:0:
256,192,15928,1,0,0:0:0:0:
402,192,16033,1,0,0:0:0:0:
36,192,16245,1,4,0:0:0:70:kick.wav
182,192,16245,1,0,0:0:0:0:
329,192,16350,1,0,0:0:0:0:
256,192,16562,1,0,0:0:0:0:
36,192,16667,1,0,0:0:0:0:
475,192,16667,1,4,0:0:0:0:
329,192,16773,1,0,0:0:0:0:
182,192,16878,1,0,0:0:0:0:
36,192,17090,1,4,0:0:0:70:kick.wav
256,192,17195,1,0,0:0:0:0:
329,192,17407,1,0,0:0:0:0:
36,192,17512,1,0,0:0:0:0:
475,192,17512,1,4,0:0:0:0:
329,192,17618,1,0,0:0:0:0:
182,192,17724,1,0,0:0:0:0:
36,192,17935,1,4,0:0:0:70:kick.wav
256,192,18040,1,0,0:0:0:0:
329,192,18252,1,0,0:0:0:0:
36,192,18357,1,0,0:0:0:0:
475,192,18357,1,4,0:0:0:0:
329,192,18463,1,0,0:0:0:0:
182,192,18569,1,0,0:0:0:0:
36,192,18780,1,4,0:0:0:70:kick.wav
256,192,18885,1,0,0:0:0:0:
329,192,19097,1,0,0:0:0:0:
36,192,19202,1,0,0:0:0:0:
475,192,19202,1,4,0:0:0:0:
329,192,19308,1,0,0:0:0:0:
475,192,19414,1,0,0:0:0:0:
36,192,19625,1,4,0:0:0:70:kick.wav
402,192,19731,1,0,0:0:0:0:
402,192,19942,1,0,0:0:0:0:
36,192,20047,1,0,0:0:0:0:
182,192,20047,1,4,0:0:0:0:
402,192,20153,1,0,0:0:0:0:
256,192,20259,1,0,0:0:0:0:
36,192,20470,1,4,0:0:0:70:kick.wav
402,192,20576,1,0,0:0:0:0:
402,192,20787,1,0,0:0:0:0:
36,192,20893,1,0,0:0:0:0:
182,192,20893,1,4,0:0:0:0:
402,192,20998,1,0,0:0:0:0:
256,192,21104,1,0,0:0:0:0:
36,192,21315,1,4,0:0:0:70:kick.wav
475,192,21421,1,0,0:0:0:0:
475,192,21632,1,0,0:0:0:0:
36,192,21738,1,0,0:0:0:0:
182,192,21738,1,4,0:0:0:0:
329,192,21843,1,0,0:0:0:0:
475,192,21949,1,0,0:0:0:0:
36,192,22160,1,4,0:0:0:70:kick.wav
329,192,22266,1,0,0:0:0:0:
329,192,22477,1,0,0:0:0:0:
36,192,22583,1,0,0:0:0:0:
182,192,22583,1,4,0:0:0:0:
329,192,22688,1,0,0:0:0:0:
402,192,22794,1,0,0:0:0:0:
475,192,23005,1,4,0:0:0:70:kick.wav
329,192,23111,1,0,0:0:0:0:
329,192,23322,1,0,0:0:0:0:
475,192,23428,1,0,0:0:0:0:
36,192,23428,1,4,0:0:0:0:
256,192,23533,1,0,0:0:0:0:
109,192,23639,1,0,0:0:0:0:
475,192,23850,1,4,0:0:0:70:kick.wav
329,192,23956,1,0,0:0:0:0:
329,192,24167,1,0,0:0:0:0:
475,192,24273,1,0,0:0:0:0:
36,192,24273,1,4,0:0:0:0:
256,192,24378,1,0,0:0:0:0:
109,192,24484,1,0,0:0:0:0:
475,192,24695,1,4,0:0:0:70:kick.wav
329,192,24801,1,0,0:0:0:0:
329,192,25012,1,0,0:0:0:0:
475,192,25118,1,0,0:0:0:0:
36,192,25118,1,4,0:0:0:0:
256,192,25224,1,0,0:0:0:0:
109,192,25329,1,0,0:0:0:0:
475,192,25540,1,4,0:0:0:70:kick.wav
182,192,25646,1,0,0:0:0:0:
182,192,25857,1,0,0:0:0:0:
475,192,25963,1,0,0:0:0:0:
36,192,25963,1,4,0:0:0:0:
182,192,26069,1,0,0:0:0:0:
329,192,26174,1,0,0:0:0:0:
475,192,26385,1,4,0:0:0:70:kick.wav
109,192,26385,1,0,0:0:0:0:
109,192,26702,1,0,0:0:0:0:
475,192,26808,1,0,0:0:0:0:
329,192,26808,1,4,0:0:0:0:
109,192,26914,1,0,0:0:0:0:
256,192,27019,1,0,0:0:0:0:
475,192,27231,1,4,0:0:0:70:kick.wav
109,192,27336,1,0,0:0:0:0:
109,192,27547,1,0,0:0:0:0:
475,192,27653,1,0,0:0:0:0:
329,192,27653,1,4,0:0:0:0:
109,192,27759,1,0,0:0:0:0:
256,192,27864,1,0,0:0:0:0:
475,192,28076,1,4,0:0:0:70:kick.wav
182,192,28076,1,0,0:0:0:0:
182,192,28393,1,0,0:0:0:0:
182,192,28604,1,0,0:0:0:0:
329,192,28709,1,0,0:0:0:0:
329,192,28921,1,0,0:0:0:0:
475,192,28921,1,4,0:0:0:70:kick.wav
36,192,29026,1,0,0:0:0:0:
182,192,29026,1,4,0:0:0:70:kick.wav
329,192,29132,1,0,0:0:0:0:
475,192,29132,1,4,0:0:0:70:kick.wav
36,192,29238,1,0,0:0:0:0:
182,192,29238,1,4,0:0:0:70:kick.wav
475,192,29766,1,0,0:0:0:70:kick.wav
36,192,29766,1,4,0:0:0:0:
182,192,29766,128,0,30188:0:0:0:0:
36,192,30188,1,0,0:0:0:70:kick.wav
329,192,30188,1,0,0:0:0:0:
182,192,30294,1,0,0:0:0:0:
402,192,30400,1,0,0:0:0:0:
256,192,30505,1,0,0:0:0:0:
36,192,30611,1,0,0:0:0:70:kick.wav
475,192,30611,1,0,0:0:0:0:
329,192,30716,1,0,0:0:0:0:
329,192,30928,1,0,0:0:0:0:
182,192,31033,1,0,0:0:0:70:kick.wav
36,192,31033,1,0,0:0:0:0:
475,192,31245,128,0,31456:0:0:0:0:
36,192,31456,1,0,0:0:0:70:kick.wav
182,192,31456,128,0,31878:0:0:0:0:
36,192,31878,1,0,0:0:0:70:kick.wav
329,192,31878,1,0,0:0:0:0:
182,192,31984,1,0,0:0:0:0:
402,192,32090,1,0,0:0:0:0:
256,192,32195,1,0,0:0:0:0:
36,192,32301,1,0,0:0:0:70:kick.wav
475,192,32301,1,0,0:0:0:0:
329,192,32407,1,0,0:0:0:0:
329,192,32618,1,0,0:0:0:0:
182,192,32724,1,0,0:0:0:70:kick.wav
36,192,32724,1,0,0:0:0:0:
329,192,32829,1,0,0:0:0:0:
475,192,32935,1,0,0:0:0:0:
36,192,33146,1,0,0:0:0:70:kick.wav
182,192,33146,128,0,33569:0:0:0:0:
36,192,33569,1,0,0:0:0:70:kick.wav
329,192,33569,1,0,0:0:0:0:
182,192,33674,1,0,0:0:0:0:
402,192,33780,1,0,0:0:0:0:
256,192,33885,1,0,0:0:0:0:
475,192,33991,1,0,0:0:0:70:kick.wav
36,192,33991,1,0,0:0:0:0:
329,192,34097,1,0,0:0:0:0:
329,192,34308,1,0,0:0:0:0:
182,192,34414,1,0,0:0:0:70:kick.wav
36,192,34414,1,0,0:0:0:0:
475,192,34625,128,0,34836:0:0:0:0:
36,192,34836,1,0,0:0:0:70:kick.wav
182,192,34942,1,0,0:0:0:0:
329,192,35047,1,0,0:0:0:0:
182,192,35153,1,0,0:0:0:0:
36,192,35259,1,0,0:0:0:70:kick.wav
475,192,35259,1,0,0:0:0:0:
329,192,35364,1,0,0:0:0:0:
182,192,35576,1,0,0:0:0:0:
36,192,35681,1,0,0:0:0:70:kick.wav
402,192,35822,1,0,0:0:0:0:
256,192,35963,1,0,0:0:0:0:
36,192,36104,1,0,0:0:0:70:kick.wav
182,192,36209,1,0,0:0:0:0:
475,192,36315,1,0,0:0:0:0:
329,192,36421,1,0,0:0:0:0:
36,192,36526,1,0,0:0:0:70:kick.wav
182,192,36526,128,0,36949:0:0:0:0:
36,192,36949,1,0,0:0:0:70:kick.wav
329,192,36949,1,0,0:0:0:0:
182,192,37054,1,0,0:0:0:0:
402,192,37160,1,0,0:0:0:0:
256,192,37266,1,0,0:0:0:0:
475,192,37371,1,0,0:0:0:70:kick.wav
36,192,37371,1,0,0:0:0:0:
329,192,37477,1,0,0:0:0:0:
329,192,37688,1,0,0:0:0:0:
182,192,37794,1,0,0:0:0:70:kick.wav
36,192,37794,1,0,0:0:0:0:
329,192,38005,1,0,0:0:0:0:
36,192,38216,1,0,0:0:0:70:kick.wav
182,192,38216,128,0,38639:0:0:0:0:
36,192,38639,1,0,0:0:0:70:kick.wav
329,192,38639,1,0,0:0:0:0:
182,192,38745,1,0,0:0:0:0:
402,192,38850,1,0,0:0:0:0:
256,192,38956,1,0,0:0:0:0:
475,192,39062,1,0,0:0:0:70:kick.wav
36,192,39062,1,0,0:0:0:0:
329,192,39167,1,0,0:0:0:0:
329,192,39378,1,0,0:0:0:0:
182,192,39484,1,0,0:0:0:70:kick.wav
36,192,39484,1,0,0:0:0:0:
329,192,39590,1,0,0:0:0:0:
475,192,39695,1,0,0:0:0:0:
36,192,39907,1,0,0:0:0:70:kick.wav
182,192,39907,128,0,40329:0:0:0:0:
36,192,40329,1,0,0:0:0:70:kick.wav
329,192,40329,1,0,0:0:0:0:
182,192,40435,1,0,0:0:0:0:
402,192,40540,1,0,0:0:0:0:
256,192,40646,1,0,0:0:0:0:
475,192,40752,1,0,0:0:0:70:kick.wav
36,192,40752,1,0,0:0:0:0:
329,192,40857,1,0,0:0:0:0:
329,192,41069,1,0,0:0:0:0:
182,192,41174,1,0,0:0:0:70:kick.wav
36,192,41174,1,0,0:0:0:0:
475,192,41385,128,0,41597:0:0:0:0:
36,192,41597,1,0,0:0:0:70:kick.wav
182,192,41597,128,0,42019:0:0:0:0:
182,192,42125,1,0,0:0:0:0:
256,192,42231,1,0,0:0:0:0:
329,192,42336,1,0,0:0:0:0:
402,192,42442,1,0,0:0:0:70:kick.wav
36,192,42442,1,0,0:0:0:0:
182,192,42442,1,0,0:0:0:0:
109,192,42759,1,0,0:0:0:70:kick.wav
329,192,42759,1,0,0:0:0:0:
475,192,42759,1,0,0:0:0:0:
36,192,43076,1,0,0:0:0:70:kick.wav
182,192,43076,1,0,0:0:0:0:
475,192,43076,1,0,0:0:0:0:
402,192,43287,1,4,2:0:0:0:
36,192,43287,1,4,0:0:0:70:kick.wav
182,192,43287,1,0,3:0:0:0:
256,192,43393,1,0,0:0:0:0:
475,192,43393,1,0,0:0:0:0:
329,192,43604,1,0,0:0:0:0:
109,192,43604,1,0,0:0:0:0:
36,192,43709,1,4,0:0:0:0:
182,192,43815,1,0,0:0:0:0:
402,192,43815,1,0,0:0:0:0:
256,192,43921,1,0,0:0:0:0:
475,192,43921,1,0,0:0:0:0:
36,192,44132,1,4,0:0:0:70:kick.wav
402,192,44238,1,0,0:0:0:0:
182,192,44238,1,0,0:0:0:0:
329,192,44449,1,0,0:0:0:0:
109,192,44449,1,0,0:0:0:0:
36,192,44554,1,4,0:0:0:0:
182,192,44660,1,0,0:0:0:0:
402,192,44660,1,0,0:0:0:0:
256,192,44766,1,0,0:0:0:0:
475,192,44766,1,0,0:0:0:0:
36,192,44977,1,4,0:0:0:70:kick.wav
182,192,45083,1,0,0:0:0:0:
329,192,45083,1,0,0:0:0:0:
182,192,45294,1,0,0:0:0:0:
329,192,45294,1,0,0:0:0:0:
36,192,45400,1,4,0:0:0:0:
402,192,45505,1,0,0:0:0:0:
256,192,45505,1,0,0:0:0:0:
329,192,45611,1,0,0:0:0:0:
475,192,45611,1,0,0:0:0:0:
36,192,45822,1,4,0:0:0:70:kick.wav
182,192,45928,1,0,0:0:0:0:
329,192,45928,1,0,0:0:0:0:
182,192,46139,1,0,0:0:0:0:
329,192,46139,1,0,0:0:0:0:
36,192,46245,1,4,0:0:0:0:
402,192,46350,1,0,0:0:0:0:
256,192,46350,1,0,0:0:0:0:
329,192,46456,1,0,0:0:0:0:
475,192,46456,1,0,0:0:0:0:
182,192,46667,1,4,0:0:0:70:kick.wav
402,192,46773,1,0,0:0:0:0:
256,192,46773,1,0,0:0:0:0:
402,192,46984,1,0,0:0:0:0:
256,192,46984,1,0,0:0:0:0:
109,192,47090,1,4,0:0:0:0:
475,192,47195,1,0,0:0:0:0:
256,192,47195,1,0,0:0:0:0:
36,192,47301,1,0,0:0:0:0:
182,192,47301,1,0,0:0:0:0:
182,192,47512,1,4,0:0:0:70:kick.wav
402,192,47618,1,0,0:0:0:0:
256,192,47618,1,0,0:0:0:0:
402,192,47829,1,0,0:0:0:0:
256,192,47829,1,0,0:0:0:0:
109,192,47935,1,4,0:0:0:0:
256,192,48040,1,0,0:0:0:0:
475,192,48040,1,0,0:0:0:0:
36,192,48146,1,0,0:0:0:0:
182,192,48146,1,0,0:0:0:0:
329,192,48357,1,4,0:0:0:70:kick.wav
475,192,48463,1,0,0:0:0:0:
256,192,48463,1,0,0:0:0:0:
475,192,48674,1,0,0:0:0:0:
256,192,48674,1,0,0:0:0:0:
329,192,48780,1,4,0:0:0:0:
109,192,48885,1,0,0:0:0:0:
402,192,48885,1,0,0:0:0:0:
182,192,48991,1,0,0:0:0:0:
475,192,48991,1,0,0:0:0:0:
329,192,49202,1,4,0:0:0:70:kick.wav
475,192,49308,1,0,0:0:0:0:
256,192,49308,1,0,0:0:0:0:
475,192,49519,1,0,0:0:0:0:
256,192,49519,1,0,0:0:0:0:
329,192,49625,1,4,0:0:0:0:
109,192,49731,1,0,0:0:0:0:
402,192,49731,1,0,0:0:0:0:
182,192,49836,1,0,0:0:0:0:
475,192,49836,1,0,0:0:0:0:
36,192,50047,1,4,0:0:0:70:kick.wav
182,192,50153,1,0,0:0:0:0:
402,192,50153,1,0,0:0:0:0:
182,192,50364,1,0,0:0:0:0:
402,192,50364,1,0,0:0:0:0:
36,192,50470,1,4,0:0:0:0:
329,192,50576,1,0,0:0:0:0:
256,192,50576,1,0,0:0:0:0:
182,192,50681,1,0,0:0:0:0:
109,192,50681,1,0,0:0:0:0:
36,192,50893,1,4,0:0:0:70:kick.wav
182,192,50998,1,0,0:0:0:0:
402,192,50998,1,0,0:0:0:0:
182,192,51209,1,0,0:0:0:0:
402,192,51209,1,0,0:0:0:0:
36,192,51315,1,4,0:0:0:0:
329,192,51421,1,0,0:0:0:0:
256,192,51421,1,0,0:0:0:0:
182,192,51526,1,0,0:0:0:0:
109,192,51526,1,0,0:0:0:0:
36,192,51738,1,4,0:0:0:70:kick.wav
109,192,51843,1,0,0:0:0:0:
256,192,51843,1,0,0:0:0:0:
109,192,52054,1,0,0:0:0:0:
256,192,52054,1,0,0:0:0:0:
402,192,52160,1,4,0:0:0:0:
329,192,52266,1,0,0:0:0:0:
109,192,52266,1,0,0:0:0:0:
182,192,52371,1,0,0:0:0:0:
402,192,52371,1,0,0:0:0:0:
182,192,52583,1,4,0:0:0:70:kick.wav
402,192,52688,1,0,0:0:0:0:
256,192,52688,1,0,0:0:0:0:
402,192,52900,1,0,0:0:0:0:
256,192,52900,1,0,0:0:0:0:
182,192,53005,1,4,0:0:0:0:
475,192,53111,1,0,0:0:0:0:
329,192,53111,1,0,0:0:0:0:
256,192,53216,1,0,0:0:0:0:
109,192,53216,1,0,0:0:0:0:
36,192,53428,1,4,0:0:0:70:kick.wav
475,192,53533,1,0,0:0:0:0:
329,192,53533,1,0,0:0:0:0:
475,192,53745,1,0,0:0:0:0:
329,192,53745,1,0,0:0:0:0:
36,192,53850,1,4,0:0:0:0:
402,192,53956,1,0,0:0:0:0:
256,192,53956,1,0,0:0:0:0:
329,192,54062,1,0,0:0:0:0:
182,192,54062,1,0,0:0:0:0:
36,192,54273,1,4,0:0:0:70:kick.wav
329,192,54378,1,0,0:0:0:0:
475,192,54378,1,0,0:0:0:0:
329,192,54590,1,0,0:0:0:0:
475,192,54590,1,0,0:0:0:0:
36,192,54695,1,4,0:0:0:0:
402,192,54801,1,0,0:0:0:0:
256,192,54801,1,0,0:0:0:0:
182,192,54907,1,0,0:0:0:0:
329,192,54907,1,0,0:0:0:0:
256,192,55118,1,4,0:0:0:70:kick.wav
329,192,55224,1,0,0:0:0:0:
475,192,55224,1,0,0:0:0:0:
329,192,55435,1,0,0:0:0:0:
475,192,55435,1,0,0:0:0:0:
256,192,55540,1,4,0:0:0:0:
402,192,55646,1,0,0:0:0:0:
182,192,55646,1,0,0:0:0:0:
329,192,55752,1,0,0:0:0:0:
109,192,55752,1,0,0:0:0:0:
256,192,55963,1,4,0:0:0:70:kick.wav
329,192,56069,1,0,0:0:0:0:
475,192,56069,1,0,0:0:0:0:
329,192,56280,1,0,0:0:0:0:
475,192,56280,1,0,0:0:0:0:
256,192,56385,1,4,0:0:0:0:
36,192,56491,1,0,0:0:0:0:
329,192,56491,1,0,0:0:0:0:
109,192,56597,1,0,0:0:0:0:
402,192,56597,1,0,0:0:0:0:
36,192,56808,1,4,0:0:0:70:kick.wav
256,192,56808,1,0,0:0:0:0:
475,192,56808,1,4,2:0:0:0:
109,192,56914,1,0,0:0:0:0:
329,192,56914,1,0,0:0:0:0:
109,192,57125,1,0,0:0:0:0:
329,192,57125,1,0,0:0:0:0:
402,192,57231,1,4,0:0:0:0:
182,192,57336,1,0,0:0:0:0:
475,192,57336,1,0,0:0:0:0:
36,192,57442,1,0,0:0:0:0:
329,192,57442,1,0,0:0:0:0:
475,192,57653,1,4,0:0:0:70:kick.wav
109,192,57759,1,0,0:0:0:0:
329,192,57759,1,0,0:0:0:0:
109,192,57970,1,0,0:0:0:0:
329,192,57970,1,0,0:0:0:0:
402,192,58076,1,4,0:0:0:0:
182,192,58181,1,0,0:0:0:0:
475,192,58181,1,0,0:0:0:0:
36,192,58287,1,0,0:0:0:0:
329,192,58287,1,0,0:0:0:0:
475,192,58498,1,4,0:0:0:70:kick.wav
329,192,58604,1,0,0:0:0:0:
109,192,58604,1,0,0:0:0:0:
329,192,58815,1,0,0:0:0:0:
109,192,58815,1,0,0:0:0:0:
256,192,58921,1,4,0:0:0:0:
182,192,59026,1,0,0:0:0:0:
402,192,59026,1,0,0:0:0:0:
256,192,59132,1,0,0:0:0:0:
475,192,59132,1,0,0:0:0:0:
475,192,59343,1,4,0:0:0:70:kick.wav
329,192,59449,1,0,0:0:0:0:
109,192,59449,1,0,0:0:0:0:
329,192,59660,1,0,0:0:0:0:
109,192,59660,1,0,0:0:0:0:
256,192,59766,1,4,0:0:0:0:
182,192,59871,1,0,0:0:0:0:
402,192,59871,1,0,0:0:0:0:
256,192,59977,1,0,0:0:0:0:
475,192,59977,1,0,0:0:0:0:
475,192,60188,1,4,0:0:0:70:kick.wav
109,192,60294,1,0,0:0:0:0:
256,192,60294,1,0,0:0:0:0:
109,192,60505,1,0,0:0:0:0:
256,192,60505,1,0,0:0:0:0:
475,192,60611,1,4,0:0:0:0:
182,192,60716,1,0,0:0:0:0:
36,192,60716,1,0,0:0:0:0:
256,192,60822,1,0,0:0:0:0:
109,192,60822,1,0,0:0:0:0:
475,192,61033,1,4,0:0:0:70:kick.wav
109,192,61139,1,0,0:0:0:0:
256,192,61139,1,0,0:0:0:0:
109,192,61350,1,0,0:0:0:0:
256,192,61350,1,0,0:0:0:0:
475,192,61456,1,4,0:0:0:0:
182,192,61562,1,0,0:0:0:0:
36,192,61562,1,0,0:0:0:0:
256,192,61667,1,0,0:0:0:0:
109,192,61667,1,0,0:0:0:0:
475,192,61878,1,4,0:0:0:70:kick.wav
36,192,61984,1,0,0:0:0:0:
182,192,61984,1,0,0:0:0:0:
36,192,62195,1,0,0:0:0:0:
182,192,62195,1,0,0:0:0:0:
329,192,62301,1,4,0:0:0:0:
182,192,62407,1,0,0:0:0:0:
109,192,62407,1,0,0:0:0:0:
329,192,62512,1,0,0:0:0:0:
402,192,62512,1,0,0:0:0:0:
475,192,62724,1,4,0:0:0:70:kick.wav
36,192,62829,1,0,0:0:0:0:
182,192,62829,1,0,0:0:0:0:
36,192,63040,1,0,0:0:0:0:
182,192,63040,1,0,0:0:0:0:
329,192,63146,1,4,0:0:0:0:
182,192,63252,1,0,0:0:0:0:
109,192,63252,1,0,0:0:0:0:
329,192,63357,1,0,0:0:0:0:
402,192,63357,1,0,0:0:0:0:
475,192,63569,1,0,0:0:0:70:kick.wav
402,192,63674,1,0,0:0:0:0:
256,192,63674,1,0,0:0:0:0:
402,192,63885,1,0,0:0:0:0:
256,192,63885,1,0,0:0:0:0:
36,192,63991,1,4,0:0:0:0:
109,192,64097,1,0,0:0:0:0:
329,192,64097,1,0,0:0:0:0:
182,192,64202,1,0,0:0:0:0:
402,192,64202,1,0,0:0:0:0:
475,192,64414,1,4,0:0:0:70:kick.wav
256,192,64519,1,0,0:0:0:0:
109,192,64519,1,0,0:0:0:0:
256,192,64731,1,0,0:0:0:0:
109,192,64731,1,0,0:0:0:0:
36,192,64836,1,4,0:0:0:0:
182,192,64942,1,0,0:0:0:0:
402,192,64942,1,0,0:0:0:0:
109,192,65047,1,0,0:0:0:0:
329,192,65047,1,0,0:0:0:0:
475,192,65259,1,4,0:0:0:70:kick.wav
402,192,65364,1,0,0:0:0:0:
256,192,65364,1,0,0:0:0:0:
402,192,65576,1,0,0:0:0:0:
256,192,65576,1,0,0:0:0:0:
36,192,65681,1,4,0:0:0:0:
329,192,65787,1,0,0:0:0:0:
256,192,65787,1,0,0:0:0:0:
182,192,65893,1,0,0:0:0:0:
109,192,65893,1,0,0:0:0:0:
475,192,66104,1,4,0:0:0:70:kick.wav
402,192,66209,1,0,0:0:0:0:
256,192,66209,1,0,0:0:0:0:
402,192,66421,1,0,0:0:0:0:
256,192,66421,1,0,0:0:0:0:
36,192,66526,1,4,0:0:0:0:
329,192,66632,1,0,0:0:0:0:
256,192,66632,1,0,0:0:0:0:
182,192,66738,1,0,0:0:0:0:
109,192,66738,1,0,0:0:0:0:
475,192,66949,1,4,0:0:0:70:kick.wav
256,192,67054,1,0,0:0:0:0:
109,192,67054,1,0,0:0:0:0:
256,192,67266,1,0,0:0:0:0:
109,192,67266,1,0,0:0:0:0:
329,192,67371,1,4,0:0:0:0:
182,192,67477,1,0,0:0:0:0:
475,192,67477,1,0,0:0:0:0:
36,192,67583,1,0,0:0:0:0:
329,192,67583,1,0,0:0:0:0:
475,192,67794,1,4,0:0:0:70:kick.wav
256,192,67900,1,0,0:0:0:0:
109,192,67900,1,0,0:0:0:0:
256,192,68111,1,0,0:0:0:0:
109,192,68111,1,0,0:0:0:0:
329,192,68216,1,4,0:0:0:0:
182,192,68322,1,0,0:0:0:0:
475,192,68322,1,0,0:0:0:0:
36,192,68428,1,0,0:0:0:0:
329,192,68428,1,0,0:0:0:0:
475,192,68639,1,4,0:0:0:70:kick.wav
182,192,68745,1,0,0:0:0:0:
329,192,68745,1,0,0:0:0:0:
182,192,68956,1,0,0:0:0:0:
329,192,68956,1,0,0:0:0:0:
109,192,69062,1,4,0:0:0:0:
36,192,69167,1,0,0:0:0:0:
256,192,69167,1,0,0:0:0:0:
182,192,69273,1,0,0:0:0:0:
402,192,69273,1,0,0:0:0:0:
475,192,69484,1,4,0:0:0:70:kick.wav
182,192,69590,1,0,0:0:0:0:
329,192,69590,1,0,0:0:0:0:
182,192,69801,1,0,0:0:0:0:
329,192,69801,1,0,0:0:0:0:
109,192,69907,1,4,0:0:0:0:
36,192,70012,1,0,0:0:0:0:
256,192,70012,1,0,0:0:0:0:
182,192,70118,1,0,0:0:0:0:
402,192,70118,1,0,0:0:0:0:
36,192,70329,1,0,0:0:0:70:kick.wav
475,192,70329,1,0,0:0:0:0:
256,192,70329,1,0,0:0:0:0:
182,192,70435,1,0,0:0:0:0:
182,192,70646,1,0,0:0:0:0:
182,192,70857,1,0,0:0:0:0:
109,192,70963,1,2,0:0:0:0:
36,192,71174,1,0,0:0:0:0:
182,192,71280,1,0,0:0:0:0:
182,192,71491,1,0,0:0:0:0:
182,192,71702,1,0,0:0:0:0:
109,192,71808,1,2,0:0:0:0:
36,192,72019,1,0,0:0:0:0:
182,192,72125,1,0,0:0:0:0:
182,192,72336,1,0,0:0:0:0:
182,192,72547,1,0,0:0:0:0:
109,192,72653,1,2,0:0:0:0:
36,192,72864,1,0,0:0:0:0:
182,192,72970,1,0,0:0:0:0:
182,192,73181,1,0,0:0:0:0:
182,192,73393,1,0,0:0:0:0:
256,192,73498,1,2,0:0:0:0:
475,192,73709,1,0,0:0:0:0:
329,192,73815,1,0,0:0:0:0:
329,192,74026,1,0,0:0:0:0:
329,192,74238,1,0,0:0:0:0:
402,192,74343,1,2,0:0:0:0:
475,192,74554,1,0,0:0:0:0:
329,192,74660,1,0,0:0:0:0:
329,192,74871,1,0,0:0:0:0:
329,192,75083,1,0,0:0:0:0:
402,192,75188,1,2,0:0:0:0:
475,192,75400,1,0,0:0:0:0:
329,192,75505,1,0,0:0:0:0:
329,192,75716,1,0,0:0:0:0:
329,192,75928,1,0,0:0:0:0:
402,192,76033,1,2,0:0:0:0:
475,192,76245,1,0,0:0:0:0:
329,192,76350,1,0,0:0:0:0:
329,192,76562,1,0,0:0:0:0:
329,192,76773,1,0,0:0:0:0:
402,192,76878,1,2,0:0:0:0:
109,192,77090,1,0,0:0:0:0:
256,192,77195,1,0,0:0:0:0:
256,192,77407,1,0,0:0:0:0:
256,192,77618,1,0,0:0:0:0:
182,192,77724,1,2,0:0:0:0:
109,192,77935,1,0,0:0:0:0:
256,192,78040,1,0,0:0:0:0:
256,192,78252,1,0,0:0:0:0:
256,192,78463,1,0,0:0:0:0:
182,192,78569,1,2,0:0:0:0:
109,192,78780,1,0,0:0:0:0:
256,192,78885,1,0,0:0:0:0:
256,192,79097,1,0,0:0:0:0:
256,192,79308,1,0,0:0:0:0:
182,192,79414,1,2,0:0:0:0:
109,192,79625,1,0,0:0:0:0:
256,192,79731,1,0,0:0:0:0:
256,192,79942,1,0,0:0:0:0:
256,192,80153,1,0,0:0:0:0:
182,192,80259,1,2,0:0:0:0:
36,192,80470,1,0,0:0:0:0:
182,192,80576,1,0,0:0:0:0:
182,192,80787,1,0,0:0:0:0:
182,192,80998,1,0,0:0:0:0:
329,192,81104,1,2,0:0:0:0:
36,192,81315,1,0,0:0:0:0:
182,192,81421,1,0,0:0:0:0:
182,192,81632,1,0,0:0:0:0:
182,192,81843,1,0,0:0:0:0:
329,192,81949,1,2,0:0:0:0:
109,192,82160,1,0,0:0:0:0:
256,192,82266,1,0,0:0:0:0:
256,192,82477,1,0,0:0:0:0:
256,192,82688,1,0,0:0:0:0:
402,192,82794,1,2,0:0:0:0:
182,192,83005,1,0,0:0:0:0:
329,192,83111,1,0,0:0:0:0:
329,192,83322,1,0,0:0:0:0:
329,192,83533,1,0,0:0:0:0:
475,192,83639,1,2,0:0:0:0:
475,192,83850,1,4,0:0:0:0:
36,192,83850,1,0,0:0:0:0:
182,192,83850,128,0,87231:0:0:0:0:
402,192,84062,1,2,0:0:0:0:
402,192,84484,1,2,0:0:0:0:
402,192,84907,1,2,0:0:0:0:
402,192,85329,1,2,0:0:0:0:
402,192,85752,1,2,0:0:0:0:
402,192,86174,1,2,0:0:0:0:
402,192,86597,1,2,0:0:0:0:
402,192,87019,1,2,0:0:0:0:
256,192,87231,128,0,90611:0:0:0:0:
36,192,87442,1,2,0:0:0:0:
36,192,87864,1,2,0:0:0:0:
36,192,88287,1,2,0:0:0:0:
36,192,88709,1,2,0:0:0:0:
36,192,89132,1,2,0:0:0:0:
36,192,89554,1,2,0:0:0:0:
36,192,89977,1,2,0:0:0:0:
36,192,90400,1,2,0:0:0:0:
402,192,90611,128,0,93991:0:0:0:0:
182,192,90822,1,2,0:0:0:0:
182,192,91245,1,2,0:0:0:0:
182,192,91667,1,2,0:0:0:0:
182,192,92090,1,2,0:0:0:0:
182,192,92512,1,2,0:0:0:0:
182,192,92935,1,2,0:0:0:0:
182,192,93357,1,2,0:0:0:0:
182,192,93780,1,2,0:0:0:0:
256,192,93991,128,0,95681:0:0:0:0:
109,192,94202,1,2,0:0:0:0:
109,192,94625,1,2,0:0:0:0:
109,192,95047,1,2,0:0:0:0:
109,192,95470,1,2,0:0:0:0:
329,192,95681,128,0,96526:0:0:0:0:
109,192,95893,1,2,0:0:0:0:
109,192,96315,1,2,0:0:0:0:
475,192,96526,128,0,97371:0:0:0:0:
109,192,96738,1,2,0:0:0:0:
109,192,97160,1,2,0:0:0:0:
36,192,97371,1,4,0:0:0:0:
329,192,97371,1,0,0:0:0:0:
256,192,100540,132,0,100646:0:0:0:0:
256,192,103709,128,0,110893:0:0:0:0:
329,192,110787,1,0,0:0:0:0:
36,192,110893,1,4,0:0:0:70:kick.wav
182,192,110893,1,0,0:0:0:0:
475,192,110893,1,0,0:0:0:0:
475,192,111104,1,0,0:0:0:0:
36,192,111315,1,4,0:0:0:70:kick.wav
475,192,111526,1,0,0:0:0:0:
36,192,111738,1,4,0:0:0:70:kick.wav
475,192,111949,1,0,0:0:0:0:
36,192,112160,1,4,0:0:0:70:kick.wav
475,192,112371,1,0,0:0:0:0:
36,192,112583,1,4,0:0:0:70:kick.wav
475,192,112794,1,0,0:0:0:0:
36,192,113005,1,4,0:0:0:70:kick.wav
475,192,113216,1,0,0:0:0:0:
36,192,113428,1,4,0:0:0:70:kick.wav
475,192,113639,1,0,0:0:0:0:
36,192,113850,1,4,0:0:0:70:kick.wav
475,192,114062,1,0,0:0:0:0:
36,192,114273,1,4,0:0:0:70:kick.wav
475,192,114484,1,0,0:0:0:0:
36,192,114695,1,4,0:0:0:70:kick.wav
475,192,114907,1,0,0:0:0:0:
36,192,115118,1,4,0:0:0:70:kick.wav
475,192,115329,1,0,0:0:0:0:
36,192,115540,1,4,0:0:0:70:kick.wav
475,192,115752,1,0,0:0:0:0:
36,192,115963,1,4,0:0:0:70:kick.wav
475,192,116174,1,0,0:0:0:0:
36,192,116385,1,4,0:0:0:70:kick.wav
475,192,116597,1,0,0:0:0:0:
36,192,116808,1,4,0:0:0:70:kick.wav
475,192,117019,1,0,0:0:0:0:
36,192,117231,1,4,0:0:0:70:kick.wav
475,192,117442,1,0,0:0:0:0:
36,192,117653,1,4,0:0:0:70:kick.wav
182,192,117864,1,4,0:0:0:70:kick.wav
475,192,117864,1,0,0:0:0:0:
36,192,118076,1,4,0:0:0:70:kick.wav
182,192,118287,1,4,0:0:0:70:kick.wav
475,192,118287,1,0,0:0:0:0:
36,192,118498,1,4,0:0:0:70:kick.wav
182,192,118709,1,4,0:0:0:70:kick.wav
475,192,118709,1,0,0:0:0:0:
36,192,118921,1,4,0:0:0:70:kick.wav
182,192,119132,1,4,0:0:0:70:kick.wav
475,192,119132,1,0,0:0:0:0:
36,192,119343,1,4,0:0:0:70:kick.wav
182,192,119554,1,4,0:0:0:70:kick.wav
475,192,119554,1,0,0:0:0:0:
36,192,119766,1,4,0:0:0:70:kick.wav
182,192,119977,1,4,0:0:0:70:kick.wav
475,192,119977,1,0,0:0:0:0:
36,192,120188,1,4,0:0:0:70:kick.wav
182,192,120400,1,4,0:0:0:70:kick.wav
475,192,120400,1,0,0:0:0:0:
36,192,120611,1,4,0:0:0:70:kick.wav
182,192,120822,1,4,0:0:0:70:kick.wav
475,192,120822,1,0,0:0:0:0:
36,192,121033,1,4,0:0:0:70:kick.wav
182,192,121139,1,4,0:0:0:70:kick.wav
475,192,121245,1,4,0:0:0:70:kick.wav
329,192,121350,1,4,0:0:0:70:kick.wav
36,192,121456,1,4,0:0:0:70:kick.wav
182,192,121562,1,4,0:0:0:70:kick.wav
475,192,121667,1,4,0:0:0:70:kick.wav
329,192,121773,1,4,0:0:0:70:kick.wav
36,192,121878,1,4,0:0:0:70:kick.wav
182,192,121984,1,4,0:0:0:70:kick.wav
475,192,122090,1,4,0:0:0:70:kick.wav
329,192,122195,1,4,0:0:0:70:kick.wav
36,192,122301,1,4,0:0:0:70:kick.wav
182,192,122407,1,4,0:0:0:70:kick.wav
475,192,122512,1,4,0:0:0:70:kick.wav
329,192,122618,1,4,0:0:0:70:kick.wav
182,192,122724,128,4,123991:0:0:0:70:kick.wav
36,192,122724,1,0,0:0:0:0:
475,192,124414,1,4,0:0:0:70:kick.wav
182,192,124414,1,4,0:0:0:0:
36,192,124414,128,0,124836:0:0:0:0:
182,192,124836,1,4,0:0:0:70:kick.wav
329,192,124836,1,0,0:0:0:0:
36,192,124942,1,0,0:0:0:0:
329,192,125047,1,0,0:0:0:0:
182,192,125153,1,0,0:0:0:0:
36,192,125259,1,4,0:0:0:70:kick.wav
475,192,125259,1,0,0:0:0:0:
256,192,125364,1,0,0:0:0:0:
256,192,125576,1,0,0:0:0:0:
36,192,125681,1,4,0:0:0:70:kick.wav
402,192,125681,1,0,0:0:0:0:
475,192,125893,128,0,126104:0:0:0:0:
36,192,126104,1,4,0:0:0:70:kick.wav
182,192,126104,128,0,126526:0:0:0:0:
36,192,126526,1,4,0:0:0:70:kick.wav
329,192,126526,1,0,0:0:0:0:
182,192,126632,1,0,0:0:0:0:
402,192,126738,1,0,0:0:0:0:
256,192,126843,1,0,0:0:0:0:
475,192,126949,1,4,0:0:0:70:kick.wav
36,192,126949,1,0,0:0:0:0:
329,192,127054,1,0,0:0:0:0:
329,192,127266,1,0,0:0:0:0:
182,192,127371,1,4,0:0:0:70:kick.wav
36,192,127371,1,0,0:0:0:0:
329,192,127477,1,0,0:0:0:0:
475,192,127583,1,0,0:0:0:0:
182,192,127794,1,4,0:0:0:70:kick.wav
36,192,127794,128,0,128216:0:0:0:0:
182,192,128216,1,4,0:0:0:70:kick.wav
329,192,128216,1,0,0:0:0:0:
36,192,128322,1,0,0:0:0:0:
329,192,128428,1,0,0:0:0:0:
182,192,128533,1,0,0:0:0:0:
36,192,128639,1,4,0:0:0:70:kick.wav
475,192,128639,1,0,0:0:0:0:
256,192,128745,1,0,0:0:0:0:
256,192,128956,1,0,0:0:0:0:
329,192,129062,1,4,0:0:0:70:kick.wav
36,192,129062,1,0,0:0:0:0:
475,192,129273,128,0,129484:0:0:0:0:
36,192,129484,1,4,0:0:0:70:kick.wav
182,192,129590,1,0,0:0:0:0:
329,192,129695,1,0,0:0:0:0:
182,192,129801,1,0,0:0:0:0:
475,192,129907,1,4,0:0:0:70:kick.wav
36,192,129907,1,0,0:0:0:0:
256,192,130012,1,0,0:0:0:0:
256,192,130224,1,0,0:0:0:0:
36,192,130329,1,4,0:0:0:70:kick.wav
402,192,130470,1,0,0:0:0:0:
256,192,130611,1,0,0:0:0:0:
36,192,130752,1,4,0:0:0:70:kick.wav
182,192,130857,1,0,0:0:0:0:
475,192,130963,1,0,0:0:0:0:
329,192,131069,1,0,0:0:0:0:
182,192,131174,1,4,0:0:0:70:kick.wav
475,192,131174,1,0,0:0:0:0:
36,192,131174,128,0,131597:0:0:0:0:
329,192,131597,1,4,0:0:0:70:kick.wav
182,192,131597,1,0,0:0:0:0:
36,192,131702,1,0,0:0:0:0:
329,192,131808,1,0,0:0:0:0:
182,192,131914,1,0,0:0:0:0:
475,192,132019,1,4,0:0:0:70:kick.wav
36,192,132019,1,0,0:0:0:0:
329,192,132125,1,0,0:0:0:0:
329,192,132336,1,0,0:0:0:0:
182,192,132442,1,4,0:0:0:70:kick.wav
36,192,132442,1,0,0:0:0:0:
475,192,132653,128,0,132864:0:0:0:0:
182,192,132864,1,4,0:0:0:70:kick.wav
36,192,132864,128,0,133287:0:0:0:0:
182,192,133287,1,4,0:0:0:70:kick.wav
36,192,133393,1,0,0:0:0:0:
402,192,133498,1,0,0:0:0:0:
256,192,133604,1,0,0:0:0:0:
36,192,133709,1,4,0:0:0:70:kick.wav
475,192,133709,1,0,0:0:0:0:
329,192,133815,1,0,0:0:0:0:
329,192,134026,1,0,0:0:0:0:
36,192,134132,1,4,0:0:0:70:kick.wav
182,192,134132,1,0,0:0:0:0:
329,192,134238,1,0,0:0:0:0:
475,192,134343,1,0,0:0:0:0:
182,192,134554,1,4,0:0:0:70:kick.wav
36,192,134554,128,0,134977:0:0:0:0:
182,192,134977,1,4,0:0:0:70:kick.wav
329,192,134977,1,0,0:0:0:0:
36,192,135083,1,0,0:0:0:0:
402,192,135188,1,0,0:0:0:0:
256,192,135294,1,0,0:0:0:0:
36,192,135400,1,4,0:0:0:70:kick.wav
475,192,135400,1,0,0:0:0:0:
329,192,135505,1,0,0:0:0:0:
329,192,135716,1,0,0:0:0:0:
36,192,135822,1,4,0:0:0:70:kick.wav
182,192,135822,1,0,0:0:0:0:
475,192,136033,128,0,136245:0:0:0:0:
36,192,136245,1,4,0:0:0:70:kick.wav
182,192,136245,128,0,136667:0:0:0:0:
402,192,136773,1,0,0:0:0:0:
329,192,136878,1,0,0:0:0:0:
402,192,136984,1,0,0:0:0:0:
329,192,137090,1,4,0:0:0:70:kick.wav
36,192,137090,1,0,0:0:0:0:
182,192,137090,1,0,0:0:0:0:
329,192,137407,1,4,0:0:0:70:kick.wav
475,192,137407,1,0,0:0:0:0:
109,192,137407,1,0,0:0:0:0:
36,192,137724,1,4,0:0:0:70:kick.wav
475,192,137724,1,0,0:0:0:0:
256,192,137724,1,0,0:0:0:0:
36,192,137935,1,4,0:0:0:70:kick.wav
475,192,137935,1,0,0:0:0:0:
182,192,137935,1,4,2:0:0:0:
329,192,138040,1,0,0:0:0:0:
256,192,138146,1,0,0:0:0:0:
402,192,138252,1,0,0:0:0:0:
256,192,138357,1,4,0:0:0:0:
109,192,138357,1,0,0:0:0:0:
182,192,138463,1,0,0:0:0:0:
329,192,138569,1,0,0:0:0:0:
256,192,138674,1,0,0:0:0:0:
182,192,138780,1,4,0:0:0:70:kick.wav
36,192,138780,1,0,0:0:0:0:
402,192,138885,1,0,0:0:0:0:
256,192,138991,1,0,0:0:0:0:
182,192,139097,1,0,0:0:0:0:
329,192,139202,1,4,0:0:0:0:
475,192,139202,1,0,0:0:0:0:
256,192,139308,1,0,0:0:0:0:
109,192,139414,1,0,0:0:0:0:
182,192,139519,1,0,0:0:0:0:
36,192,139625,1,4,0:0:0:70:kick.wav
329,192,139625,1,0,0:0:0:0:
182,192,139731,1,0,0:0:0:0:
402,192,139836,1,0,0:0:0:0:
256,192,139942,1,0,0:0:0:0:
109,192,140047,1,4,0:0:0:0:
36,192,140047,1,0,0:0:0:0:
329,192,140153,1,0,0:0:0:0:
256,192,140259,1,0,0:0:0:0:
182,192,140364,1,0,0:0:0:0:
329,192,140470,1,4,0:0:0:70:kick.wav
475,192,140470,1,0,0:0:0:0:
256,192,140576,1,0,0:0:0:0:
182,192,140681,1,0,0:0:0:0:
109,192,140893,1,4,0:0:0:0:
329,192,140893,1,0,0:0:0:0:
36,192,140998,1,0,0:0:0:0:
109,192,141104,1,0,0:0:0:0:
182,192,141209,1,0,0:0:0:0:
256,192,141315,1,4,0:0:0:70:kick.wav
475,192,141315,1,0,0:0:0:0:
329,192,141421,1,0,0:0:0:0:
182,192,141526,1,0,0:0:0:0:
256,192,141632,1,0,0:0:0:0:
182,192,141738,1,4,0:0:0:0:
36,192,141738,1,0,0:0:0:0:
109,192,141843,1,0,0:0:0:0:
329,192,141949,1,0,0:0:0:0:
256,192,142054,1,0,0:0:0:0:
182,192,142160,1,4,0:0:0:70:kick.wav
36,192,142160,1,0,0:0:0:0:
402,192,142266,1,0,0:0:0:0:
329,192,142371,1,0,0:0:0:0:
256,192,142477,1,0,0:0:0:0:
182,192,142583,1,4,0:0:0:0:
402,192,142583,1,0,0:0:0:0:
36,192,142688,1,0,0:0:0:0:
256,192,142794,1,0,0:0:0:0:
109,192,142900,1,0,0:0:0:0:
329,192,143005,1,4,0:0:0:70:kick.wav
475,192,143005,1,0,0:0:0:0:
182,192,143111,1,0,0:0:0:0:
402,192,143216,1,0,0:0:0:0:
256,192,143322,1,0,0:0:0:0:
36,192,143428,1,4,0:0:0:0:
182,192,143428,1,0,0:0:0:0:
329,192,143533,1,0,0:0:0:0:
182,192,143639,1,0,0:0:0:0:
109,192,143745,1,0,0:0:0:0:
36,192,143850,1,4,0:0:0:70:kick.wav
329,192,143956,1,0,0:0:0:0:
182,192,144062,1,0,0:0:0:0:
256,192,144273,1,0,0:0:0:0:
36,192,144273,1,4,0:0:0:0:
182,192,144378,1,0,0:0:0:0:
256,192,144484,1,0,0:0:0:0:
329,192,144590,1,0,0:0:0:0:
36,192,144695,1,4,0:0:0:70:kick.wav
475,192,144695,1,0,0:0:0:0:
329,192,144801,1,0,0:0:0:0:
256,192,144907,1,0,0:0:0:0:
402,192,145012,1,0,0:0:0:0:
256,192,145118,1,0,0:0:0:0:
109,192,145118,1,4,0:0:0:0:
182,192,145224,1,0,0:0:0:0:
329,192,145329,1,0,0:0:0:0:
256,192,145435,1,0,0:0:0:0:
182,192,145540,1,4,0:0:0:70:kick.wav
36,192,145540,1,0,0:0:0:0:
402,192,145646,1,0,0:0:0:0:
475,192,145752,1,0,0:0:0:0:
402,192,145857,1,0,0:0:0:0:
182,192,145963,1,4,0:0:0:0:
329,192,145963,1,0,0:0:0:0:
109,192,146069,1,0,0:0:0:0:
36,192,146174,1,0,0:0:0:0:
256,192,146280,1,0,0:0:0:0:
329,192,146385,1,4,0:0:0:70:kick.wav
109,192,146385,1,0,0:0:0:0:
182,192,146491,1,0,0:0:0:0:
475,192,146597,1,0,0:0:0:0:
329,192,146702,1,0,0:0:0:0:
182,192,146808,1,0,0:0:0:0:
36,192,146808,1,4,0:0:0:0:
256,192,146914,1,0,0:0:0:0:
109,192,147019,1,0,0:0:0:0:
182,192,147125,1,0,0:0:0:0:
329,192,147231,1,4,0:0:0:70:kick.wav
475,192,147231,1,0,0:0:0:0:
256,192,147336,1,0,0:0:0:0:
36,192,147442,1,0,0:0:0:0:
182,192,147547,1,0,0:0:0:0:
109,192,147653,1,4,0:0:0:0:
329,192,147653,1,0,0:0:0:0:
402,192,147759,1,0,0:0:0:0:
475,192,147864,1,0,0:0:0:0:
36,192,148076,1,4,0:0:0:70:kick.wav
329,192,148076,1,0,0:0:0:0:
182,192,148181,1,0,0:0:0:0:
109,192,148287,1,0,0:0:0:0:
256,192,148393,1,0,0:0:0:0:
182,192,148498,1,4,0:0:0:0:
402,192,148498,1,0,0:0:0:0:
36,192,148604,1,0,0:0:0:0:
329,192,148709,1,0,0:0:0:0:
256,192,148815,1,0,0:0:0:0:
109,192,148921,1,4,0:0:0:70:kick.wav
402,192,148921,1,0,0:0:0:0:
475,192,149026,1,0,0:0:0:0:
329,192,149132,1,0,0:0:0:0:
256,192,149238,1,0,0:0:0:0:
182,192,149343,1,4,0:0:0:0:
36,192,149343,1,0,0:0:0:0:
109,192,149449,1,0,0:0:0:0:
256,192,149554,1,0,0:0:0:0:
329,192,149660,1,0,0:0:0:0:
402,192,149766,1,4,0:0:0:70:kick.wav
182,192,149766,1,0,0:0:0:0:
36,192,149871,1,0,0:0:0:0:
256,192,149977,1,0,0:0:0:0:
109,192,150083,1,0,0:0:0:0:
329,192,150188,1,4,0:0:0:0:
475,192,150188,1,0,0:0:0:0:
329,192,150400,1,0,0:0:0:0:
182,192,150505,1,0,0:0:0:0:
109,192,150611,1,4,0:0:0:70:kick.wav
329,192,150611,1,0,0:0:0:0:
256,192,150716,1,0,0:0:0:0:
182,192,150822,1,0,0:0:0:0:
256,192,150928,1,0,0:0:0:0:
36,192,151033,1,4,0:0:0:0:
329,192,151033,1,0,0:0:0:0:
329,192,151245,1,0,0:0:0:0:
182,192,151350,1,0,0:0:0:0:
36,192,151456,1,4,0:0:0:70:kick.wav
475,192,151456,1,0,0:0:0:0:
329,192,151456,1,4,2:0:0:0:
256,192,151562,1,0,0:0:0:0:
109,192,151667,1,0,0:0:0:0:
256,192,151773,1,0,0:0:0:0:
182,192,151878,1,4,0:0:0:0:
402,192,151878,1,0,0:0:0:0:
36,192,151984,1,0,0:0:0:0:
329,192,152090,1,0,0:0:0:0:
256,192,152195,1,0,0:0:0:0:
182,192,152301,1,4,0:0:0:70:kick.wav
36,192,152301,1,0,0:0:0:0:
475,192,152407,1,0,0:0:0:0:
329,192,152512,1,0,0:0:0:0:
256,192,152618,1,0,0:0:0:0:
402,192,152724,1,4,0:0:0:0:
109,192,152724,1,0,0:0:0:0:
256,192,152829,1,0,0:0:0:0:
182,192,152935,1,0,0:0:0:0:
329,192,153040,1,0,0:0:0:0:
182,192,153146,1,4,0:0:0:70:kick.wav
36,192,153146,1,0,0:0:0:0:
109,192,153252,1,0,0:0:0:0:
402,192,153357,1,0,0:0:0:0:
182,192,153463,1,0,0:0:0:0:
329,192,153569,1,4,0:0:0:0:
475,192,153569,1,0,0:0:0:0:
256,192,153674,1,0,0:0:0:0:
109,192,153780,1,0,0:0:0:0:
182,192,153885,1,0,0:0:0:0:
36,192,153991,1,4,0:0:0:70:kick.wav
329,192,153991,1,0,0:0:0:0:
182,192,154097,1,0,0:0:0:0:
109,192,154202,1,0,0:0:0:0:
256,192,154414,1,4,0:0:0:0:
402,192,154414,1,0,0:0:0:0:
182,192,154519,1,0,0:0:0:0:
256,192,154625,1,0,0:0:0:0:
329,192,154731,1,0,0:0:0:0:
475,192,154836,1,4,0:0:0:70:kick.wav
109,192,154836,1,0,0:0:0:0:
329,192,154942,1,0,0:0:0:0:
256,192,155047,1,0,0:0:0:0:
402,192,155153,1,0,0:0:0:0:
256,192,155259,1,4,0:0:0:0:
36,192,155259,1,0,0:0:0:0:
182,192,155364,1,0,0:0:0:0:
329,192,155470,1,0,0:0:0:0:
182,192,155576,1,0,0:0:0:0:
109,192,155681,1,4,0:0:0:70:kick.wav
402,192,155681,1,0,0:0:0:0:
475,192,155787,1,0,0:0:0:0:
329,192,155893,1,0,0:0:0:0:
256,192,155998,1,0,0:0:0:0:
182,192,156104,1,4,0:0:0:0:
36,192,156104,1,0,0:0:0:0:
109,192,156209,1,0,0:0:0:0:
256,192,156315,1,0,0:0:0:0:
329,192,156421,1,0,0:0:0:0:
182,192,156526,1,4,0:0:0:70:kick.wav
475,192,156526,1,0,0:0:0:0:
36,192,156632,1,0,0:0:0:0:
329,192,156738,1,0,0:0:0:0:
182,192,156843,1,0,0:0:0:0:
256,192,156949,1,4,0:0:0:0:
402,192,156949,1,0,0:0:0:0:
329,192,157054,1,0,0:0:0:0:
182,192,157160,1,0,0:0:0:0:
109,192,157266,1,0,0:0:0:0:
36,192,157371,1,4,0:0:0:70:kick.wav
329,192,157371,1,0,0:0:0:0:
256,192,157477,1,0,0:0:0:0:
109,192,157583,1,0,0:0:0:0:
329,192,157794,1,4,0:0:0:0:
475,192,157794,1,0,0:0:0:0:
182,192,157900,1,0,0:0:0:0:
256,192,158005,1,0,0:0:0:0:
329,192,158111,1,0,0:0:0:0:
36,192,158216,1,4,0:0:0:70:kick.wav
475,192,158216,1,0,0:0:0:0:
329,192,158322,1,0,0:0:0:0:
256,192,158428,1,0,0:0:0:0:
402,192,158533,1,0,0:0:0:0:
256,192,158639,1,4,0:0:0:0:
109,192,158639,1,0,0:0:0:0:
182,192,158745,1,0,0:0:0:0:
329,192,158850,1,0,0:0:0:0:
256,192,158956,1,0,0:0:0:0:
182,192,159062,1,4,0:0:0:70:kick.wav
36,192,159062,1,0,0:0:0:0:
402,192,159167,1,0,0:0:0:0:
475,192,159273,1,0,0:0:0:0:
402,192,159378,1,0,0:0:0:0:
182,192,159484,1,4,0:0:0:0:
329,192,159484,1,0,0:0:0:0:
109,192,159590,1,0,0:0:0:0:
36,192,159695,1,0,0:0:0:0:
256,192,159801,1,0,0:0:0:0:
329,192,159907,1,4,0:0:0:70:kick.wav
109,192,159907,1,0,0:0:0:0:
182,192,160012,1,0,0:0:0:0:
475,192,160118,1,0,0:0:0:0:
329,192,160224,1,0,0:0:0:0:
36,192,160329,1,4,0:0:0:0:
182,192,160329,1,0,0:0:0:0:
256,192,160435,1,0,0:0:0:0:
109,192,160540,1,0,0:0:0:0:
182,192,160646,1,0,0:0:0:0:
329,192,160752,1,4,0:0:0:70:kick.wav
475,192,160752,1,0,0:0:0:0:
256,192,160857,1,0,0:0:0:0:
182,192,160963,1,0,0:0:0:0:
109,192,161174,1,4,0:0:0:0:
329,192,161174,1,0,0:0:0:0:
256,192,161280,1,0,0:0:0:0:
329,192,161385,1,0,0:0:0:0:
402,192,161491,1,0,0:0:0:0:
36,192,161597,1,4,0:0:0:70:kick.wav
475,192,161597,1,0,0:0:0:0:
402,192,161702,1,0,0:0:0:0:
329,192,161808,1,0,0:0:0:0:
402,192,161914,1,0,0:0:0:0:
475,192,162019,1,4,0:0:0:0:
182,192,162019,1,0,0:0:0:0:
402,192,162125,1,0,0:0:0:0:
329,192,162231,1,0,0:0:0:0:
256,192,162336,1,0,0:0:0:0:
182,192,162442,1,4,0:0:0:70:kick.wav
402,192,162442,1,0,0:0:0:0:
109,192,162547,1,0,0:0:0:0:
36,192,162653,1,0,0:0:0:0:
109,192,162759,1,0,0:0:0:0:
182,192,162864,1,4,0:0:0:0:
475,192,162864,1,0,0:0:0:0:
256,192,162970,1,0,0:0:0:0:
329,192,163076,1,0,0:0:0:0:
402,192,163181,1,0,0:0:0:0:
475,192,163287,1,4,0:0:0:70:kick.wav
182,192,163287,1,0,0:0:0:0:
109,192,163393,1,0,0:0:0:0:
182,192,163498,1,0,0:0:0:0:
109,192,163604,1,0,0:0:0:0:
36,192,163709,1,4,0:0:0:0:
402,192,163709,1,0,0:0:0:0:
109,192,163815,1,0,0:0:0:0:
182,192,163921,1,0,0:0:0:0:
109,192,164026,1,0,0:0:0:0:
36,192,164132,1,4,0:0:0:70:kick.wav
402,192,164132,1,0,0:0:0:0:
329,192,164238,1,0,0:0:0:0:
256,192,164343,1,0,0:0:0:0:
182,192,164449,1,0,0:0:0:0:
109,192,164554,1,4,0:0:0:0:
402,192,164554,1,0,0:0:0:0:
329,192,164660,1,0,0:0:0:0:
256,192,164766,1,0,0:0:0:0:
182,192,164871,1,0,0:0:0:0:
36,192,164977,1,4,0:0:0:0:
475,192,164977,1,0,0:0:0:0:
329,192,164977,1,0,0:0:0:0:
182,192,165083,1,0,0:0:0:0:
182,192,165294,1,0,0:0:0:0:
182,192,165505,1,0,0:0:0:0:
109,192,165611,1,2,0:0:0:0:
36,192,165822,1,0,0:0:0:0:
182,192,165928,1,0,0:0:0:0:
182,192,166139,1,0,0:0:0:0:
182,192,166350,1,0,0:0:0:0:
109,192,166456,1,2,0:0:0:0:
36,192,166667,1,0,0:0:0:0:
182,192,166773,1,0,0:0:0:0:
182,192,166984,1,0,0:0:0:0:
182,192,167195,1,0,0:0:0:0:
109,192,167301,1,2,0:0:0:0:
36,192,167512,1,0,0:0:0:0:
182,192,167618,1,0,0:0:0:0:
182,192,167829,1,0,0:0:0:0:
182,192,168040,1,0,0:0:0:0:
256,192,168146,1,2,0:0:0:0:
475,192,168357,1,0,0:0:0:0:
329,192,168463,1,0,0:0:0:0:
329,192,168674,1,0,0:0:0:0:
329,192,168885,1,0,0:0:0:0:
402,192,168991,1,2,0:0:0:0:
475,192,169202,1,0,0:0:0:0:
329,192,169308,1,0,0:0:0:0:
329,192,169519,1,0,0:0:0:0:
329,192,169731,1,0,0:0:0:0:
402,192,169836,1,2,0:0:0:0:
475,192,170047,1,0,0:0:0:0:
329,192,170153,1,0,0:0:0:0:
329,192,170364,1,0,0:0:0:0:
329,192,170576,1,0,0:0:0:0:
402,192,170681,1,2,0:0:0:0:
475,192,170893,1,0,0:0:0:0:
329,192,170998,1,0,0:0:0:0:
329,192,171209,1,0,0:0:0:0:
329,192,171421,1,0,0:0:0:0:
402,192,171526,1,2,0:0:0:0:
109,192,171738,1,0,0:0:0:0:
256,192,171843,1,0,0:0:0:0:
256,192,172054,1,0,0:0:0:0:
256,192,172266,1,0,0:0:0:0:
182,192,172371,1,2,0:0:0:0:
109,192,172583,1,0,0:0:0:0:
256,192,172688,1,0,0:0:0:0:
256,192,172900,1,0,0:0:0:0:
256,192,173111,1,0,0:0:0:0:
182,192,173216,1,2,0:0:0:0:
109,192,173428,1,0,0:0:0:0:
256,192,173533,1,0,0:0:0:0:
256,192,173745,1,0,0:0:0:0:
256,192,173956,1,0,0:0:0:0:
182,192,174062,1,2,0:0:0:0:
109,192,174273,1,0,0:0:0:0:
256,192,174378,1,0,0:0:0:0:
256,192,174590,1,0,0:0:0:0:
256,192,174801,1,0,0:0:0:0:
182,192,174907,1,2,0:0:0:0:
36,192,175118,1,0,0:0:0:0:
182,192,175224,1,0,0:0:0:0:
182,192,175435,1,0,0:0:0:0:
182,192,175646,1,0,0:0:0:0:
182,192,175752,1,2,0:0:0:0:
182,192,175963,1,0,0:0:0:0:
329,192,176069,1,0,0:0:0:0:
329,192,176280,1,0,0:0:0:0:
329,192,176491,1,0,0:0:0:0:
329,192,176597,1,2,0:0:0:0:
109,192,176808,1,0,0:0:0:0:
256,192,176914,1,0,0:0:0:0:
256,192,177125,1,0,0:0:0:0:
256,192,177336,1,0,0:0:0:0:
256,192,177442,1,2,0:0:0:0:
182,192,177653,1,0,0:0:0:0:
329,192,177759,1,0,0:0:0:0:
329,192,177970,1,0,0:0:0:0:
329,192,178181,1,0,0:0:0:0:
329,192,178287,1,2,0:0:0:0:
475,192,178498,1,4,0:0:0:0:
36,192,178498,1,0,0:0:0:0:
109,192,178709,1,2,0:0:0:0:
109,192,179132,1,2,0:0:0:0:
109,192,179554,1,2,0:0:0:0:
109,192,179977,1,2,0:0:0:0:
109,192,180400,1,2,0:0:0:0:
109,192,180822,1,2,0:0:0:0:
109,192,181245,1,2,0:0:0:0:
109,192,181667,1,2,0:0:0:0:
402,192,182090,1,2,0:0:0:0:
402,192,182512,1,2,0:0:0:0:
402,192,182935,1,2,0:0:0:0:
402,192,183357,1,2,0:0:0:0:
402,192,183780,1,2,0:0:0:0:
402,192,184202,1,2,0:0:0:0:
402,192,184625,1,2,0:0:0:0:
402,192,185047,1,2,0:0:0:0:
182,192,185470,1,2,0:0:0:0:
182,192,185893,1,2,0:0:0:0:
182,192,186315,1,2,0:0:0:0:
182,192,186738,1,2,0:0:0:0:
182,192,187160,1,2,0:0:0:0:
182,192,187583,1,2,0:0:0:0:
182,192,188005,1,2,0:0:0:0:
182,192,188428,1,2,0:0:0:0:
329,192,188850,1,2,0:0:0:0:
329,192,189273,1,2,0:0:0:0:
329,192,189695,1,2,0:0:0:0:
329,192,190118,1,2,0:0:0:0:
329,192,190540,1,2,0:0:0:0:
329,192,190963,1,2,0:0:0:0:
329,192,191385,1,2,0:0:0:0:
329,192,191808,1,2,0:0:0:0:
36,192,192019,1,4,0:0:0:0:
475,192,192019,1,0,0:0:0:0:
182,192,192019,1,0,0:0:0:0:
256,192,192019,128,0,197090:0:0:0:0:
329,192,196245,128,0,198780:0:0:0:0:
36,192,198040,1,0,0:0:0:0:
182,192,198146,1,0,0:0:0:0:
256,192,198252,1,0,0:0:0:0:
109,192,198357,1,0,0:0:0:0:
182,192,198463,1,0,0:0:0:0:
402,192,198569,1,0,0:0:0:0:
475,192,198674,1,0,0:0:0:0:
