osu file format v14

[General]
AudioFilename: audio.mp3
AudioLeadIn: 0
PreviewTime: -1
Countdown: 0
SampleSet: Normal
StackLeniency: 0.7
Mode: 0
LetterboxInBreaks: 0
WidescreenStoryboard: 1

[Editor]
Bookmarks: 188827,204256,204417,204685,208542,208702,208970,209131,209399,209560,209827,209988,210256,210417,210685
DistanceSpacing: 1
BeatDivisor: 8
GridSize: 8
TimelineZoom: 3.119998

[Metadata]
Title:Iridescent
TitleUnicode:Iridescent
Artist:Arrient
ArtistUnicode:Arrient
Creator:geekenox
Version:Hard
Source:
Tags:
BeatmapID:1192923
BeatmapSetID:564016

[Difficulty]
HPDrainRate:4
CircleSize:4
OverallDifficulty:4
ApproachRate:8
SliderMultiplier:1.6
SliderTickRate:1

[Events]
//Background and Video events
0,0,"akio_bako_anime_sunset_girl_clouds_103086_3840x2400.jpg",0,0
//Break Periods
2,34473,47238
//Storyboard Layer 0 (Background)
//Storyboard Layer 1 (Fail)
//Storyboard Layer 2 (Pass)
//Storyboard Layer 3 (Foreground)
//Storyboard Sound Samples

[TimingPoints]
6845.77009932649,428.571428571429,4,1,0,10,1,0
177631,-66.6666666666667,4,1,0,10,0,0
178060,-100,4,1,0,10,0,0
179560,-66.6666666666667,4,1,0,10,0,0
179881,-100,4,1,0,10,0,0
185131,-100,4,1,0,10,0,0
198417,-66.6666666666667,4,1,0,10,0,0
198845,-100,4,1,0,10,0,0

[Colours]
Combo1 : 128,0,255
Combo2 : 143,58,131
Combo3 : 142,36,82

[HitObjects]
256,192,3417,12,0,6417,0:0:0:0:
88,296,6845,6,0,P|72:248|96:136,1,160
232,64,7702,2,0,P|280:56|392:72,1,160
328,224,8560,2,0,L|232:168,1,100
168,128,8988,1,0,0:0:0:0:
200,16,9256,6,0,L|264:8,1,60
360,24,9685,2,0,P|408:56|416:64,1,60
408,152,10113,5,0,0:0:0:0:
408,152,10274,6,0,B|340:184|288:200|248:216,1,160
75,247,10970,1,0,0:0:0:0:
75,247,11131,1,0,0:0:0:0:
88,148,11399,2,0,L|128:88,1,60
224,40,11827,6,0,L|288:40,1,60
432,160,12417,1,0,0:0:0:0:
276,64,12845,2,0,L|156:188,1,160
184,276,13542,6,0,L|124:300,1,60
80,200,13970,2,0,L|40:140,1,60
172,52,14399,1,0,0:0:0:0:
172,52,14560,1,0,0:0:0:0:
272,48,14827,5,0,0:0:0:0:
272,48,14988,1,0,0:0:0:0:
272,168,15256,1,0,0:0:0:0:
272,168,15417,2,0,P|196:204|132:212,1,120
120,228,15845,6,0,L|20:180,1,100
24,100,16274,1,0,0:0:0:0:
184,72,16542,1,0,0:0:0:0:
184,72,16702,1,0,0:0:0:0:
320,40,16970,6,0,P|368:60|384:72,1,60
484,96,17399,2,0,L|444:160,1,60
344,224,17827,1,0,0:0:0:0:
344,224,17988,1,0,0:0:0:0:
224,216,18256,6,0,L|260:268,1,60
336,308,18685,1,0,0:0:0:0:
412,276,18845,2,0,P|440:228|436:180,1,100
392,128,19274,2,0,L|240:56,1,160
164,128,19970,5,0,0:0:0:0:
164,128,20131,1,0,0:0:0:0:
136,244,20399,2,0,P|104:232|80:208,1,60
88,96,20827,6,0,P|112:48|144:32,1,80
232,24,21256,1,0,0:0:0:0:
232,24,21417,1,0,0:0:0:0:
352,24,21685,6,0,L|384:84,1,60
316,108,22113,1,0,0:0:0:0:
316,108,22274,2,0,L|232:160,1,80
200,60,22702,2,0,L|60:156,1,160
68,150,23399,5,0,0:0:0:0:
68,150,23560,1,0,0:0:0:0:
124,288,23827,1,0,0:0:0:0:
124,288,23988,2,0,L|112:196,1,80
16,128,24417,5,0,0:0:0:0:
16,128,24685,2,0,L|12:68,1,60
80,40,25113,2,0,L|144:12,1,60
232,32,25542,1,0,0:0:0:0:
232,32,25702,1,0,0:0:0:0:
264,156,25970,1,0,0:0:0:0:
264,156,26131,5,0,0:0:0:0:
176,276,26399,2,0,L|136:224,1,60
104,136,26827,1,0,0:0:0:0:
104,136,26988,1,0,0:0:0:0:
200,168,27256,1,0,0:0:0:0:
200,168,27417,1,0,0:0:0:0:
104,160,27685,6,0,P|104:232|104:240,1,80
180,308,28113,2,0,L|228:356,1,60
272,264,28542,5,0,0:0:0:0:
304,176,28702,1,0,0:0:0:0:
232,104,28970,5,0,0:0:0:0:
184,32,29131,1,0,0:0:0:0:
96,80,29399,1,0,0:0:0:0:
96,80,29560,2,0,L|160:232,1,160
460,24,30256,6,0,L|416:72,1,60
336,168,30685,2,0,L|276:196,1,60
220,140,31113,2,0,L|216:68,1,60
356,40,31542,1,0,0:0:0:0:
356,40,31595,1,0,0:0:0:0:
356,40,31649,2,0,L|448:16,1,80
428,72,31970,2,0,L|392:128,1,60
272,56,32452,1,0,0:0:0:0:
272,56,32560,1,0,0:0:0:0:
348,112,32827,6,0,L|308:164,1,60
236,140,33256,1,0,0:0:0:0:
236,140,33417,1,0,0:0:0:0:
96,208,33685,2,0,L|96:284,1,60
232,248,34113,6,0,L|236:172,1,60
72,64,47988,5,0,0:0:0:0:
232,56,48417,2,0,P|300:56|340:84,1,80
264,128,48845,2,0,P|212:144|176:168,1,80
248,208,49274,2,0,P|196:224|160:224,1,80
88,240,49702,5,0,0:0:0:0:
88,240,50131,1,0,0:0:0:0:
88,240,50560,2,0,P|68:192|72:152,1,80
136,120,50988,1,0,0:0:0:0:
136,120,51417,1,0,0:0:0:0:
288,80,51845,6,0,B|388:76|380:76,1,80
368,160,52274,2,0,L|268:164,1,80
208,168,52702,1,0,0:0:0:0:
208,168,53131,1,0,0:0:0:0:
184,328,53560,1,0,0:0:0:0:
272,288,53988,2,0,B|208:260|208:224|200:224,1,80
280,200,54417,1,0,0:0:0:0:
216,32,54845,6,0,P|256:52|280:116,1,80
316,144,55274,2,0,B|348:176|344:228|324:248,1,80
280,280,55702,2,0,P|216:308|180:300,1,80
144,264,56131,2,0,P|112:224|120:172,1,80
120,156,56452,5,0,0:0:0:0:
120,156,56560,1,0,0:0:0:0:
88,68,56774,1,0,0:0:0:0:
172,96,56988,2,0,B|236:64|272:76|276:76,1,80
328,72,57417,6,0,L|412:96,1,80
428,172,57845,2,0,L|416:256,1,80
352,300,58274,2,0,L|244:312,1,80
196,292,58702,2,0,L|116:240,1,80
80,184,59131,2,0,L|132:124,1,80
204,84,59560,1,0,0:0:0:0:
204,84,59774,1,0,0:0:0:0:
204,84,59988,1,0,0:0:0:0:
256,192,60417,12,0,61542,0:0:0:0:
368,80,61702,6,0,L|384:64,10,20
212,248,62935,2,0,P|168:228|196:196,1,100
164,120,63417,2,0,L|112:104,2,40
240,28,63845,2,0,L|144:40,2,80
264,104,64488,1,0,0:0:0:0:
408,88,65131,5,0,0:0:0:0:
400,160,65292,2,0,P|400:208|232:280,1,260
232,144,66149,2,0,P|264:172|317:216,1,100
392,168,66631,1,0,0:0:0:0:
376,200,66845,6,0,P|376:264|288:264,2,160
376,200,67917,1,0,0:0:0:0:
376,200,68131,2,0,L|240:200,1,120
232,144,68560,6,0,L|208:120,11,20
232,56,69417,2,0,P|240:16|296:16,1,100
397,153,69845,5,0,0:0:0:0:
397,153,70060,2,0,P|380:212|336:240,1,80
296,264,70488,1,0,0:0:0:0:
220,284,70702,5,0,0:0:0:0:
68,232,71131,1,0,0:0:0:0:
88,136,71345,2,0,L|104:112,8,20
160,72,71988,2,0,P|184:16|184:80,1,160
228,244,72845,6,0,L|316:244,1,80
380,292,73167,1,0,0:0:0:0:
380,292,73274,1,0,0:0:0:0:
476,220,73542,1,0,0:0:0:0:
404,184,73702,6,0,L|372:104,1,80
288,96,74131,2,0,L|196:60,1,80
140,100,74560,1,0,0:0:0:0:
136,176,74774,2,0,P|72:176|40:176,1,80
56,256,75202,5,0,0:0:0:0:
56,256,75417,2,0,L|168:256,1,100
256,256,76113,2,0,L|256:184,1,60
256,196,76542,2,0,L|256:128,1,60
184,24,76970,6,0,L|124:32,1,60
16,152,77560,2,0,L|92:236,1,100
224,296,78256,1,0,0:0:0:0:
224,296,78417,1,0,0:0:0:0:
328,208,78685,1,0,0:0:0:0:
328,208,78845,6,0,P|360:176|356:112,1,100
332,56,79274,1,0,0:0:0:0:
212,64,79542,2,0,L|148:72,1,60
36,108,79970,2,0,L|40:184,1,60
100,240,80399,5,0,0:0:0:0:
100,240,80560,1,0,0:0:0:0:
200,312,80827,2,0,L|272:312,1,60
352,296,81202,1,0,0:0:0:0:
340,208,81417,2,0,P|344:184|296:144,1,80
240,212,81845,1,0,0:0:0:0:
232,132,82113,6,0,P|240:56|240:56,1,60
348,128,82542,2,0,L|272:60,1,100
192,64,82970,6,0,L|128:84,1,60
72,156,83399,2,0,P|36:204|92:284,1,160
152,300,83988,1,0,0:0:0:0:
388,232,84417,5,0,0:0:0:0:
376,112,84685,1,0,0:0:0:0:
376,112,84845,2,0,P|352:48|336:40,1,80
304,32,85167,1,0,0:0:0:0:
264,24,85274,1,0,0:0:0:0:
168,24,85542,6,0,L|168:88,1,60
168,184,85970,2,0,L|176:248,1,60
256,304,86399,2,0,L|332:300,1,60
416,264,86827,2,0,L|404:200,1,60
360,92,87256,1,0,0:0:0:0:
76,60,88113,5,0,0:0:0:0:
76,60,88274,1,0,0:0:0:0:
96,160,88542,2,0,L|128:220,1,60
196,284,88970,2,0,L|268:292,1,60
388,80,89988,5,0,0:0:0:0:
272,52,90256,2,0,L|196:56,1,60
108,116,90685,1,0,0:0:0:0:
108,116,90845,1,0,0:0:0:0:
180,212,91113,6,0,L|252:228,1,60
360,240,91542,2,0,L|352:168,1,60
328,56,91970,1,0,0:0:0:0:
328,56,92131,1,0,0:0:0:0:
288,168,92399,6,0,L|232:208,1,60
184,96,92827,2,0,L|188:24,1,60
68,56,93256,1,0,0:0:0:0:
68,56,93417,2,0,L|72:128,1,60
108,116,93685,6,0,L|172:112,1,60
100,212,94113,1,0,0:0:0:0:
100,212,94274,1,0,0:0:0:0:
212,256,94542,2,0,L|284:272,1,60
332,184,94970,6,0,L|304:120,1,60
360,20,95399,2,0,P|392:28|388:64,1,60
276,60,95827,1,0,0:0:0:0:
276,60,95988,1,0,0:0:0:0:
176,72,96256,6,0,P|136:72|112:72,1,60
80,256,96845,1,0,0:0:0:0:
204,216,97113,2,0,L|280:216,1,60
368,156,97542,1,0,0:0:0:0:
368,156,97702,1,0,0:0:0:0:
288,68,97970,6,0,L|352:72,1,60
468,72,98399,1,0,0:0:0:0:
468,72,98560,1,0,0:0:0:0:
424,184,98827,6,0,L|372:236,1,60
268,264,99256,2,0,L|196:264,1,60
104,204,99685,2,0,L|152:160,1,60
236,80,100113,1,0,0:0:0:0:
236,80,100220,6,0,L|268:148,1,60
324,100,100542,2,0,L|396:112,1,60
472,192,100970,2,0,L|424:248,1,60
312,264,101399,2,0,L|240:272,1,60
136,232,101827,5,0,0:0:0:0:
136,232,101988,2,0,L|144:160,1,60
160,128,102256,2,0,L|232:128,1,60
272,24,102685,1,0,0:0:0:0:
272,24,102845,1,0,0:0:0:0:
384,56,103113,1,0,0:0:0:0:
432,112,103274,6,0,P|440:136|424:184,1,60
328,224,103702,2,0,L|272:264,1,60
232,280,103970,1,0,0:0:0:0:
232,280,104131,1,0,0:0:0:0:
144,200,104399,6,0,L|144:128,1,60
320,64,104988,1,0,0:0:0:0:
200,88,105256,2,0,L|128:104,1,60
48,24,105685,2,0,L|64:88,1,60
88,200,106113,5,0,0:0:0:0:
88,200,106274,1,0,0:0:0:0:
184,272,106542,2,0,L|256:272,1,60
360,232,106970,1,0,0:0:0:0:
360,232,107024,1,0,0:0:0:0:
360,232,107077,2,0,L|384:168,1,60
376,104,107399,6,0,L|304:88,1,60
200,80,107827,1,0,0:0:0:0:
136,56,107988,2,0,L|80:104,1,60
104,216,108417,2,0,P|120:272|216:304,1,160
208,208,109113,6,0,L|256:168,1,60
368,88,109542,1,0,0:0:0:0:
368,88,109702,2,0,L|288:80,1,80
200,48,110131,2,0,P|176:48|144:88,1,60
56,152,110560,6,0,L|96:224,1,80
192,240,110988,2,0,L|256:248,1,60
296,248,111256,2,0,L|368:232,1,60
432,144,111685,1,0,0:0:0:0:
432,144,111845,1,0,0:0:0:0:
336,72,112113,6,0,L|264:56,1,60
160,64,112542,1,0,0:0:0:0:
160,64,112702,1,0,0:0:0:0:
72,144,112970,2,0,L|56:216,1,60
152,280,113399,2,0,L|224:296,1,60
328,272,113827,5,0,0:0:0:0:
328,272,113881,1,0,0:0:0:0:
328,272,113935,2,0,L|408:232,1,80
424,200,114256,2,0,L|392:128,1,60
304,72,114685,1,0,0:0:0:0:
304,72,114845,1,0,0:0:0:0:
184,72,115113,5,0,0:0:0:0:
184,72,115274,1,0,0:0:0:0:
184,192,115542,2,0,L|184:264,1,60
272,176,115970,2,0,L|344:152,1,60
408,64,116399,1,0,0:0:0:0:
408,64,116560,1,0,0:0:0:0:
112,80,119131,6,0,B|200:80|208:72|224:128|232:128|304:80|424:88,1,320
88,48,123417,5,0,0:0:0:0:
256,40,125988,2,0,B|256:144|256:152|216:160|216:168|216:368,1,320
128,53,130274,2,0,B|304:48|320:48|352:104|456:64,1,320
128,48,131988,2,0,B|128:88|128:96|64:104|112:368,1,320
336,136,133702,1,0,0:0:0:0:
80,64,137131,6,0,B|136:64|144:64|160:16|400:40,1,320
464,352,138845,2,0,B|400:352|384:352|248:128,1,320
64,32,140560,2,0,B|112:32|120:32|232:296,1,320
48,80,143988,1,0,0:0:0:0:
104,48,145702,6,0,B|128:48|136:48|136:80|368:232,1,320
48,192,147417,1,0,0:0:0:0:
104,80,150845,6,0,B|160:80|176:80|208:112|432:96,1,320
208,336,152560,2,0,B|176:296|168:288|192:208|40:64,1,320
360,56,154274,2,0,B|328:88|312:104|248:96|120:280,1,320
72,64,156845,5,0,0:0:0:0:
72,64,157702,5,0,0:0:0:0:
56,224,158131,2,0,L|112:288,1,80
192,288,158560,2,0,L|272:288,1,80
344,256,158988,1,0,0:0:0:0:
344,256,159417,1,0,0:0:0:0:
432,120,159845,5,0,0:0:0:0:
288,56,160274,2,0,P|232:56|200:80,1,80
160,128,160702,1,0,0:0:0:0:
56,248,161131,5,0,0:0:0:0:
216,248,161560,2,0,L|296:240,1,80
360,200,161988,2,0,L|400:112,1,80
352,56,162417,1,0,0:0:0:0:
192,64,162845,5,0,0:0:0:0:
136,216,163274,1,0,0:0:0:0:
280,280,163702,2,0,L|352:216,1,80
384,160,164131,1,0,0:0:0:0:
296,32,164560,6,0,P|232:40|216:56,1,80
160,96,164988,2,0,B|136:112|128:120|104:168,1,80
80,232,165417,2,0,B|88:280|88:288|120:312,1,80
192,312,165845,2,0,P|256:328|272:328,1,80
269,328,166167,1,0,0:0:0:0:
269,328,166274,2,0,P|328:328|360:312,1,80
400,256,166702,2,0,P|424:224|432:168,1,80
424,104,167131,2,0,P|392:48|376:40,1,80
304,8,167560,2,0,L|216:24,1,80
144,48,167988,5,0,0:0:0:0:
72,88,168202,1,0,0:0:0:0:
72,168,168417,1,0,0:0:0:0:
112,240,168631,1,0,0:0:0:0:
176,288,168845,1,0,0:0:0:0:
256,304,169060,1,0,0:0:0:0:
256,304,169167,1,0,0:0:0:0:
256,304,169274,1,0,0:0:0:0:
336,280,169488,2,0,L|368:304,2,40
256,192,169756,12,0,171310,0:0:0:0:
64,184,171417,5,0,0:0:0:0:
64,184,171524,1,0,0:0:0:0:
64,184,171631,1,0,0:0:0:0:
64,184,171738,1,0,0:0:0:0:
64,184,171845,2,0,P|72:232|112:256,1,80
176,264,172274,5,0,0:0:0:0:
176,264,172381,1,0,0:0:0:0:
176,264,172488,1,0,0:0:0:0:
176,264,172595,1,0,0:0:0:0:
176,264,172702,2,0,P|224:288|256:288,1,80
328,264,173131,5,0,0:0:0:0:
328,264,173345,1,0,0:0:0:0:
328,264,173560,1,0,0:0:0:0:
328,264,173774,1,0,0:0:0:0:
408,256,173988,6,0,P|440:248|456:192,1,80
456,128,174417,1,0,0:0:0:0:
408,64,174631,1,0,0:0:0:0:
336,40,174845,2,0,L|336:208,1,160
264,272,175542,5,0,0:0:0:0:
208,280,175702,2,0,P|208:320|176:296,1,80
176,312,176024,2,0,P|132:331|128:296,1,80
123,313,176345,2,0,P|83:313|97:284,1,80
160,56,176988,5,0,0:0:0:0:
240,48,177202,1,0,0:0:0:0:
320,48,177417,1,0,0:0:0:0:
440,40,177631,6,0,P|472:40|448:72,1,90.0000034332277
449,73,177845,2,0,P|449:97|449:177,1,90.0000034332277
368,216,178274,5,0,0:0:0:0:
368,216,178381,1,0,0:0:0:0:
368,216,178488,1,0,0:0:0:0:
368,216,178595,1,0,0:0:0:0:
368,216,178702,1,0,0:0:0:0:
368,216,178810,2,0,P|400:256|400:296,1,80
368,304,179131,2,0,L|320:312,1,40
264,208,179560,6,0,L|216:208,6,30.0000011444092
272,168,179988,6,0,B|272:144|256:144|192:208,1,100
112,192,180417,2,0,P|104:208|88:152,1,160
200,88,181060,2,0,P|224:72|248:72,1,40
272,80,181274,2,0,P|296:80|320:80,1,40
352,96,181488,2,0,P|368:96|392:96,1,40
416,128,181702,5,0,0:0:0:0:
416,128,181810,1,0,0:0:0:0:
416,128,181917,1,0,0:0:0:0:
416,128,182024,1,0,0:0:0:0:
416,128,182131,2,0,P|416:184|352:232,1,140
296,128,182827,5,0,0:0:0:0:
296,128,182988,1,0,0:0:0:0:
216,64,183256,1,0,0:0:0:0:
144,104,183417,6,0,P|136:128|144:192,1,80
139,181,183845,2,0,P|128:136|144:96,1,80
137,105,184167,2,0,L|192:104,1,40
256,96,184488,1,0,0:0:0:0:
256,96,184702,2,0,L|248:184,1,80
248,175,185131,2,0,L|240:280,1,100
384,208,185827,5,0,0:0:0:0:
384,208,185988,1,0,0:0:0:0:
368,112,186256,1,0,0:0:0:0:
368,112,186417,1,0,0:0:0:0:
280,72,186685,5,0,0:0:0:0:
280,72,186845,2,0,P|272:104|240:176,1,100
245,165,187274,2,0,P|207:239|189:269,1,100
200,72,188024,6,0,L|248:72,1,40
336,64,188399,2,0,L|408:64,1,60
400,168,188827,2,0,L|400:240,1,60
304,256,189256,2,0,L|232:256,1,60
152,224,189685,2,0,L|152:152,1,60
200,80,190113,5,0,0:0:0:0:
200,80,190274,1,0,0:0:0:0:
296,88,190542,1,0,0:0:0:0:
296,88,190702,2,0,L|368:88,1,60
400,88,190970,2,0,L|400:152,1,60
368,216,191345,1,0,0:0:0:0:
336,240,191452,2,0,L|288:272,1,40
208,224,191827,6,0,L|184:152,1,60
176,64,192256,1,0,0:0:0:0:
176,64,192685,2,0,L|240:48,2,60
176,64,193113,2,0,L|112:104,1,60
125,95,193542,2,0,L|96:160,1,60
232,240,194131,5,0,0:0:0:0:
232,240,194399,2,0,P|280:256|288:248,1,60
376,216,194827,6,0,L|376:152,1,60
304,88,195256,2,0,L|232:88,1,60
144,80,195685,2,0,L|144:144,1,60
144,240,196113,2,0,L|216:240,1,60
304,240,196542,1,0,0:0:0:0:
304,240,196702,1,0,0:0:0:0:
400,216,196970,2,0,L|400:144,1,60
304,128,197399,6,0,L|304:56,1,60
304,68,197827,2,0,L|304:128,1,60
248,184,198202,1,0,0:0:0:0:
240,104,198417,2,0,P|192:64|88:80,1,150.000005722046
80,120,198845,6,0,B|80:152|80:160|-24:176|184:192|-24:216|184:232|-24:256|184:280|-24:320|128:352|216:344,1,320
328,48,200560,6,0,B|328:88|328:104|248:112|376:136|32:160|504:192|144:240,1,320
96,72,201631,1,0,0:0:0:0:
96,72,201845,2,0,B|104:96|120:112|80:112|24:112|160:160|136:168,1,120
134,160,202274,6,0,B|168:192|248:104|48:312|336:128|128:352|416:192,1,320
384,96,203399,1,0,0:0:0:0:
384,96,203560,1,0,0:0:0:0:
288,96,203827,1,0,0:0:0:0:
288,96,203988,6,0,B|208:144|192:152|136:40|232:272|216:280|144:136|56:232|80:120,1,320
144,56,205113,2,0,B|208:56|216:56|232:176|304:24|336:24|328:96,1,220
288,176,205970,5,0,0:0:0:0:
128,192,206399,1,0,0:0:0:0:
128,192,206560,1,0,0:0:0:0:
128,96,206827,2,0,L|192:96,1,60
248,96,207256,6,0,L|320:96,1,60
368,248,207845,1,0,0:0:0:0:
432,176,208113,1,0,0:0:0:0:
432,176,208274,1,0,0:0:0:0:
384,88,208542,6,0,B|336:120|336:120|336:120|328:120,1,60
272,72,208970,2,0,P|216:120|216:120,1,60
296,200,209399,2,0,L|352:152,1,60
256,104,209827,1,0,0:0:0:0:
256,104,209988,1,0,0:0:0:0:
256,104,210256,2,0,B|288:136|312:160|352:144|360:232,1,160
256,64,211167,5,0,0:0:0:0:
256,64,211274,2,0,B|256:120|192:136|288:176|184:208,1,160
198,202,212131,2,0,B|262:242|230:290|334:274,1,160
