osu file format v14

[General]
AudioFilename: audio.mp3
AudioLeadIn: 0
PreviewTime: 160344
Countdown: 0
SampleSet: Soft
StackLeniency: 0.4
Mode: 0
LetterboxInBreaks: 0
WidescreenStoryboard: 0

[Editor]
Bookmarks: 6576,13531,28314,56140,70053,83966,97879,108314,108748,122227,125705,132661,160053,163966,177879,191792,202227,203966,205705,214074,230053,233531,247444,254401,261357,275270,303096,310053,337879,351792,358748,362227,365705,390053,393531,403857,421357,445705
DistanceSpacing: 1
BeatDivisor: 6
GridSize: 16
TimelineZoom: 4.550001

[Metadata]
Title:Great Spirit (Extended Mix)
TitleUnicode:Great Spirit (Extended Mix)
Artist:Armin van Buuren vs. Vini Vici feat. Hilight Tribe
ArtistUnicode:Armin van Buuren vs. Vini Vici feat. Hilight Tribe
Creator:IceKalt
Version:Tribal Echoes
Source:
Tags:marathon psytrance a state of trance celektus
BeatmapID:1610046
BeatmapSetID:765801

[Difficulty]
HPDrainRate:5.6
CircleSize:3.5
OverallDifficulty:8.6
ApproachRate:9.5
SliderMultiplier:2.3
SliderTickRate:1

[Events]
//Background and Video events
0,0,"tribal.jpg",0,0
//Break Periods
2,125705,128658
2,303296,306049
//Storyboard Layer 0 (Background)
//Storyboard Layer 1 (Fail)
//Storyboard Layer 2 (Pass)
//Storyboard Layer 3 (Foreground)
//Storyboard Sound Samples

[TimingPoints]
488,434.782608695652,4,2,1,25,1,0
488,-200,4,2,1,25,0,0
14401,-200,4,2,1,35,0,0
28241,-200,4,2,1,5,0,0
28314,-166.666666666667,4,2,1,40,0,0
42227,-133.333333333333,4,2,1,40,0,0
64835,-166.666666666667,4,2,1,40,0,0
65270,-111.111111111111,4,2,1,50,0,0
65705,-83.3333333333334,4,2,1,60,0,0
66140,-66.6666666666667,4,2,1,70,0,0
66574,-100,4,2,1,60,0,0
68314,-62.5,4,2,1,70,0,0
69183,-111.111111111111,4,2,1,50,0,0
70053,-83.3333333333333,4,2,1,60,0,0
73096,-66.6666666666667,4,2,1,60,0,0
73531,-83.3333333333333,4,2,1,60,0,0
76574,-153.846153846153,4,2,1,60,0,0
77009,-83.3333333333333,4,2,1,60,0,0
80053,-66.6666666666667,4,2,1,60,0,0
80487,-83.3333333333333,4,2,1,60,0,0
83531,-100,4,2,1,60,0,0
83966,-83.3333333333333,4,2,1,60,0,0
87009,-66.6666666666667,4,2,1,60,0,0
87444,-83.3333333333333,4,2,1,60,0,0
89835,-83.3333333333333,4,2,5,60,0,0
89944,-83.3333333333333,4,2,5,5,0,0
90053,-58.8235294117647,4,2,5,60,0,0
90161,-58.8235294117647,4,2,5,5,0,0
90270,-58.8235294117647,4,2,5,60,0,0
90379,-58.8235294117647,4,2,5,5,0,0
90487,-58.8235294117647,4,2,5,60,0,0
90596,-58.8235294117647,4,2,5,5,0,0
90705,-58.8235294117647,4,2,5,60,0,0
90814,-58.8235294117647,4,2,5,5,0,0
90922,-83.3333333333333,4,2,1,60,0,0
94401,-83.3333333333333,4,2,1,35,0,0
96792,-55.5555555555556,4,2,5,70,0,0
96901,-55.5555555555556,4,2,5,5,0,0
97009,-55.5555555555556,4,2,5,70,0,0
97118,-55.5555555555556,4,2,5,5,0,0
97227,-55.5555555555556,4,2,5,70,0,0
97335,-55.5555555555556,4,2,5,5,0,0
97444,-55.5555555555556,4,2,5,70,0,0
97553,-55.5555555555556,4,2,5,5,0,0
97661,-55.5555555555556,4,2,5,70,0,0
97770,-55.5555555555556,4,2,1,5,0,0
97879,-74.0740740740741,4,2,1,60,0,0
99835,-62.5,4,2,1,60,0,0
101357,-74.0740740740741,4,2,1,60,0,0
104401,-133.333333333333,4,2,1,60,0,0
104835,-74.0740740740741,4,2,1,60,0,0
106357,-62.5,4,2,1,60,0,0
108314,-71.4285714285714,4,2,1,60,0,0
110922,-55.5555555555556,4,2,5,60,0,0
111031,-55.5555555555556,4,2,5,5,0,0
111140,-55.5555555555556,4,2,5,60,0,0
111248,-55.5555555555556,4,2,5,5,0,0
111357,-55.5555555555556,4,2,5,50,0,0
111466,-55.5555555555556,4,2,5,5,0,0
111574,-55.5555555555556,4,2,5,50,0,0
111683,-55.5555555555556,4,2,5,5,0,0
111792,-66.6666666666667,4,2,1,60,0,0
113531,-62.5,4,2,1,60,0,0
115270,-58.8235294117647,4,2,1,65,0,0
117879,-55.5555555555556,4,2,1,50,0,0
118640,-55.5555555555556,4,2,1,5,0,0
118748,-55.5555555555556,4,2,1,60,0,0
122227,-71.4285714285714,4,2,1,60,0,0
123966,-83.3333333333333,4,2,1,50,0,0
132553,-83.3333333333333,4,2,1,5,0,0
132661,-83.3333333333333,4,2,1,50,0,0
135777,-83.3333333333333,4,2,1,5,0,0
136140,-83.3333333333333,4,2,1,50,0,0
139256,-83.3333333333333,4,2,1,5,0,0
139618,-83.3333333333333,4,2,1,50,0,0
142734,-83.3333333333333,4,2,1,5,0,0
143096,-62.5,4,2,1,60,0,0
144763,-62.5,4,2,1,5,0,0
144835,-62.5,4,2,1,60,0,0
145632,-62.5,4,2,1,5,0,0
145705,-62.5,4,2,1,60,0,0
146067,-62.5,4,2,1,5,0,0
146140,-62.5,4,2,1,60,0,0
153531,-55.5555555555556,4,2,1,65,0,0
155270,-55.5555555555556,4,2,1,70,0,0
156140,-55.5555555555556,4,2,1,75,0,0
156864,-142.857142857143,4,2,1,40,0,0
160053,-142.857142857143,4,2,1,5,0,0
160487,-66.6666666666667,4,2,1,50,0,0
160777,-66.6666666666667,4,2,1,20,0,0
160922,-66.6666666666667,4,2,1,50,0,0
161212,-66.6666666666667,4,2,1,20,0,0
161357,-66.6666666666667,4,2,1,50,0,0
161647,-66.6666666666667,4,2,1,20,0,0
161792,-66.6666666666667,4,2,1,50,0,0
162009,-66.6666666666667,4,2,1,20,0,0
162082,-66.6666666666667,4,2,1,50,0,0
162154,-66.6666666666667,4,2,1,5,0,0
162227,-66.6666666666667,4,2,1,50,0,0
162516,-66.6666666666667,4,2,1,20,0,0
162661,-66.6666666666667,4,2,1,50,0,0
162879,-66.6666666666667,4,2,1,20,0,0
162951,-66.6666666666667,4,2,1,50,0,0
163024,-66.6666666666667,4,2,1,5,0,0
163096,-66.6666666666667,4,2,1,50,0,0
163314,-66.6666666666667,4,2,1,20,0,0
163386,-66.6666666666667,4,2,1,50,0,0
163459,-66.6666666666667,4,2,1,5,0,0
163531,-66.6666666666667,4,2,1,50,0,0
163821,-66.6666666666667,4,2,1,20,0,0
163966,-58.8235294117647,4,2,1,70,0,1
169183,-100,4,2,1,70,0,1
170053,-58.8235294117647,4,2,1,70,0,1
174401,-58.8235294117647,4,2,1,70,0,1
177444,-100,4,2,1,70,0,1
177879,-58.8235294117647,4,2,1,70,0,1
190053,-100,4,2,1,70,0,1
190125,-100,4,2,1,5,0,1
190343,-100,4,2,1,70,0,1
190415,-100,4,2,1,5,0,1
190632,-100,4,2,1,70,0,1
190705,-100,4,2,1,5,0,1
190777,-100,4,2,1,70,0,1
190995,-100,4,2,1,5,0,1
191212,-100,4,2,1,70,0,1
191792,-55.5555555555556,4,2,1,70,0,1
191864,-55.5555555555556,4,2,1,5,0,1
191937,-55.5555555555556,4,2,1,70,0,1
192009,-55.5555555555556,4,2,1,5,0,1
192082,-55.5555555555556,4,2,1,70,0,1
192154,-55.5555555555556,4,2,1,5,0,1
192227,-55.5555555555556,4,2,1,70,0,1
192734,-55.5555555555556,4,2,1,5,0,1
192806,-55.5555555555556,4,2,1,70,0,1
192879,-55.5555555555556,4,2,1,5,0,1
192951,-55.5555555555556,4,2,1,70,0,1
193024,-55.5555555555556,4,2,1,5,0,1
193096,-55.5555555555556,4,2,1,70,0,1
193603,-55.5555555555556,4,2,1,5,0,1
193676,-55.5555555555556,4,2,1,70,0,1
193748,-55.5555555555556,4,2,1,5,0,1
193821,-55.5555555555556,4,2,1,70,0,1
193893,-55.5555555555556,4,2,1,5,0,1
193966,-55.5555555555556,4,2,1,70,0,1
194473,-55.5555555555556,4,2,1,5,0,1
194545,-55.5555555555556,4,2,1,70,0,1
194618,-55.5555555555556,4,2,1,5,0,1
194690,-55.5555555555556,4,2,1,70,0,1
194763,-55.5555555555556,4,2,1,5,0,1
194835,-55.5555555555556,4,2,1,70,0,1
195343,-55.5555555555556,4,2,1,5,0,1
195415,-55.5555555555556,4,2,1,70,0,1
195487,-55.5555555555556,4,2,1,5,0,1
195560,-55.5555555555556,4,2,1,70,0,1
195632,-55.5555555555556,4,2,1,5,0,1
195705,-55.5555555555556,4,2,1,70,0,1
196212,-55.5555555555556,4,2,1,5,0,1
196285,-55.5555555555556,4,2,1,70,0,1
196357,-55.5555555555556,4,2,1,5,0,1
196430,-55.5555555555556,4,2,1,70,0,1
196502,-55.5555555555556,4,2,1,5,0,1
196574,-55.5555555555556,4,2,1,70,0,1
197082,-55.5555555555556,4,2,1,5,0,1
197154,-55.5555555555556,4,2,1,70,0,1
197227,-55.5555555555556,4,2,1,5,0,1
197299,-55.5555555555556,4,2,1,70,0,1
197372,-55.5555555555556,4,2,1,5,0,1
197444,-55.5555555555556,4,2,1,70,0,1
197951,-55.5555555555556,4,2,1,5,0,1
198024,-55.5555555555556,4,2,1,70,0,1
198096,-55.5555555555556,4,2,1,5,0,1
198169,-55.5555555555556,4,2,1,70,0,1
198241,-55.5555555555556,4,2,1,5,0,1
198314,-55.5555555555556,4,2,1,70,0,1
198748,-52.6315789473684,4,2,1,80,0,1
202082,-28.5714285714286,4,2,1,80,0,1
202227,-28.5714285714286,4,2,1,80,0,0
203966,-100,4,2,1,60,0,0
205705,-71.4285714285714,4,2,1,60,0,0
208748,-58.8235294117647,4,2,1,60,0,0
209183,-71.4285714285714,4,2,1,60,0,0
212227,-58.8235294117647,4,2,1,60,0,0
212661,-71.4285714285714,4,2,1,60,0,0
215705,-58.8235294117647,4,2,1,60,0,0
216140,-71.4285714285714,4,2,1,60,0,0
219183,-58.8235294117647,4,2,1,60,0,0
219618,-71.4285714285714,4,2,1,60,0,0
223096,-71.4285714285714,4,2,1,60,0,0
224401,-58.8235294117647,4,2,1,60,0,0
224835,-71.4285714285714,4,2,1,60,0,0
226140,-58.8235294117647,4,2,1,50,0,0
232444,-55.5555555555556,4,2,5,70,0,0
232553,-55.5555555555556,4,2,5,5,0,0
232661,-55.5555555555556,4,2,5,70,0,0
232770,-55.5555555555556,4,2,5,5,0,0
232879,-55.5555555555556,4,2,5,70,0,0
232987,-55.5555555555556,4,2,5,5,0,0
233096,-55.5555555555556,4,2,5,70,0,0
233205,-55.5555555555556,4,2,5,5,0,0
233314,-55.5555555555556,4,2,5,70,0,0
233422,-55.5555555555556,4,2,1,5,0,0
233531,-74.0740740740741,4,2,1,60,0,0
236574,-62.5,4,2,1,60,0,0
237009,-74.0740740740741,4,2,1,60,0,0
240053,-133.333333333333,4,2,1,60,0,0
240487,-74.0740740740741,4,2,1,60,0,0
243531,-100,4,2,1,60,0,0
243966,-71.4285714285714,4,2,1,60,0,0
246357,-55.5555555555556,4,2,5,70,0,0
246466,-55.5555555555556,4,2,5,5,0,0
246574,-55.5555555555556,4,2,5,65,0,0
246683,-55.5555555555556,4,2,5,5,0,0
246792,-55.5555555555556,4,2,5,60,0,0
246901,-55.5555555555556,4,2,5,5,0,0
247009,-55.5555555555556,4,2,5,55,0,0
247118,-55.5555555555556,4,2,5,5,0,0
247227,-55.5555555555556,4,2,5,50,0,0
247444,-133.333333333333,4,2,1,60,0,0
254401,-166.666666666667,4,2,1,50,0,0
261357,-200,4,2,1,35,0,0
275270,-166.666666666667,4,2,1,40,0,0
289183,-133.333333333333,4,2,1,40,0,0
310777,-166.666666666667,4,2,2,65,0,0
310922,-55.5555555555556,4,2,2,65,0,0
313531,-200,4,2,2,65,0,0
313966,-200,4,2,2,5,0,0
314183,-55.5555555555556,4,2,2,65,0,0
317009,-200,4,2,2,65,0,0
317444,-200,4,2,2,5,0,0
317661,-55.5555555555556,4,2,2,65,0,0
320487,-200,4,2,2,65,0,0
320922,-200,4,2,2,5,0,0
321140,-200,4,2,2,65,0,0
321357,-55.5555555555556,4,2,2,65,0,0
323966,-200,4,2,2,65,0,0
324401,-200,4,2,2,5,0,0
324618,-55.5555555555556,4,2,2,60,0,0
330922,-50,4,2,2,70,0,1
337444,-50,4,2,2,70,0,0
337879,-44.4444444444445,4,2,3,75,0,1
338531,-52.6315789473684,4,2,3,75,0,1
341357,-44.4444444444445,4,2,3,75,0,1
342009,-52.6315789473684,4,2,3,75,0,1
344835,-44.4444444444445,4,2,3,75,0,1
345487,-52.6315789473684,4,2,3,75,0,1
348314,-44.4444444444445,4,2,3,75,0,1
348966,-52.6315789473684,4,2,3,75,0,1
355270,-44.4444444444445,4,2,3,75,0,1
355922,-52.6315789473684,4,2,3,75,0,1
362227,-66.6666666666667,4,2,1,50,0,0
362951,-66.6666666666667,4,2,1,65,0,0
365705,-50,4,2,1,70,0,1
376140,-50,4,2,1,70,0,1
379618,-50,4,2,1,70,0,1
385705,-50,4,2,1,70,0,1
390053,-50,4,2,1,50,0,0
392444,-55.5555555555556,4,2,5,70,0,0
392553,-55.5555555555556,4,2,5,5,0,0
392661,-55.5555555555556,4,2,5,70,0,0
392770,-55.5555555555556,4,2,5,5,0,0
392879,-55.5555555555556,4,2,5,70,0,0
392987,-55.5555555555556,4,2,5,5,0,0
393096,-55.5555555555556,4,2,5,70,0,0
393205,-55.5555555555556,4,2,5,5,0,0
393314,-55.5555555555556,4,2,5,70,0,0
393422,-55.5555555555556,4,2,5,5,0,0
393531,-74.0740740740741,4,2,1,60,0,0
395487,-62.5,4,2,1,60,0,0
397009,-74.0740740740741,4,2,1,60,0,0
400053,-133.333333333333,4,2,1,60,0,0
400487,-74.0740740740741,4,2,1,60,0,0
402227,-62.5,4,2,1,60,0,0
403966,-71.4285714285714,4,2,1,60,0,0
406574,-55.5555555555556,4,2,5,60,0,0
406683,-55.5555555555556,4,2,5,5,0,0
406792,-55.5555555555556,4,2,5,60,0,0
406901,-55.5555555555556,4,2,5,5,0,0
407009,-55.5555555555556,4,2,5,60,0,0
407118,-55.5555555555556,4,2,5,5,0,0
407227,-55.5555555555556,4,2,5,60,0,0
407335,-55.5555555555556,4,2,5,5,0,0
407444,-66.6666666666667,4,2,1,60,0,0
409183,-62.5,4,2,1,60,0,0
410922,-58.8235294117647,4,2,1,60,0,0
413531,-55.5555555555556,4,2,1,60,0,0
414292,-55.5555555555556,4,2,1,60,0,0
414401,-55.5555555555556,4,2,1,60,0,0
417879,-71.4285714285714,4,2,1,60,0,0
419618,-83.3333333333333,4,2,1,50,0,0
424401,-66.6666666666667,4,2,1,50,0,0
424835,-83.3333333333333,4,2,1,50,0,0
427227,-83.3333333333333,4,2,5,50,0,0
427335,-83.3333333333333,4,2,5,5,0,0
427444,-58.8235294117647,4,2,5,50,0,0
427553,-58.8235294117647,4,2,5,5,0,0
427661,-58.8235294117647,4,2,5,50,0,0
427770,-58.8235294117647,4,2,5,5,0,0
427879,-58.8235294117647,4,2,5,50,0,0
427987,-58.8235294117647,4,2,5,5,0,0
428096,-58.8235294117647,4,2,5,50,0,0
428205,-58.8235294117647,4,2,5,5,0,0
428314,-83.3333333333333,4,2,1,50,0,0
431357,-66.6666666666667,4,2,1,50,0,0
431792,-83.3333333333333,4,2,1,50,0,0
434835,-100,4,2,1,50,0,0
435270,-90.9090909090909,4,2,1,50,0,0
438314,-76.9230769230769,4,2,1,50,0,0
438748,-90.9090909090909,4,2,1,50,0,0
441140,-66.6666666666667,4,2,5,50,0,0
441248,-66.6666666666667,4,2,5,5,0,0
441357,-66.6666666666667,4,2,5,50,0,0
441466,-66.6666666666667,4,2,5,5,0,0
441574,-66.6666666666667,4,2,5,50,0,0
441683,-66.6666666666667,4,2,5,5,0,0
441792,-66.6666666666667,4,2,5,50,0,0
441901,-66.6666666666667,4,2,5,5,0,0
442009,-66.6666666666667,4,2,5,50,0,0
442118,-66.6666666666667,4,2,1,5,0,0
442227,-90.9090909090909,4,2,1,50,0,0
445270,-76.9230769230769,4,2,1,50,0,0
445705,-76.9230769230769,4,2,1,5,0,0
448096,-58.8235294117647,4,2,5,50,0,0
448205,-58.8235294117647,4,2,5,5,0,0
448314,-57.1428571428571,4,2,5,55,0,0
448422,-58.8235294117647,4,2,5,5,0,0
448531,-55.5555555555556,4,2,5,60,0,0
448640,-58.8235294117647,4,2,5,5,0,0
448748,-54.054054054054,4,2,5,65,0,0
448857,-58.8235294117647,4,2,5,5,0,0
448966,-52.6315789473684,4,2,5,70,0,0
449074,-58.8235294117647,4,2,5,5,0,0

[Colours]
Combo1 : 179,138,0
Combo2 : 255,113,45
Combo3 : 71,196,11
Combo4 : 185,237,3

[HitObjects]
240,81,488,6,0,B|228:140|269:176|332:165|332:165|471:234|500:80|500:80|505:73|505:73|498:78|498:78|329:80|412:287|412:287|294:230|227:341|227:341|120:362|139:276|19:298|19:298|185:200|210:95|152:21|109:10|26:18|15:88|41:124|81:135,1,1610,0|0,0:0|0:0,0:0:0:0:
105,155,7444,6,0,B|264:179|327:17|327:17|257:205|395:188|435:339|324:447|136:359|205:240|205:240|323:288|314:193|437:255|437:255|536:152|474:5|474:5|394:21|380:95|409:147|409:147|422:108|411:78,1,1610,0|0,0:0|0:0,0:0:0:0:
423,101,14401,6,0,L|412:-4,1,86.25,2|2,0:2|0:2,0:0:0:0:
504,166,15053,2,0,L|515:61,1,86.25,2|2,0:2|0:2,0:0:0:0:
423,228,15705,1,2,0:2:0:0:
414,235,16140,6,0,P|378:250|325:243,1,86.25,2|2,0:2|0:2,0:0:0:0:
167,172,16792,2,0,P|203:187|256:180,1,86.25,2|2,0:2|0:2,0:0:0:0:
414,133,17444,1,2,0:2:0:0:
404,126,17879,6,0,B|368:103|368:103|314:98,1,86.25,2|2,0:2|0:2,0:0:0:0:
226,37,18531,2,0,B|183:35|183:35|134:57,1,86.25,2|2,0:2|0:2,0:0:0:0:
85,154,19183,1,2,0:2:0:0:
95,158,19618,6,0,L|205:167,1,86.25,2|2,0:2|0:2,0:0:0:0:
383,202,20270,2,0,L|273:211,1,86.25,2|2,0:2|0:2,0:0:0:0:
98,256,20922,1,2,0:2:0:0:
106,263,21357,6,0,P|148:278|202:269,1,86.25,2|2,0:2|0:2,0:0:0:0:
355,210,22009,2,0,P|313:195|259:204,1,86.25,2|2,0:2|0:2,0:0:0:0:
292,368,22661,1,2,0:2:0:0:
296,357,23096,6,0,L|309:245,1,86.25,2|2,0:2|0:2,0:0:0:0:
217,127,23748,2,0,L|226:212,1,86.25,2|2,0:2|0:2,0:0:0:0:
305,77,24401,1,2,0:2:0:0:
295,70,24835,6,0,P|252:55|209:60,1,86.25,2|2,0:2|0:2,0:0:0:0:
296,237,25487,2,0,P|339:252|382:247,1,86.25,2|2,0:2|0:2,0:0:0:0:
479,89,26140,1,2,0:2:0:0:
467,90,26574,6,0,L|355:97,1,86.25,2|2,0:2|0:2,0:0:0:0:
226,193,27227,2,0,L|114:200,1,86.25,2|2,0:2|0:2,0:0:0:0:
380,319,27879,6,0,B|362:271|396:268|374:209,1,86.25,2|0,1:2|0:0,0:0:0:0:
354,147,28314,6,0,P|382:176|485:187,2,137.999995788574,6|0|0,0:2|0:0|0:0,0:0:0:0:
258,88,29618,2,0,P|203:95|151:71,1,103.499996841431,2|0,0:2|0:0,0:0:0:0:
111,4,30053,6,0,P|111:44|46:124,2,137.999995788574,2|0|0,0:2|0:0|0:0,0:0:0:0:
173,160,31357,2,0,P|202:208|206:261,1,103.499996841431,2|0,0:2|0:0,0:0:0:0:
175,351,31792,6,0,B|205:304|271:280|312:275|375:291|386:355|350:396|303:379,1,275.999991577149,2|0,0:2|0:0,0:0:0:0:
289,237,33096,2,0,P|294:185|334:143,1,103.499996841431,2|0,0:2|0:0,0:0:0:0:
410,148,33531,6,0,B|354:111|358:50|358:50|275:95|201:50,1,275.999991577149,2|0,0:2|0:0,0:0:0:0:
206,53,34835,1,2,0:0:0:0:
102,235,35270,6,0,P|31:308|148:292,1,275.999991577149,6|0,0:0|0:0,0:0:0:0:
264,222,36574,2,0,P|315:209|370:229,1,103.499996841431,2|0,0:2|0:0,0:0:0:0:
417,299,37009,6,0,L|422:157,3,137.999995788574,2|0|0|2,0:2|0:0|0:0|0:2,0:0:0:0:
290,54,38748,6,0,B|198:80|127:32|127:32|77:73|94:134,1,275.999991577149,2|0,0:2|0:0,0:0:0:0:
148,294,40053,2,0,P|180:243|191:186,1,103.499996841431,2|0,0:2|0:0,0:0:0:0:
189,117,40487,6,0,B|222:189|311:190|368:132|422:136|453:180,1,275.999991577149,2|0,0:2|0:0,0:0:0:0:
439,165,41792,1,2,0:0:0:0:
270,330,42227,6,0,B|236:285|171:274|171:274|327:260|349:145,1,345.000013160706,6|0,0:2|0:0,0:0:0:0:
204,93,43531,2,0,P|127:106|73:156,1,129.375004935265,2|0,0:2|0:0,0:0:0:0:
14,238,43966,6,0,P|31:183|14:65,2,172.500006580353,2|0|0,0:2|0:0|0:0,0:0:0:0:
111,355,45053,2,0,B|184:384|182:329|253:348|253:348|298:323|348:347,1,215.625008225441,2|0,0:2|0:0,0:0:0:0:
427,342,45705,6,0,B|300:323|259:224|259:224|307:156|396:176,1,345.000013160706,2|0,0:2|0:0,0:0:0:0:
273,45,47009,2,0,P|222:42|154:82,1,129.375004935265,2|0,0:2|0:0,0:0:0:0:
145,193,47444,6,0,B|151:138|105:79|105:79|9:159|76:294,1,345.000013160706,2|0,0:2|0:0,0:0:0:0:
69,279,48748,1,2,0:0:0:0:
103,68,49183,6,0,B|253:10|243:135|364:76|364:76|321:95|276:68,1,345.000013160706,6|0,0:0|0:0,0:0:0:0:
454,164,50487,2,0,L|445:322,1,129.375004935265,2|0,0:2|0:0,0:0:0:0:
512,384,50922,6,0,P|414:322|324:332,3,172.500006580353,2|0|0|2,0:2|0:0|0:0|0:2,0:0:0:0:
200,250,52661,6,0,P|115:259|48:312,2,172.500006580353,2|0|0,0:2|0:0|0:0,0:0:0:0:
274,384,53748,2,0,B|241:275|241:275|298:244|303:157,1,215.625008225441,2|0,0:2|0:0,0:0:0:0:
201,123,54401,6,0,B|316:197|309:92|410:146|410:146|437:84|386:29,2,345.000013160706,2|0|6,0:2|0:0|1:2,0:0:0:0:
256,192,56194,12,0,64763,0:0:0:0:
192,305,64835,6,0,L|186:350,3,34.4999989471436,2|0|0|0,1:3|1:3|1:3|1:3,0:0:0:0:
331,244,65270,6,0,L|339:317,3,51.7499984207154,2|0|0|0,1:3|1:3|1:3|1:3,0:0:0:0:
149,139,65705,6,0,L|135:245,3,68.9999978942872,2|0|0|0,1:3|1:3|1:3|1:3,0:0:0:0:
359,43,66140,6,0,L|372:147,3,86.2500032901765,2|0|0|0,1:3|1:3|1:3|1:3,0:0:0:0:
74,55,66574,5,2,1:3:0:0:
105,46,66719,1,0,1:3:0:0:
138,51,66864,1,0,1:3:0:0:
58,191,67009,5,2,1:3:0:0:
91,159,67154,1,0,1:3:0:0:
135,146,67299,1,0,1:3:0:0:
153,348,67444,5,2,1:3:0:0:
174,274,67589,1,0,1:3:0:0:
221,214,67734,1,0,1:3:0:0:
357,384,67879,5,2,1:3:0:0:
363,276,68024,1,0,1:3:0:0:
419,184,68169,1,0,1:3:0:0:
431,9,68314,6,0,P|384:23|328:17,1,92,2|0,1:1|0:0,0:0:0:0:
442,136,68531,2,0,P|393:133|342:108,1,92,0|0,1:3|0:0,0:0:0:0:
87,1,68748,6,0,P|146:18|216:11,1,92,2|0,1:1|0:0,0:0:0:0:
73,160,68966,2,0,P|134:156|198:125,1,92,0|0,1:3|0:0,0:0:0:0:
329,192,69183,6,0,B|310:237|224:219|224:135|266:65,1,206.999993682861,2|0,0:1|0:0,0:0:0:0:
259,80,70053,6,0,L|190:68,3,68.9999978942872,2|0|0|0,3:2|0:0|0:0|0:0,0:0:0:0:
19,237,70487,2,0,L|103:222,1,68.9999978942872,2|0,3:2|0:0,0:0:0:0:
371,218,70705,2,0,L|303:206,1,68.9999978942872,0|0,1:0|0:0,0:0:0:0:
362,187,70922,2,0,L|293:175,3,68.9999978942872,2|0|0|0,3:2|0:0|0:0|0:0,0:0:0:0:
126,360,71357,2,0,L|210:345,1,68.9999978942872,2|0,3:2|0:0,0:0:0:0:
287,275,71574,2,0,L|203:260,1,68.9999978942872,0|0,1:0|0:0,0:0:0:0:
376,378,71792,5,2,3:2:0:0:
373,364,71901,1,0,0:0:0:0:
370,350,72009,1,0,0:0:0:0:
367,336,72118,1,0,0:0:0:0:
443,282,72227,5,2,3:2:0:0:
431,273,72336,1,0,0:0:0:0:
449,183,72444,5,0,1:0:0:0:
434,183,72553,1,0,0:0:0:0:
419,183,72661,1,2,3:2:0:0:
405,184,72770,1,0,0:0:0:0:
391,185,72879,1,0,0:0:0:0:
377,186,72987,1,0,0:0:0:0:
357,73,73096,6,0,B|256:110|154:21|154:21|168:42|167:72,1,258.75000987053,12|0,3:1|0:0,0:0:0:0:
3,231,73531,6,0,L|23:156,3,68.9999978942872,2|0|0|0,3:2|0:0|0:0|0:0,0:0:0:0:
143,323,73966,2,0,L|136:245,1,68.9999978942872,2|0,3:2|0:0,0:0:0:0:
309,351,74183,2,0,L|276:280,1,68.9999978942872,0|0,1:0|0:0,0:0:0:0:
327,330,74401,2,0,L|294:259,3,68.9999978942872,2|0|0|0,3:2|0:0|0:0|0:0,0:0:0:0:
485,306,74835,2,0,L|430:251,1,68.9999978942872,2|0,3:2|0:0,0:0:0:0:
324,114,75053,2,0,L|379:169,1,68.9999978942872,0|0,1:0|0:0,0:0:0:0:
468,94,75270,5,2,3:2:0:0:
471,107,75379,1,0,0:0:0:0:
471,120,75487,1,0,0:0:0:0:
469,133,75596,1,0,0:0:0:0:
367,122,75705,5,2,3:2:0:0:
366,108,75814,1,0,0:0:0:0:
468,81,75922,5,0,1:0:0:0:
471,94,76031,1,0,0:0:0:0:
471,107,76139,1,2,3:2:0:0:
469,120,76248,1,0,0:0:0:0:
465,133,76357,1,0,0:0:0:0:
457,144,76466,1,0,0:0:0:0:
387,32,76574,6,0,B|342:28|323:42|323:42|315:27|315:27|291:22|268:38,1,112.124994867325,2|0,3:1|0:0,0:0:0:0:
142,99,77009,6,0,L|128:22,3,68.9999978942872,2|0|0|0,3:2|0:0|0:0|0:0,0:0:0:0:
346,195,77444,2,0,L|360:118,1,68.9999978942872,2|0,3:2|0:0,0:0:0:0:
99,251,77661,2,0,L|85:174,1,68.9999978942872,0|0,1:0|0:0,0:0:0:0:
81,274,77879,2,0,L|67:197,3,68.9999978942872,2|0|0|0,3:2|0:0|0:0|0:0,0:0:0:0:
313,373,78314,2,0,L|327:296,1,68.9999978942872,2|0,3:2|0:0,0:0:0:0:
177,373,78531,2,0,L|164:305,1,68.9999978942872,0|0,1:0|0:0,0:0:0:0:
182,200,78748,5,2,3:2:0:0:
195,198,78857,1,0,0:0:0:0:
208,196,78966,1,0,0:0:0:0:
221,194,79074,1,0,0:0:0:0:
294,129,79183,5,2,3:2:0:0:
307,127,79292,1,0,0:0:0:0:
365,220,79401,5,0,1:0:0:0:
352,218,79510,1,0,0:0:0:0:
339,216,79619,1,2,3:2:0:0:
326,214,79727,1,0,0:0:0:0:
312,212,79835,1,0,0:0:0:0:
298,210,79944,1,0,0:0:0:0:
195,99,80053,6,0,B|111:190|-4:143|-4:143|18:128|46:134,1,258.75000987053,8|0,0:0|0:0,0:0:0:0:
136,311,80487,6,0,L|59:336,3,68.9999978942872,2|0|0|0,3:2|0:0|0:0|0:0,0:0:0:0:
376,311,80922,2,0,L|453:336,1,68.9999978942872,2|0,3:2|0:0,0:0:0:0:
94,172,81140,2,0,L|55:235,1,68.9999978942872,0|0,1:0|0:0,0:0:0:0:
118,180,81357,2,0,L|79:243,3,68.9999978942872,2|0|0|0,3:2|0:0|0:0|0:0,0:0:0:0:
400,172,81792,2,0,L|439:235,1,68.9999978942872,2|0,3:2|0:0,0:0:0:0:
395,47,82009,2,0,L|447:41,2,45.9999985961914,0|0|0,1:2|0:0|0:0,0:0:0:0:
252,54,82227,5,2,1:2:0:0:
282,130,82335,1,2,0:2:0:0:
276,212,82444,1,2,1:2:0:0:
233,283,82553,1,2,0:2:0:0:
164,329,82661,5,2,0:2:0:0:
217,297,82770,1,2,0:2:0:0:
279,297,82879,1,2,1:2:0:0:
332,327,82987,1,2,0:2:0:0:
357,383,83096,5,2,1:2:0:0:
328,353,83205,1,2,0:2:0:0:
321,311,83314,1,2,1:2:0:0:
334,272,83422,1,2,0:2:0:0:
366,245,83531,6,0,B|308:256|258:230|252:198|279:162|321:185,1,172.5,2|0,1:2|0:0,0:0:0:0:
428,31,83966,6,0,L|339:39,3,68.9999978942872,2|0|0|0,3:2|0:0|0:0|0:0,0:0:0:0:
113,104,84401,2,0,L|202:112,1,68.9999978942872,10|0,3:2|0:0,0:0:0:0:
350,227,84618,2,0,L|418:220,1,68.9999978942872,0|0,1:0|0:0,0:0:0:0:
429,196,84835,2,0,L|340:204,3,68.9999978942872,2|0|0|0,3:2|0:0|0:0|0:0,0:0:0:0:
114,273,85270,2,0,L|203:281,3,68.9999978942872,10|0|0|0,3:2|0:0|0:0|0:0,0:0:0:0:
346,384,85705,6,0,L|352:315,1,68.9999978942872,6|0,3:2|0:0,0:0:0:0:
185,98,85922,2,0,L|191:166,1,68.9999978942872,4|0,0:2|0:0,0:0:0:0:
343,68,86140,2,0,L|349:0,1,68.9999978942872,10|0,3:2|0:0,0:0:0:0:
462,106,86357,2,0,L|468:174,1,68.9999978942872,0|0,0:0|0:0,0:0:0:0:
262,236,86574,2,0,L|330:229,3,68.9999978942872,2|0|0|0,3:2|0:0|0:0|0:0,0:0:0:0:
51,76,87009,6,0,P|79:160|131:62,1,258.75000987053,12|0,3:1|0:0,0:0:0:0:
268,12,87444,5,6,3:2:0:0:
270,32,87553,1,0,0:0:0:0:
272,52,87662,1,0,0:0:0:0:
274,72,87770,1,0,0:0:0:0:
363,128,87879,5,10,3:2:0:0:
365,108,87987,1,0,0:0:0:0:
445,33,88096,5,0,1:0:0:0:
447,53,88205,1,0,0:0:0:0:
449,73,88314,1,2,3:2:0:0:
451,93,88422,1,0,0:0:0:0:
454,113,88531,1,0,0:0:0:0:
457,133,88640,1,0,0:0:0:0:
512,203,88748,5,10,3:2:0:0:
510,223,88857,1,0,0:0:0:0:
508,243,88966,1,0,0:0:0:0:
506,263,89074,1,0,0:0:0:0:
415,325,89183,5,6,3:2:0:0:
394,327,89292,1,0,0:0:0:0:
332,381,89401,5,4,0:2:0:0:
311,379,89510,1,0,0:0:0:0:
238,329,89618,6,0,L|166:333,1,68.9999978942872,10|0,3:2|0:0,0:0:0:0:
39,382,89835,2,0,L|43:300,1,68.9999978942872,0|0,0:0|0:0,0:0:0:0:
30,173,90053,6,0,P|92:181|143:175,1,97.7500018644333,0|0,0:0|0:0,0:0:0:0:
203,0,90270,2,0,P|220:45|242:89,1,97.7500018644333,0|0,0:0|0:0,0:0:0:0:
449,74,90487,2,0,P|406:96|368:126,1,97.7500018644333,0|0,0:0|0:0,0:0:0:0:
427,340,90705,2,0,P|392:305|351:278,1,97.7500018644333,0|0,0:0|0:0,0:0:0:0:
64,352,90922,6,0,L|82:268,3,68.9999978942872,6|0|0|0,0:0|0:0|0:0|0:0,0:0:0:0:
163,41,91357,2,0,L|181:125,1,68.9999978942872,10|0,3:2|0:0,0:0:0:0:
271,277,91574,2,0,L|256:344,1,68.9999978942872,0|0,1:0|0:0,0:0:0:0:
229,350,91792,2,0,L|247:266,3,68.9999978942872,2|0|0|0,3:2|0:0|0:0|0:0,0:0:0:0:
333,41,92227,2,0,L|351:125,3,68.9999978942872,10|0|0|0,3:2|0:0|0:0|0:0,0:0:0:0:
463,261,92661,6,0,L|379:279,1,68.9999978942872,6|0,3:2|0:0,0:0:0:0:
161,164,92879,2,0,L|245:146,1,68.9999978942872,4|0,0:2|0:0,0:0:0:0:
91,351,93096,2,0,L|73:267,3,68.9999978942872,10|0|0|0,3:2|0:0|0:0|0:0,0:0:0:0:
274,220,93531,2,0,L|285:134,3,68.9999978942872,2|0|0|0,3:2|0:0|0:0|0:0,0:0:0:0:
480,216,93966,2,0,L|520:140,3,68.9999978942872,12|0|0|0,3:1|0:0|0:0|0:0,0:0:0:0:
347,289,94401,5,0,0:0:0:0:
324,299,96792,6,0,P|337:343|386:390,1,103.499996841431,0|0,0:0|0:0,0:0:0:0:
252,100,97009,2,0,P|268:53|256:-7,1,103.499996841431,0|0,0:0|0:0,0:0:0:0:
192,300,97227,2,0,P|151:328|126:382,1,103.499996841431,0|0,0:0|0:0,0:0:0:0:
448,150,97444,2,0,P|404:172|345:169,1,103.499996841431,4|0,0:0|0:0,0:0:0:0:
58,141,97661,2,0,P|108:148|156:189,1,103.499996841431,4|0,0:0|0:0,0:0:0:0:
292,321,97879,6,0,P|291:277|299:238,3,77.6250002961159,0|0|0|0,3:2|0:0|0:0|0:0,0:0:0:0:
251,53,98314,2,0,P|252:97|244:136,3,77.6250002961159,8|0|0|0,3:2|0:0|0:0|0:0,0:0:0:0:
113,216,98748,2,0,P|151:215|190:222,1,77.6250002961159,0|0,3:2|0:0,0:0:0:0:
428,155,98966,2,0,P|390:156|352:150,1,77.6250002961159,2|0,0:3|0:0,0:0:0:0:
352,338,99183,2,0,P|428:304|484:227,1,155.250000592232,8|0,3:2|0:0,0:0:0:0:
363,51,99509,5,0,0:0:0:0:
346,59,99618,2,0,P|339:95|338:136,1,77.6250002961159,0|0,3:0|0:0,0:0:0:0:
241,312,99835,2,0,B|195:323|195:323|147:314,1,92,2|0,0:1|0:0,0:0:0:0:
143,140,100053,1,8,3:2:0:0:
157,147,100161,2,0,B|186:189|186:189|192:240,2,92,0|0|0,0:0|0:0|0:0,0:0:0:0:
319,62,100487,1,2,3:1:0:0:
305,70,100596,2,0,B|254:74|254:74|206:53,2,92,0|2|0,0:0|0:1|0:0,0:0:0:0:
421,344,100922,6,0,L|397:237,1,92,10|0,3:1|0:0,0:0:0:0:
91,344,101140,2,0,L|115:237,1,92,0|0,0:0|0:0,0:0:0:0:
200,28,101357,6,0,P|187:78|194:130,3,77.6250002961159,0|0|0|0,3:0|0:0|0:0|0:0,0:0:0:0:
400,254,101792,2,0,P|413:204|406:152,3,77.6250002961159,8|0|0|0,3:2|0:0|0:0|0:0,0:0:0:0:
235,321,102227,2,0,P|189:346|133:352,1,77.6250002961159,0|0,3:0|0:0,0:0:0:0:
33,201,102444,2,0,P|76:215|122:215,1,77.6250002961159,2|0,0:3|0:0,0:0:0:0:
271,38,102661,2,0,P|217:89|110:111,1,155.250000592232,12|0,3:2|0:0,0:0:0:0:
313,125,102987,5,0,0:0:0:0:
330,133,103096,2,0,P|337:169|338:210,1,77.6250002961159,0|0,3:2|0:0,0:0:0:0:
267,365,103314,2,0,L|266:274,1,77.6250002961159,0|0,0:0|0:0,0:0:0:0:
179,239,103531,5,8,3:2:0:0:
163,236,103640,1,0,0:0:0:0:
147,233,103748,1,0,0:0:0:0:
131,230,103857,1,0,0:0:0:0:
82,149,103966,5,0,3:2:0:0:
98,146,104075,1,0,0:0:0:0:
114,143,104183,1,0,0:0:0:0:
130,140,104292,1,0,0:0:0:0:
216,67,104401,6,0,B|282:88|326:63|326:63|306:57|293:62,1,129.375004935265,8|0,3:2|0:0,0:0:0:0:
428,205,104835,6,0,P|443:157|444:121,3,77.6250002961159,6|0|0|0,3:2|0:0|0:0|0:0,0:0:0:0:
272,300,105270,2,0,P|257:252|256:216,3,77.6250002961159,8|0|0|0,3:2|0:0|0:0|0:0,0:0:0:0:
71,192,105705,2,0,P|118:189|156:172,1,77.6250002961159,0|0,3:2|0:0,0:0:0:0:
254,20,105922,2,0,P|233:62|228:103,1,77.6250002961159,2|0,0:3|0:0,0:0:0:0:
347,241,106140,1,8,3:2:0:0:
471,62,106357,6,0,P|473:110|466:160,1,92,2|0,0:1|0:0,0:0:0:0:
332,261,106574,2,0,L|431:276,1,92,2|0,3:1|0:0,0:0:0:0:
317,280,106792,2,0,L|416:295,1,92,2|0,0:1|0:0,0:0:0:0:
183,345,107009,2,0,L|92:358,1,92,8|0,3:2|0:0,0:0:0:0:
168,326,107227,2,0,L|77:339,1,92,2|0,0:1|0:0,0:0:0:0:
156,75,107444,6,0,B|114:129|113:214|156:259|221:251|243:215|228:169,1,276,0|0,3:1|0:0,0:0:0:0:
369,153,107879,2,0,B|411:99|412:14|369:-31|304:-23|282:13|297:59,1,276,10|0,3:1|0:0,0:0:0:0:
306,213,108314,5,2,3:2:0:0:
323,237,108422,1,0,0:0:0:0:
349,251,108531,2,0,P|400:253|438:232,1,80.499997543335,0|0,0:0|0:0,0:0:0:0:
287,353,108748,1,8,3:2:0:0:
270,329,108856,1,0,0:0:0:0:
244,315,108965,2,0,P|193:313|155:334,1,80.499997543335,0|0,0:0|0:0,0:0:0:0:
43,365,109183,6,0,L|36:274,1,80.499997543335,0|0,3:2|0:0,0:0:0:0:
14,201,109401,2,0,L|7:110,1,80.499997543335,2|0,0:3|0:0,0:0:0:0:
153,0,109618,2,0,L|146:91,1,80.499997543335,8|0,3:2|0:0,0:0:0:0:
124,164,109836,2,0,L|117:255,1,80.499997543335,0|0,0:0|0:0,0:0:0:0:
261,377,110053,6,0,L|254:286,1,80.499997543335,2|0,3:2|0:0,0:0:0:0:
232,213,110271,2,0,L|225:122,1,80.499997543335,0|0,0:0|0:0,0:0:0:0:
370,23,110488,2,0,L|363:114,1,80.499997543335,8|0,3:2|0:0,0:0:0:0:
334,267,110706,2,0,L|341:187,1,80.499997543335,4|0,0:3|0:0,0:0:0:0:
225,0,110922,6,0,P|214:51|223:102,1,103.499996841431,0|0,0:0|0:0,0:0:0:0:
92,73,111140,2,0,P|116:118|155:152,1,103.499996841431,0|0,0:0|0:0,0:0:0:0:
145,232,111357,6,0,P|93:231|45:212,1,103.499996841431,0|0,0:0|0:0,0:0:0:0:
178,307,111574,2,0,P|137:339|89:355,1,103.499996841431,0|0,0:0|0:0,0:0:0:0:
384,293,111792,6,0,L|470:306,1,86.2500032901765,2|0,3:2|0:0,0:0:0:0:
312,227,112009,2,0,L|227:240,1,86.2500032901765,0|0,0:0|0:0,0:0:0:0:
470,139,112227,2,0,L|371:124,1,86.2500032901765,8|0,3:2|0:0,0:0:0:0:
227,73,112444,2,0,L|312:60,1,86.2500032901765,0|0,0:0|0:0,0:0:0:0:
90,79,112661,6,0,L|5:92,1,86.2500032901765,0|0,3:2|0:0,0:0:0:0:
162,145,112878,2,0,L|248:158,1,86.2500032901765,2|0,0:3|0:0,0:0:0:0:
5,259,113096,2,0,L|90:246,1,86.2500032901765,8|0,3:2|0:0,0:0:0:0:
248,325,113313,2,0,L|162:312,1,86.2500032901765,0|0,0:0|0:0,0:0:0:0:
237,86,113531,6,0,P|225:133|236:189,1,92,2|0,3:1|0:0,0:0:0:0:
469,192,113748,2,0,B|434:221|434:221|382:233,1,92,2|0,0:1|0:0,0:0:0:0:
397,54,113966,2,0,B|439:69|439:69|471:103,1,92,8|0,3:2|0:0,0:0:0:0:
314,182,114183,2,0,B|306:137|306:137|319:92,1,92,2|0,0:1|0:0,0:0:0:0:
477,93,114401,2,0,B|445:58|445:58|402:43,1,92,0|0,3:1|0:0,0:0:0:0:
302,181,114618,2,0,B|294:136|294:136|308:92,1,92,2|0,0:1|0:0,0:0:0:0:
503,355,114835,1,10,3:1:0:0:
393,143,115053,1,0,0:0:0:0:
258,346,115270,6,0,L|362:317,1,97.7500018644333,2|0,3:2|0:0,0:0:0:0:
300,194,115487,2,0,L|220:250,1,97.7500018644333,0|0,0:0|0:0,0:0:0:0:
153,175,115705,2,0,L|214:85,1,97.7500018644333,8|0,3:2|0:0,0:0:0:0:
88,28,115922,2,0,L|63:122,1,97.7500018644333,0|0,0:0|0:0,0:0:0:0:
33,362,116140,6,0,L|59:257,1,97.7500018644333,0|0,3:2|0:0,0:0:0:0:
169,274,116357,2,0,L|179:381,1,97.7500018644333,2|0,0:3|0:0,0:0:0:0:
325,347,116575,2,0,L|278:250,1,97.7500018644333,8|0,3:2|0:0,0:0:0:0:
378,193,116792,2,0,L|454:268,1,97.7500018644333,0|0,0:0|0:0,0:0:0:0:
375,68,117009,6,0,L|305:0,1,97.7500018644333,2|0,3:2|0:0,0:0:0:0:
137,103,117227,2,0,L|206:34,1,97.7500018644333,0|0,0:0|0:0,0:0:0:0:
352,211,117444,2,0,L|308:124,1,97.7500018644333,8|0,3:2|0:0,0:0:0:0:
162,292,117661,2,0,L|205:205,1,97.7500018644333,0|0,0:0|0:0,0:0:0:0:
404,297,117879,6,0,B|416:264|456:249|515:247|557:303|544:375|453:483|366:475|313:164|256:152|203:164|153:482|1:434|-22:298|9:256|62:256,1,724.499977890015,0|0,3:2|0:0,0:0:0:0:
256,192,118748,12,2,122118,3:2:0:0:
265,309,122227,6,0,L|281:171,2,120.749996315003,0|0|0,3:0|0:0|0:0,0:0:0:0:
451,285,122661,1,8,3:0:0:0:
431,282,122770,1,0,0:0:0:0:
410,279,122879,1,0,0:0:0:0:
391,277,122987,1,0,0:0:0:0:
381,186,123096,5,0,3:0:0:0:
349,191,123205,1,0,0:0:0:0:
317,195,123314,1,0,0:0:0:0:
286,199,123422,1,0,0:0:0:0:
312,317,123531,5,8,3:0:0:0:
265,309,123640,1,0,0:0:0:0:
217,303,123749,1,0,0:0:0:0:
170,297,123857,1,0,0:0:0:0:
118,222,123966,6,0,B|99:184|123:81|215:96|238:215|170:332|170:332|349:234|338:403|515:308,1,689.999978942872,2|0,0:1|0:0,0:0:0:0:
508,303,125270,1,0,0:0:0:0:
256,192,129183,12,0,132553,0:0:0:0:
212,108,132661,6,0,P|182:133|166:191,1,91.9999971923829,4|0,0:3|0:0,0:0:0:0:
155,17,132951,1,4,0:3:0:0:
114,230,133096,2,0,P|131:142|206:95,1,183.999994384766,4|4,0:3|0:3,0:0:0:0:
205,272,133531,6,0,P|241:285|300:270,1,91.9999971923829,4|0,0:3|0:0,0:0:0:0:
154,366,133821,1,4,0:3:0:0:
360,294,133966,2,0,P|275:322|196:281,1,183.999994384766,4|4,0:3|0:3,0:0:0:0:
350,195,134401,6,0,P|344:157|301:114,1,91.9999971923829,4|0,0:3|0:0,0:0:0:0:
458,192,134690,1,4,0:3:0:0:
291,50,134836,2,0,P|360:107|362:197,1,183.999994384766,4|4,0:3|0:3,0:0:0:0:
245,321,135198,1,0,0:0:0:0:
236,308,135270,6,0,P|299:289|411:336,1,183.999994384766,4|4,0:3|0:3,0:0:0:0:
277,251,135705,2,0,P|267:277|244:296,1,45.9999985961914,4|0,0:3|0:0,0:0:0:0:
235,304,136140,6,0,P|195:304|142:281,1,91.9999971923829,6|0,0:3|0:0,0:0:0:0:
10,218,136430,1,4,0:3:0:0:
141,87,136574,2,0,L|136:274,1,183.999994384766,4|4,0:3|0:3,0:0:0:0:
169,6,137009,6,0,P|209:6|262:29,1,91.9999971923829,4|0,0:3|0:0,0:0:0:0:
394,92,137299,1,4,0:3:0:0:
263,223,137444,2,0,L|268:36,1,183.999994384766,4|4,0:3|0:3,0:0:0:0:
287,309,137879,6,0,P|327:309|380:286,1,91.9999971923829,4|0,0:3|0:0,0:0:0:0:
512,223,138169,1,4,0:3:0:0:
381,92,138313,2,0,L|386:279,1,183.999994384766,4|4,0:3|0:3,0:0:0:0:
240,377,138676,5,0,0:0:0:0:
228,367,138748,2,0,L|233:180,1,183.999994384766,4|4,0:3|0:3,0:0:0:0:
126,297,139183,2,0,L|189:301,1,45.9999985961914,4|0,0:3|0:0,0:0:0:0:
199,301,139618,6,0,P|202:246|185:195,1,91.9999971923829,6|0,0:3|0:0,0:0:0:0:
77,149,139908,1,4,0:3:0:0:
203,327,140053,2,0,P|274:376|378:356,1,183.999994384766,4|4,0:3|0:3,0:0:0:0:
437,182,140487,6,0,P|387:206|352:247,1,91.9999971923829,4|0,0:3|0:0,0:0:0:0:
366,363,140777,1,4,0:3:0:0:
457,165,140922,2,0,P|463:79|394:-1,1,183.999994384766,4|4,0:3|0:3,0:0:0:0:
214,35,141357,6,0,P|260:65|312:75,1,91.9999971923829,4|0,0:3|0:0,0:0:0:0:
406,5,141647,1,4,0:3:0:0:
189,25,141792,2,0,P|111:61|76:162,1,183.999994384766,4|4,0:3|0:3,0:0:0:0:
168,301,142154,5,0,0:0:0:0:
152,304,142227,2,0,P|138:229|213:142,1,183.999994384766,4|4,0:3|0:3,0:0:0:0:
208,340,142661,2,0,P|179:333|157:308,1,45.9999985961914,4|0,0:3|0:0,0:0:0:0:
152,304,143096,6,0,P|170:247|126:64,1,245.333333333333,6|4,0:3|0:3,0:0:0:0:
318,323,143531,2,0,P|310:263|193:116,1,245.333333333333,4|4,0:3|0:3,0:0:0:0:
480,266,143966,2,0,P|447:215|279:131,1,245.333333333333,4|4,0:3|0:3,0:0:0:0:
204,359,144401,2,0,P|244:305|217:187,1,184,4|0,0:3|0:0,0:0:0:0:
200,120,144690,2,0,P|196:148|203:184,1,61.3333333333333,4|0,0:3|0:0,0:0:0:0:
357,57,144835,6,0,P|298:96|139:41,1,245.333333333333,4|4,0:3|0:3,0:0:0:0:
452,111,145270,2,0,P|407:192|325:246,1,184,4|0,0:3|0:0,0:0:0:0:
201,180,145560,2,0,P|246:191|277:214,1,61.3333333333333,4|0,0:3|0:0,0:0:0:0:
157,377,145705,2,0,P|110:338|119:203,1,184,4|0,0:3|0:0,0:0:0:0:
202,119,145995,2,0,P|206:147|199:183,1,61.3333333333333,4|0,0:3|0:0,0:0:0:0:
33,71,146140,2,0,P|145:118|103:5,1,306.666666666667,4|0,0:3|0:0,0:0:0:0:
261,29,146574,5,6,0:3:0:0:
381,203,146719,1,0,0:0:0:0:
281,145,146864,1,4,0:3:0:0:
463,188,147009,2,0,P|448:256|338:275,1,184,4|0,0:3|0:0,0:0:0:0:
278,382,147299,2,0,P|279:351|269:322,1,61.3333333333333,4|0,0:3|0:0,0:0:0:0:
180,104,147444,5,4,0:3:0:0:
105,248,147589,1,0,0:0:0:0:
281,145,147734,1,4,0:3:0:0:
45,101,147879,2,0,P|138:80|194:3,1,184,4|0,0:3|0:0,0:0:0:0:
194,162,148169,2,0,P|180:127|185:84,1,61.3333333333333,4|0,0:3|0:0,0:0:0:0:
351,62,148314,5,6,0:3:0:0:
251,232,148459,1,0,0:0:0:0:
379,158,148603,1,4,0:3:0:0:
272,362,148748,2,0,P|263:290|162:256,1,184,4|0,0:3|0:0,0:0:0:0:
33,323,149038,2,0,P|68:327|103:314,1,61.3333333333333,4|0,0:3|0:0,0:0:0:0:
82,115,149183,5,4,0:3:0:0:
181,345,149328,1,0,0:0:0:0:
73,202,149473,1,4,0:3:0:0:
315,185,149618,2,0,P|258:252|156:248,1,184,4|0,0:3|0:0,0:0:0:0:
192,106,149908,2,0,P|185:135|188:166,1,61.3333333333333,4|0,0:3|0:0,0:0:0:0:
378,299,150053,5,6,0:3:0:0:
276,109,150198,1,0,0:0:0:0:
280,265,150343,1,4,0:3:0:0:
445,190,150487,2,0,P|503:253|492:363,1,184,4|0,0:3|0:0,0:0:0:0:
403,384,150777,2,0,P|380:378|342:376,1,61.3333333333333,4|0,0:3|0:0,0:0:0:0:
180,250,150922,5,4,0:3:0:0:
378,299,151067,1,0,0:0:0:0:
251,353,151212,1,4,0:3:0:0:
353,171,151357,2,0,P|356:104|279:154,1,184,4|0,0:3|0:0,0:0:0:0:
175,150,151647,2,0,P|143:153|104:137,1,61.3333333333333,4|0,0:3|0:0,0:0:0:0:
7,1,151792,5,6,0:3:0:0:
212,75,151937,1,0,0:0:0:0:
34,99,152082,1,4,0:3:0:0:
126,313,152227,2,0,P|175:249|162:124,1,184,4|0,0:3|0:0,0:0:0:0:
285,222,152516,2,0,P|275:188|278:157,1,61.3333333333333,0|0,0:0|0:0,0:0:0:0:
475,34,152661,5,4,0:3:0:0:
380,218,152806,1,0,0:0:0:0:
364,68,152951,1,4,0:3:0:0:
493,311,153096,2,0,P|426:261|324:292,1,184,4|0,0:3|0:0,0:0:0:0:
240,371,153386,2,0,P|274:374|301:369,1,61.3333333333333,4|0,0:3|0:0,0:0:0:0:
250,182,153531,5,6,0:3:0:0:
330,34,153676,2,0,P|286:21|241:20,1,68.9999978942872,4|0,0:3|0:0,0:0:0:0:
134,58,153821,2,0,P|113:85|98:116,1,68.9999978942872,4|0,0:3|0:0,0:0:0:0:
97,251,153966,2,0,P|116:279|142:302,1,68.9999978942872,4|0,0:3|0:0,0:0:0:0:
270,346,154111,2,0,P|302:334|332:318,1,68.9999978942872,4|0,0:3|0:0,0:0:0:0:
413,211,154256,2,0,P|412:176|405:142,1,68.9999978942872,4|0,0:3|0:0,0:0:0:0:
250,182,154401,5,6,0:3:0:0:
119,303,154545,2,0,P|99:275|93:242,1,68.9999978942872,4|0,0:3|0:0,0:0:0:0:
90,90,154690,2,0,P|111:63|142:47,1,68.9999978942872,4|0,0:3|0:0,0:0:0:0:
285,0,154835,2,0,P|317:10|343:34,1,68.9999978942872,4|0,0:3|0:0,0:0:0:0:
432,154,154980,2,0,P|431:188|418:220,1,68.9999978942872,4|0,0:3|0:0,0:0:0:0:
329,342,155125,2,0,P|297:352|263:349,1,68.9999978942872,4|0,0:3|0:0,0:0:0:0:
250,182,155270,5,6,0:3:0:0:
189,74,155415,2,0,P|162:48|132:38,1,68.9999978942872,4|0,0:3|0:0,0:0:0:0:
240,299,155560,2,0,P|248:335|266:361,1,68.9999978942872,4|0,0:3|0:0,0:0:0:0:
331,87,155705,2,0,P|345:53|346:21,1,68.9999978942872,4|0,0:3|0:0,0:0:0:0:
133,205,155850,2,0,P|101:222|81:248,1,68.9999978942872,4|0,0:3|0:0,0:0:0:0:
362,226,155995,2,0,P|397:230|428:221,1,68.9999978942872,4|0,0:3|0:0,0:0:0:0:
172,83,156140,6,0,P|140:61|109:55,1,68.9999978942872,6|0,0:3|0:0,0:0:0:0:
258,301,156285,2,0,P|270:336|292:359,1,68.9999978942872,4|0,0:3|0:0,0:0:0:0:
318,74,156430,2,0,P|328:37|324:6,1,68.9999978942872,4|0,0:3|0:0,0:0:0:0:
136,223,156574,2,0,P|105:246|90:274,1,68.9999978942872,4|0,0:3|0:0,0:0:0:0:
370,210,156719,2,0,P|407:209|436:195,1,68.9999978942872,4|0,0:3|0:0,0:0:0:0:
250,182,156864,1,4,0:3:0:0:
250,182,157009,6,0,B|253:123|180:42|180:42|159:172|22:132|3:304|3:304|106:408|132:302|240:365|240:365|253:235|339:280|338:170|338:170|408:229|386:328,1,1126.99996560669,0|0,0:0|0:0,0:0:0:0:
466,72,160487,6,0,P|397:94|249:38,1,230.000008773804,2|0,0:0|0:0,0:0:0:0:
95,152,160922,2,0,P|164:174|312:118,1,230.000008773804,2|0,0:0|0:0,0:0:0:0:
469,233,161357,2,0,P|400:255|252:199,1,230.000008773804,2|0,0:0|0:0,0:0:0:0:
128,312,161792,2,0,P|210:318|300:268,1,172.500006580353,2|0,0:0|0:0,0:0:0:0:
399,357,162082,2,0,P|367:361|338:354,1,57.500002193451,2|0,0:0|0:0,0:0:0:0:
419,123,162227,6,0,P|444:211|409:348,1,230.000008773804,2|0,0:0|0:0,0:0:0:0:
298,92,162661,2,0,P|237:152|202:251,1,172.500006580353,2|0,0:0|0:0,0:0:0:0:
243,375,162951,2,0,P|259:344|260:306,1,57.500002193451,2|0,0:0|0:0,0:0:0:0:
173,66,163096,2,0,P|205:145|204:230,1,172.500006580353,14|0,0:1|0:0,0:0:0:0:
131,359,163386,2,0,P|120:325|126:288,1,57.500002193451,2|0,0:0|0:0,0:0:0:0:
311,197,163531,2,0,P|207:231|99:156,1,230.000008773804,14|0,0:1|0:0,0:0:0:0:
343,27,163966,5,6,3:2:0:0:
409,237,164111,1,0,0:0:0:0:
417,92,164256,1,0,0:0:0:0:
372,371,164401,2,0,L|395:225,1,130.333335819244,2|0,3:2|0:0,0:0:0:0:
353,384,164690,2,0,L|365:313,1,65.1666679096222,4|0,0:3|0:0,0:0:0:0:
261,27,164835,5,2,3:2:0:0:
195,237,164980,1,0,0:0:0:0:
187,92,165125,1,0,0:0:0:0:
232,371,165270,2,0,L|209:225,1,130.333335819244,6|0,3:2|0:0,0:0:0:0:
251,384,165559,2,0,L|239:313,1,65.1666679096222,0|0,0:0|0:0,0:0:0:0:
458,168,165705,5,2,3:2:0:0:
146,168,165850,1,0,0:0:0:0:
301,96,165995,1,0,0:0:0:0:
311,331,166140,2,0,P|323:278|312:198,1,130.333335819244,2|0,3:2|0:0,0:0:0:0:
292,330,166430,2,0,P|283:290|287:255,1,65.1666679096222,4|0,0:3|0:0,0:0:0:0:
382,136,166574,6,0,P|328:179|215:129,1,195.500003728867,2|0,3:2|0:0,0:0:0:0:
171,14,166864,1,0,0:0:0:0:
49,276,167009,2,0,B|30:255|5:237|5:237|99:184|101:274|201:236,1,260.666671638489,6|0,3:1|0:0,0:0:0:0:
473,243,167444,5,6,3:2:0:0:
239,354,167589,1,0,0:0:0:0:
410,348,167734,1,0,0:0:0:0:
317,96,167879,2,0,P|315:155|351:245,1,130.333335819244,2|0,3:2|0:0,0:0:0:0:
330,105,168169,2,0,P|343:130|339:167,1,65.1666679096222,4|0,0:3|0:0,0:0:0:0:
85,243,168314,5,2,3:2:0:0:
319,354,168459,1,0,0:0:0:0:
148,348,168604,1,0,0:0:0:0:
241,96,168749,2,0,P|243:155|207:245,1,130.333335819244,6|0,3:2|0:0,0:0:0:0:
228,105,169039,2,0,P|215:130|219:167,1,65.1666679096222,0|0,0:0|0:0,0:0:0:0:
462,225,169183,6,0,P|392:202|309:223,1,153.333333333333,2|0,3:2|0:0,0:0:0:0:
305,237,169618,1,6,3:2:0:0:
38,202,169763,1,0,0:0:0:0:
156,284,169908,1,0,0:0:0:0:
125,31,170053,6,0,P|184:66|248:219,1,195.500003728867,2|0,3:2|0:0,0:0:0:0:
286,298,170343,2,0,P|291:264|311:230,1,65.1666679096222,0|0,0:0|0:0,0:0:0:0:
494,127,170487,2,0,B|434:151|373:145|373:145|317:122|317:122|327:84|368:59,1,260.666671638489,6|0,3:1|0:0,0:0:0:0:
417,291,170922,5,6,3:2:0:0:
149,273,171067,1,0,0:0:0:0:
279,363,171212,1,0,0:0:0:0:
36,194,171357,2,0,P|98:190|162:165,1,130.333335819244,2|0,3:2|0:0,0:0:0:0:
23,182,171647,2,0,P|61:178|87:163,1,65.1666679096222,4|0,0:3|0:0,0:0:0:0:
399,111,171792,5,2,3:2:0:0:
141,67,171937,1,0,0:0:0:0:
283,193,172082,1,0,0:0:0:0:
46,286,172227,2,0,P|109:276|176:287,1,130.333335819244,6|0,3:2|0:0,0:0:0:0:
37,300,172517,2,0,P|74:296|103:305,1,65.1666679096222,0|0,0:0|0:0,0:0:0:0:
363,357,172661,5,2,3:2:0:0:
331,62,172806,1,0,0:0:0:0:
293,216,172951,1,0,0:0:0:0:
499,333,173096,2,0,P|478:268|428:218,1,130.333335819244,2|0,3:2|0:0,0:0:0:0:
488,346,173386,2,0,P|469:301|440:267,1,65.1666679096222,4|0,0:3|0:0,0:0:0:0:
198,254,173531,6,0,P|258:306|378:278,1,195.500003728867,2|0,3:2|0:0,0:0:0:0:
398,155,173821,1,0,0:0:0:0:
193,38,173966,2,0,B|159:89|176:145|176:145|144:94|86:86|62:144|91:166,1,260.666671638489,6|0,3:1|0:0,0:0:0:0:
124,361,174401,6,0,P|171:275|351:223,1,260.666671638489,6|0,3:2|0:0,0:0:0:0:
349,384,174835,2,0,P|320:291|156:202,1,260.666671638489,2|4,3:2|0:3,0:0:0:0:
42,320,175270,2,0,P|56:223|208:112,1,260.666671638489,2|0,3:2|0:0,0:0:0:0:
429,351,175705,2,0,P|434:253|357:148,1,195.500003728867,6|0,3:2|0:0,0:0:0:0:
228,221,175995,2,0,P|259:237|296:239,1,65.1666679096222,0|0,0:0|0:0,0:0:0:0:
407,122,176140,6,0,P|288:124|271:6,1,260.666671638489,2|0,3:2|0:0,0:0:0:0:
76,140,176574,2,0,P|159:100|156:8,1,195.500003728867,0|0,0:0|0:0,0:0:0:0:
17,51,176864,2,0,P|54:50|101:66,1,65.1666679096222,0|0,0:0|0:0,0:0:0:0:
148,326,177009,2,0,P|168:216|241:153,1,195.500003728867,6|0,3:2|0:0,0:0:0:0:
302,310,177299,2,0,P|267:317|235:311,1,65.1666679096222,0|0,0:0|0:0,0:0:0:0:
371,77,177444,6,0,B|374:147|374:147|406:182|406:182|411:267,1,191.666666666667,8|0,3:1|0:0,0:0:0:0:
148,326,177879,5,6,3:2:0:0:
325,216,178024,1,0,0:0:0:0:
125,156,178169,1,0,0:0:0:0:
208,244,178314,1,2,3:2:0:0:
208,237,178459,1,0,0:0:0:0:
208,230,178603,1,4,0:3:0:0:
410,29,178748,5,2,3:2:0:0:
233,139,178893,1,0,0:0:0:0:
436,183,179038,1,0,0:0:0:0:
350,111,179183,1,6,3:2:0:0:
350,118,179328,1,0,0:0:0:0:
350,125,179472,1,0,0:0:0:0:
265,345,179618,5,2,3:2:0:0:
233,139,179763,1,0,0:0:0:0:
96,296,179908,1,0,0:0:0:0:
201,256,180053,1,2,3:2:0:0:
201,249,180198,1,0,0:0:0:0:
201,242,180342,1,4,0:3:0:0:
10,71,180487,6,0,P|126:94|198:65,1,195.500003728867,2|0,3:2|0:0,0:0:0:0:
355,42,180777,2,0,P|328:30|280:32,1,65.1666679096222,0|0,0:0|0:0,0:0:0:0:
385,254,180922,2,0,B|419:201|427:112|427:112|434:182|471:242,1,260.666671638489,6|0,3:1|0:0,0:0:0:0:
272,334,181357,5,6,3:2:0:0:
22,177,181502,1,0,0:0:0:0:
203,290,181647,1,0,0:0:0:0:
115,161,181792,1,2,3:2:0:0:
117,167,181937,1,0,0:0:0:0:
119,173,182082,1,4,0:3:0:0:
287,235,182227,5,2,3:2:0:0:
451,189,182372,1,0,0:0:0:0:
472,32,182516,1,0,0:0:0:0:
308,78,182661,1,6,3:2:0:0:
313,74,182806,1,0,0:0:0:0:
318,70,182951,1,0,0:0:0:0:
175,48,183096,5,2,3:2:0:0:
345,161,183241,1,0,0:0:0:0:
390,321,183386,1,0,0:0:0:0:
214,219,183531,1,2,3:2:0:0:
217,213,183676,1,0,0:0:0:0:
220,208,183821,1,0,0:0:0:0:
88,37,183966,6,0,P|64:107|112:223,1,195.500003728867,2|0,3:2|0:0,0:0:0:0:
249,310,184256,2,0,P|206:312|179:305,1,65.1666679096222,0|0,0:0|0:0,0:0:0:0:
233,118,184401,1,4,3:1:0:0:
230,124,184545,1,0,0:0:0:0:
227,130,184690,1,0,0:0:0:0:
499,46,184835,5,6,3:2:0:0:
304,64,184980,1,0,0:0:0:0:
399,108,185125,1,0,0:0:0:0:
32,112,185270,5,2,3:2:0:0:
227,130,185415,1,0,0:0:0:0:
132,174,185560,1,4,0:3:0:0:
334,290,185705,1,2,3:2:0:0:
333,283,185850,1,0,0:0:0:0:
332,276,185995,1,0,0:0:0:0:
172,360,186140,5,6,3:2:0:0:
190,283,186285,1,0,0:0:0:0:
208,207,186430,1,0,0:0:0:0:
430,53,186574,1,2,3:2:0:0:
227,130,186719,1,0,0:0:0:0:
431,198,186864,1,0,0:0:0:0:
168,35,187009,1,2,3:2:0:0:
169,42,187154,1,0,0:0:0:0:
170,49,187299,1,4,0:3:0:0:
40,226,187444,6,0,P|138:205|257:260,1,195.500003728867,2|0,3:2|0:0,0:0:0:0:
168,382,187734,2,0,P|133:359|113:333,1,65.1666679096222,0|0,0:0|0:0,0:0:0:0:
326,279,187879,2,0,B|395:283|445:324|445:324|413:249|459:190,1,260.666671638489,6|0,3:1|0:0,0:0:0:0:
507,56,188314,6,0,P|388:59|251:-2,1,260.666671638489,6|0,3:2|0:0,0:0:0:0:
13,70,188748,2,0,P|132:67|269:128,1,260.666671638489,2|4,3:2|0:3,0:0:0:0:
512,161,189183,2,0,P|399:123|291:18,1,260.666671638489,2|0,3:2|0:0,0:0:0:0:
88,143,189618,2,0,P|202:178|265:235,1,195.500003728867,6|0,3:2|0:0,0:0:0:0:
183,364,189908,2,0,P|185:315|199:289,1,65.1666679096222,0|0,0:0|0:0,0:0:0:0:
410,312,190053,6,0,L|414:245,1,38.3333333333333,4|0,0:3|0:0,0:0:0:0:
393,319,190343,2,0,L|387:267,1,38.3333333333333,4|0,0:3|0:0,0:0:0:0:
379,325,190632,2,0,L|362:262,1,38.3333333333333,4|0,0:3|0:0,0:0:0:0:
371,187,190777,1,0,0:0:0:0:
371,187,190922,2,0,P|321:215|255:209,1,115,4|0,0:3|0:0,0:0:0:0:
180,123,191212,1,4,0:3:0:0:
180,123,191357,2,0,P|118:80|69:134,1,153.333333333333,0|0,0:0|0:0,0:0:0:0:
267,345,191792,6,0,P|289:310|290:268,1,68.9999978942872,4|0,3:2|0:0,0:0:0:0:
163,207,191937,2,0,P|182:243|218:265,1,68.9999978942872,0|0,0:0|0:0,0:0:0:0:
334,188,192082,2,0,P|292:186|255:206,1,68.9999978942872,0|0,0:0|0:0,0:0:0:0:
382,350,192227,2,0,P|423:285|420:119,1,206.999993682861,8|0,3:2|0:0,0:0:0:0:
318,44,192516,2,0,P|356:57|399:107,1,68.9999978942872,0|0,0:0|0:0,0:0:0:0:
94,124,192661,6,0,L|122:54,1,68.9999978942872,0|0,3:0|0:0,0:0:0:0:
212,178,192806,2,0,L|137:188,1,68.9999978942872,0|0,0:0|0:0,0:0:0:0:
201,48,192951,2,0,L|247:107,1,68.9999978942872,0|0,0:0|0:0,0:0:0:0:
138,271,193096,2,0,P|44:222|16:118,1,206.999993682861,12|0,3:2|0:0,0:0:0:0:
65,0,193386,2,0,P|84:34|83:76,1,68.9999978942872,0|0,0:0|0:0,0:0:0:0:
260,241,193531,6,0,P|298:240|334:222,1,68.9999978942872,0|0,3:0|0:0,0:0:0:0:
356,141,193676,2,0,P|336:108|302:86,1,68.9999978942872,0|0,0:0|0:0,0:0:0:0:
221,108,193821,2,0,P|202:141|200:181,1,68.9999978942872,0|0,0:0|0:0,0:0:0:0:
337,314,193966,2,0,P|405:268|441:139,1,206.999993682861,8|0,3:2|0:0,0:0:0:0:
385,7,194256,2,0,P|409:34|423:67,1,68.9999978942872,0|0,0:0|0:0,0:0:0:0:
87,189,194401,6,0,L|121:102,1,68.9999978942872,0|0,3:0|0:0,0:0:0:0:
221,108,194545,2,0,L|278:181,1,68.9999978942872,0|0,0:0|0:0,0:0:0:0:
226,267,194690,2,0,L|132:279,1,68.9999978942872,0|0,0:0|0:0,0:0:0:0:
56,50,194835,2,0,P|152:17|269:26,1,206.999993682861,6|0,3:1|0:0,0:0:0:0:
412,71,195125,2,0,P|371:73|341:66,1,68.9999978942872,0|0,0:0|0:0,0:0:0:0:
474,329,195270,6,0,P|483:290|478:244,1,68.9999978942872,0|0,3:0|0:0,0:0:0:0:
366,156,195415,2,0,P|365:190|373:223,1,68.9999978942872,0|0,0:0|0:0,0:0:0:0:
482,348,195560,2,0,P|491:309|486:263,1,68.9999978942872,0|0,0:0|0:0,0:0:0:0:
297,254,195705,2,0,P|225:278|86:243,1,206.999993682861,8|0,3:2|0:0,0:0:0:0:
14,342,195995,2,0,P|62:344|84:338,1,68.9999978942872,0|0,0:0|0:0,0:0:0:0:
253,135,196140,6,0,L|169:143,1,68.9999978942872,0|0,3:0|0:0,0:0:0:0:
0,92,196285,2,0,L|84:100,1,68.9999978942872,0|0,0:0|0:0,0:0:0:0:
272,149,196430,2,0,L|188:157,1,68.9999978942872,0|0,0:0|0:0,0:0:0:0:
363,2,196574,2,0,P|390:84|370:216,1,206.999993682861,8|0,3:2|0:0,0:0:0:0:
422,348,196864,2,0,P|397:314|365:295,1,68.9999978942872,0|0,0:0|0:0,0:0:0:0:
163,264,197009,6,0,P|164:306|181:341,1,68.9999978942872,0|0,3:0|0:0,0:0:0:0:
272,149,197154,2,0,P|283:116|283:82,1,68.9999978942872,0|0,0:0|0:0,0:0:0:0:
147,273,197299,2,0,P|148:315|165:350,1,68.9999978942872,0|0,0:0|0:0,0:0:0:0:
437,313,197444,2,0,P|369:250|221:280,1,206.999993682861,8|0,3:2|0:0,0:0:0:0:
120,174,197734,2,0,P|165:174|195:159,1,68.9999978942872,0|0,0:0|0:0,0:0:0:0:
374,26,197879,6,0,L|366:117,1,68.9999978942872,0|0,3:0|0:0,0:0:0:0:
347,327,198024,2,0,L|353:258,1,68.9999978942872,0|0,0:0|0:0,0:0:0:0:
394,17,198169,2,0,L|386:108,1,68.9999978942872,0|0,0:0|0:0,0:0:0:0:
216,264,198314,2,0,P|269:226|246:83,1,206.999993682861,8|0,3:2|0:0,0:0:0:0:
127,25,198603,2,0,P|173:23|200:29,1,68.9999978942872,4|0,0:2|0:0,0:0:0:0:
14,169,198748,6,0,P|38:141|85:119,1,72.8333313884736,0|0,3:0|0:0,0:0:0:0:
34,243,198893,2,0,P|44:208|76:166,1,72.8333313884736,0|0,0:0|0:0,0:0:0:0:
90,299,199038,2,0,P|84:261|97:211,1,72.8333313884736,0|0,0:0|0:0,0:0:0:0:
162,328,199183,2,0,P|141:296|132:245,1,72.8333313884736,8|0,3:2|0:0,0:0:0:0:
239,326,199328,2,0,P|207:306|177:263,1,72.8333313884736,0|0,0:0|0:0,0:0:0:0:
309,291,199473,2,0,P|272:285|226:260,1,72.8333313884736,0|0,0:0|0:0,0:0:0:0:
442,0,199618,6,0,P|412:12|384:56,1,72.8333313884736,0|0,3:0|0:0,0:0:0:0:
310,1,199763,2,0,P|300:33|308:85,1,72.8333313884736,0|0,0:0|0:0,0:0:0:0:
216,88,199908,2,0,P|231:121|270:156,1,72.8333313884736,0|0,0:0|0:0,0:0:0:0:
200,215,200053,2,0,P|233:230|285:232,1,72.8333313884736,8|0,3:2|0:0,0:0:0:0:
263,321,200198,2,0,P|298:311|339:279,1,72.8333313884736,0|0,0:0|0:0,0:0:0:0:
378,362,200343,2,0,P|401:334|417:284,1,72.8333313884736,0|0,0:0|0:0,0:0:0:0:
484,108,200487,6,0,P|503:138|512:173,1,72.8333313884736,0|0,3:0|0:0,0:0:0:0:
399,141,200632,2,0,P|409:175|409:211,1,72.8333313884736,0|0,0:0|0:0,0:0:0:0:
309,150,200777,2,0,P|310:186|300:221,1,72.8333313884736,0|0,0:0|0:0,0:0:0:0:
219,136,200922,2,0,P|210:171|192:202,1,72.8333313884736,8|0,3:2|0:0,0:0:0:0:
135,99,201067,2,0,P|117:131|92:156,1,72.8333313884736,0|0,0:0|0:0,0:0:0:0:
61,43,201212,2,0,P|36:69|4:87,1,72.8333313884736,0|0,0:0|0:0,0:0:0:0:
57,310,201357,6,0,P|18:284|-8:243,1,72.8333313884736,0|0,3:0|0:0,0:0:0:0:
137,231,201502,2,0,P|116:189|113:140,1,72.8333313884736,0|0,0:0|0:0,0:0:0:0:
246,201,201647,2,0,P|249:154|270:110,1,72.8333313884736,0|0,0:0|0:0,0:0:0:0:
354,231,201792,2,0,P|379:192|420:165,1,72.8333313884736,12|0,3:2|0:0,0:0:0:0:
435,310,201937,2,0,P|476:289|525:286,1,72.8333313884736,0|0,0:0|0:0,0:0:0:0:
319,370,202082,6,0,P|280:344|330:358,1,134.16666794618,0|0,0:0|0:0,0:0:0:0:
70,40,203966,5,2,0:2:0:0:
73,93,204111,1,2,0:2:0:0:
76,146,204256,1,2,0:2:0:0:
162,261,204401,5,2,0:2:0:0:
163,222,204546,1,2,0:2:0:0:
165,184,204691,1,2,0:2:0:0:
258,147,204835,5,2,0:2:0:0:
266,231,204980,1,2,0:2:0:0:
360,321,205125,5,2,0:2:0:0:
444,179,205270,2,0,P|404:190|367:225,1,76.6666666666667,6|0,0:2|0:0,0:0:0:0:
42,41,205705,5,6,3:2:0:0:
127,34,205850,1,0,0:0:0:0:
212,27,205995,1,0,0:0:0:0:
79,163,206140,2,0,L|189:115,2,107.33333005778,8|0|0,3:2|0:0|0:0,0:0:0:0:
151,279,206574,5,0,3:0:0:0:
211,219,206719,1,0,0:0:0:0:
272,159,206864,1,0,0:0:0:0:
257,348,207009,2,0,L|310:240,2,107.33333005778,8|0|0,3:2|0:0|0:0,0:0:0:0:
473,89,207444,5,2,3:2:0:0:
359,120,207589,1,2,0:2:0:0:
246,84,207734,1,2,0:2:0:0:
26,165,207879,5,10,3:2:0:0:
105,186,208024,1,2,0:2:0:0:
184,161,208169,1,2,0:2:0:0:
304,255,208314,5,2,3:2:0:0:
247,237,208459,1,2,0:2:0:0:
361,240,208604,1,2,0:2:0:0:
409,80,208748,6,0,B|458:34|458:34|456:242,1,260.666671638489,14|0,3:2|0:0,0:0:0:0:
302,334,209183,5,2,3:1:0:0:
217,341,209328,1,0,0:0:0:0:
132,348,209473,1,0,0:0:0:0:
265,212,209618,2,0,L|155:260,2,107.33333005778,8|0|0,3:2|0:0|0:0,0:0:0:0:
193,96,210052,5,0,3:0:0:0:
133,156,210197,1,0,0:0:0:0:
72,216,210342,1,0,0:0:0:0:
87,27,210487,2,0,L|33:134,2,107.33333005778,8|0|0,3:2|0:0|0:0,0:0:0:0:
284,18,210922,5,2,3:2:0:0:
310,133,211067,1,2,0:2:0:0:
337,247,211212,1,2,0:2:0:0:
211,108,211357,5,10,3:2:0:0:
200,189,211502,1,2,0:2:0:0:
191,271,211647,1,2,0:2:0:0:
75,226,211792,5,2,3:2:0:0:
47,278,211937,1,2,0:2:0:0:
101,174,212082,1,2,0:2:0:0:
194,376,212227,6,0,B|263:364|293:300|293:300|335:357|419:357,1,260.666671638489,14|0,3:2|0:0,0:0:0:0:
367,46,212661,5,2,3:2:0:0:
356,130,212806,1,0,0:0:0:0:
345,215,212951,1,0,0:0:0:0:
239,56,213096,2,0,L|263:173,2,107.33333005778,8|0|0,3:2|0:0|0:0,0:0:0:0:
111,103,213530,5,0,3:0:0:0:
157,174,213675,1,0,0:0:0:0:
203,246,213820,1,0,0:0:0:0:
22,192,213966,2,0,L|116:266,2,107.33333005778,8|0|0,3:2|0:0|0:0,0:0:0:0:
265,350,214401,5,2,3:2:0:0:
244,234,214545,1,2,0:2:0:0:
222,117,214690,1,2,0:2:0:0:
337,0,214835,5,10,3:2:0:0:
323,81,214979,1,2,0:2:0:0:
307,162,215124,1,2,0:2:0:0:
411,177,215270,5,2,3:2:0:0:
403,137,215414,1,2,0:2:0:0:
418,218,215559,1,2,0:2:0:0:
158,290,215705,6,0,B|229:312|229:312|280:288|280:288|310:338|310:338|389:361,1,260.666671638489,14|0,3:2|0:0,0:0:0:0:
492,137,216140,5,0,3:1:0:0:
433,198,216285,1,0,0:0:0:0:
376,261,216430,1,0,0:0:0:0:
380,70,216575,2,0,L|332:180,2,107.33333005778,8|0|0,3:2|0:0|0:0,0:0:0:0:
249,36,217009,5,0,3:0:0:0:
245,120,217154,1,0,0:0:0:0:
241,205,217299,1,0,0:0:0:0:
125,57,217444,2,0,L|159:172,2,107.33333005778,8|0|0,3:2|0:0|0:0,0:0:0:0:
24,229,217879,5,2,3:2:0:0:
126,287,218024,1,2,0:2:0:0:
238,251,218169,1,2,0:2:0:0:
211,379,218314,5,10,3:2:0:0:
291,364,218459,1,2,0:2:0:0:
334,294,218604,1,2,0:2:0:0:
447,338,218748,5,2,3:2:0:0:
439,280,218893,1,2,0:2:0:0:
410,384,219038,1,2,0:2:0:0:
330,96,219183,6,0,P|384:64|359:180,1,260.666671638489,14|0,3:2|0:0,0:0:0:0:
49,81,219618,5,6,3:2:0:0:
132,67,219763,1,0,0:0:0:0:
216,51,219908,1,0,0:0:0:0:
98,201,220053,2,0,L|202:142,2,107.33333005778,8|0|0,3:2|0:0|0:0,0:0:0:0:
182,307,220487,5,0,3:0:0:0:
236,243,220632,1,0,0:0:0:0:
290,177,220777,1,0,0:0:0:0:
293,365,220922,2,0,L|335:252,2,107.33333005778,8|0|0,3:2|0:0|0:0,0:0:0:0:
484,139,221357,5,2,3:2:0:0:
372,99,221502,1,2,0:2:0:0:
260,59,221647,1,2,0:2:0:0:
104,207,221792,5,10,3:2:0:0:
182,179,221937,1,2,0:2:0:0:
260,151,222082,1,2,0:2:0:0:
316,263,222227,5,2,3:2:0:0:
260,243,222372,1,2,0:2:0:0:
372,283,222517,1,2,0:2:0:0:
83,384,222661,6,0,B|171:282|171:282|34:272,1,268.33332514445,14|0,3:2|0:0,0:0:0:0:
0,313,223096,5,2,3:2:0:0:
7,196,223241,1,2,0:2:0:0:
15,79,223386,1,2,0:2:0:0:
84,295,223531,5,10,3:2:0:0:
103,216,223676,1,2,0:2:0:0:
122,137,223821,1,2,0:2:0:0:
164,280,223966,5,2,3:2:0:0:
187,226,224111,1,0,0:0:0:0:
211,173,224256,1,0,0:0:0:0:
111,0,224401,6,0,B|53:-11|18:52|49:122|133:143|210:64,1,260.666671638489,0|0,0:0|0:0,0:0:0:0:
392,37,224835,5,2,3:2:0:0:
385,154,224980,1,2,0:2:0:0:
377,271,225125,1,2,0:2:0:0:
308,55,225270,5,10,3:2:0:0:
289,134,225415,1,2,0:2:0:0:
270,213,225560,1,2,0:2:0:0:
204,123,225705,5,2,3:2:0:0:
181,177,225850,1,2,0:2:0:0:
228,70,225995,1,2,0:2:0:0:
89,324,226140,6,0,B|159:290|159:290|143:204|13:214|-2:315,1,293.2500055933,14|0,3:2|0:0,0:0:0:0:
219,355,226574,5,2,3:2:0:0:
256,192,226647,12,0,229908,0:0:0:0:
333,275,230053,5,0,0:0:0:0:
93,290,232444,6,0,P|143:319|191:323,1,103.499996841431,0|0,0:0|0:0,0:0:0:0:
55,162,232661,2,0,P|64:220|92:258,1,103.499996841431,0|0,0:0|0:0,0:0:0:0:
126,48,232879,2,0,P|87:92|76:139,1,103.499996841431,0|0,0:0|0:0,0:0:0:0:
307,57,233096,2,0,P|248:56|205:77,1,103.499996841431,0|0,0:0|0:0,0:0:0:0:
413,219,233314,2,0,P|381:178|335:155,1,103.499996841431,0|0,0:0|0:0,0:0:0:0:
275,304,233531,6,0,P|295:269|327:247,3,77.6250002961159,0|0|0|0,3:2|0:0|0:0|0:0,0:0:0:0:
307,57,233966,2,0,P|287:92|255:114,3,77.6250002961159,8|0|0|0,3:2|0:0|0:0|0:0,0:0:0:0:
18,114,234400,2,0,P|54:124|95:120,1,77.6250002961159,0|0,3:2|0:0,0:0:0:0:
169,284,234618,2,0,P|133:294|92:290,1,77.6250002961159,2|0,0:3|0:0,0:0:0:0:
256,113,234835,2,0,P|329:144|417:121,1,155.250000592232,8|0,3:2|0:0,0:0:0:0:
430,314,235161,5,0,0:0:0:0:
413,306,235270,2,0,P|406:270|405:229,1,77.6250002961159,0|0,3:0|0:0,0:0:0:0:
235,367,235487,2,0,P|247:316|271:276,1,77.6250002961159,0|0,0:0|0:0,0:0:0:0:
332,58,235705,1,8,3:2:0:0:
322,40,235814,1,0,0:0:0:0:
306,27,235922,2,0,P|231:39|265:95,1,155.250000592232,0|0,0:0|3:0,0:0:0:0:
459,226,236248,1,0,0:0:0:0:
438,216,236357,2,0,P|399:212|360:222,1,77.6250002961159,0|0,0:0|0:0,0:0:0:0:
205,361,236574,6,0,L|315:368,1,92,10|0,3:1|0:0,0:0:0:0:
115,136,236792,2,0,L|24:142,1,92
253,91,237009,6,0,P|258:129|251:170,3,77.6250002961159,0|0|0|0,3:0|0:0|0:0|0:0,0:0:0:0:
51,338,237444,2,0,P|46:300|53:259,3,77.6250002961159,8|0|0|0,3:2|0:0|0:0|0:0,0:0:0:0:
258,183,237879,2,0,P|295:177|352:191,1,77.6250002961159,0|0,3:0|0:0,0:0:0:0:
459,361,238096,2,0,P|422:367|365:353,1,77.6250002961159,2|0,0:3|0:0,0:0:0:0:
443,125,238313,2,0,P|450:210|415:280,1,155.250000592232,12|0,3:2|0:0,0:0:0:0:
131,324,238639,5,0,0:0:0:0:
139,341,238748,2,0,P|175:348|216:349,1,77.6250002961159,0|0,3:2|0:0,0:0:0:0:
289,261,238966,1,0,0:0:0:0:
289,261,239074,1,0,0:0:0:0:
233,189,239183,5,8,3:2:0:0:
217,186,239292,1,0,0:0:0:0:
201,183,239400,1,0,0:0:0:0:
185,180,239509,1,0,0:0:0:0:
132,111,239618,5,0,3:2:0:0:
116,108,239727,1,0,0:0:0:0:
100,105,239835,1,0,0:0:0:0:
84,102,239944,1,0,0:0:0:0:
21,162,240053,6,0,B|40:219|25:272|25:272|42:264|56:246,1,129.375004935265,8|0,3:2|0:0,0:0:0:0:
237,316,240487,6,0,P|285:331|321:332,3,77.6250002961159,6|0|0|0,3:2|0:0|0:0|0:0,0:0:0:0:
320,132,240922,2,0,P|368:117|404:116,3,77.6250002961159,8|0|0|0,3:2|0:0|0:0|0:0,0:0:0:0:
189,229,241357,2,0,P|150:225|113:212,1,77.6250002961159,0|0,3:2|0:0,0:0:0:0:
204,34,241574,2,0,P|225:76|230:117,1,77.6250002961159,2|0,0:3|0:0,0:0:0:0:
237,316,241792,1,8,3:2:0:0:
431,274,242009,2,0,P|394:261|355:257,1,77.6250002961159,0|0,0:0|0:0,0:0:0:0:
119,197,242227,6,0,P|158:204|201:195,3,77.6250002961159,0|0|0|0,3:2|0:0|0:0|0:0,0:0:0:0:
387,130,242661,2,0,P|348:137|305:128,3,77.6250002961159,8|0|0|0,3:2|0:0|0:0|0:0,0:0:0:0:
281,327,243096,5,0,3:1:0:0:
278,311,243205,1,0,0:0:0:0:
275,295,243313,1,0,0:0:0:0:
272,279,243422,1,0,0:0:0:0:
192,232,243531,6,0,B|106:199|109:265|22:231,1,172.5,10|0,3:1|0:0,0:0:0:0:
3,3,243966,5,2,3:2:0:0:
50,29,244074,1,0,0:0:0:0:
78,73,244183,2,0,P|80:124|59:162,1,80.499997543335,0|0,0:0|0:0,0:0:0:0:
192,232,244401,5,8,3:2:0:0:
147,239,244509,1,0,0:0:0:0:
55,319,244618,1,0,0:0:0:0:
144,331,244727,2,0,L|248:340,1,80.499997543335,0|0,0:0|0:0,0:0:0:0:
396,357,244944,5,0,0:0:0:0:
382,302,245053,1,0,0:3:0:0:
389,246,245161,1,0,0:0:0:0:
451,183,245270,5,8,2:3:0:0:
378,157,245379,1,0,0:0:0:0:
329,96,245487,1,0,0:0:0:0:
315,72,245596,6,0,L|234:67,1,80.499997543335,0|2,0:0|3:2,0:0:0:0:
30,125,245813,1,0,0:0:0:0:
85,156,245922,1,2,0:3:0:0:
149,157,246031,1,0,0:0:0:0:
168,235,246140,5,8,3:2:0:0:
234,279,246248,1,0,0:0:0:0:
314,261,246357,6,0,P|316:210|284:161,1,103.499996841431,0|0,0:0|0:0,0:0:0:0:
404,161,246574,2,0,P|356:141|299:154,1,103.499996841431,0|0,0:0|0:0,0:0:0:0:
357,34,246792,2,0,P|316:65|299:121,1,103.499996841431,0|0,0:0|0:0,0:0:0:0:
201,16,247009,2,0,P|207:66|247:109,1,103.499996841431,0|0,0:0|0:0,0:0:0:0:
422,186,247227,1,0,0:0:0:0:
447,267,247335,1,0,0:0:0:0:
435,348,247444,6,0,B|349:267|392:108|392:108|401:-11|528:-40|568:152|392:111|392:111|231:35|250:148|95:114|95:114|-36:147|-50:-33|119:-15|95:116|95:116|112:221|16:225|70:354|70:354|191:358|210:209|210:209|218:359|337:354|337:354|304:303|298:258|292:221|291:167|308:80|343:10|343:10|258:-8|175:41,1,2415.00009212494,2|0,3:2|3:2,0:0:0:0:
168,381,254401,6,0,B|24:219|154:18|154:18|417:138|287:363|287:363|81:204|297:-8|297:-8|469:125|405:343,1,1655.99994946289,2|0,3:2|0:0,0:0:0:0:
376,151,261357,6,0,L|365:46,1,86.25,2|2,0:2|0:2,0:0:0:0:
468,151,262009,2,0,L|479:46,1,86.25,2|2,0:2|0:2,0:0:0:0:
423,240,262661,1,2,0:2:0:0:
415,248,263096,6,0,P|379:263|326:256,1,86.25,2|2,0:2|0:2,0:0:0:0:
386,129,263748,2,0,P|350:114|297:121,1,86.25,2|2,0:2|0:2,0:0:0:0:
209,239,264400,1,2,0:2:0:0:
202,229,264835,6,0,L|195:131,1,86.25,2|2,0:2|0:2,0:0:0:0:
99,37,265487,2,0,L|106:135,1,86.25,2|2,0:2|0:2,0:0:0:0:
119,275,266139,1,2,0:2:0:0:
122,286,266574,6,0,P|167:299|232:295,1,86.25,2|2,0:2|0:2,0:0:0:0:
404,287,267227,2,0,P|359:300|294:296,1,86.25,2|2,0:2|0:2,0:0:0:0:
264,140,267878,1,2,0:2:0:0:
272,131,268313,6,0,P|317:123|368:137,1,86.25,2|2,0:2|0:2,0:0:0:0:
495,243,268966,2,0,P|450:251|399:237,1,86.25,2|2,0:2|0:2,0:0:0:0:
357,46,269617,1,2,0:2:0:0:
346,41,270053,6,0,P|300:29|243:37,1,86.25,2|2,0:2|0:2,0:0:0:0:
124,87,270705,2,0,P|90:120|69:174,1,86.25,2|2,0:2|0:2,0:0:0:0:
110,327,271357,1,2,0:2:0:0:
116,336,271792,6,0,P|177:350|212:340,1,86.25,2|2,0:2|0:2,0:0:0:0:
419,229,272444,2,0,P|358:243|323:233,1,86.25,2|2,0:2|0:2,0:0:0:0:
159,134,273096,1,2,0:2:0:0:
168,127,273530,6,0,L|254:121,1,86.25,2|2,0:2|0:2,0:0:0:0:
457,55,274183,2,0,L|370:49,1,86.25,2|2,0:2|0:2,0:0:0:0:
220,320,274835,6,0,B|202:273|230:275|214:228,1,86.25,2|0,1:2|0:0,0:0:0:0:
193,159,275270,6,0,P|248:189|332:177,2,137.999995788574,6|0|0,0:2|0:0|0:0,0:0:0:0:
36,277,276574,2,0,P|83:294|134:287,1,103.499996841431,2|0,0:2|0:0,0:0:0:0:
210,236,277009,6,0,P|187:300|189:373,2,137.999995788574,2|0|0,0:2|0:0|0:0,0:0:0:0:
327,88,278313,2,0,P|347:137|341:194,1,103.499996841431,2|0,0:2|0:0,0:0:0:0:
299,262,278748,6,0,B|340:225|410:220|451:226|507:259|500:324|454:353|414:324,1,275.999991577149,2|0,0:2|0:0,0:0:0:0:
174,353,280052,2,0,P|182:303|229:264,1,103.499996841431,2|0,0:2|0:0,0:0:0:0:
312,251,280487,6,0,B|315:193|260:153|260:153|185:196|106:161,1,275.999991577149,2|0,0:2|0:0,0:0:0:0:
106,161,281792,1,2,0:0:0:0:
143,16,282227,6,0,P|65:91|182:75,1,275.999991577149,6|0,0:0|0:0,0:0:0:0:
328,181,283530,2,0,P|379:168|434:188,1,103.499996841431,2|0,0:2|0:0,0:0:0:0:
470,256,283965,6,0,L|499:120,3,137.999995788574,2|0|0|2,0:2|0:0|0:0|0:2,0:0:0:0:
382,44,285704,6,0,B|290:70|219:22|219:22|231:80|186:124,1,275.999991577149,2|0,0:2|0:0,0:0:0:0:
51,166,287009,2,0,P|81:218|94:274,1,103.499996841431,2|0,0:2|0:0,0:0:0:0:
76,345,287444,6,0,B|109:273|198:272|255:330|309:326|340:282,1,275.999991577149,2|0,0:2|0:0,0:0:0:0:
326,296,288748,5,0,0:0:0:0:
297,50,289183,6,0,B|373:50|420:114|420:114|280:116|262:238,1,345.000013160706,6|0,0:2|0:0,0:0:0:0:
77,290,290487,2,0,P|126:273|221:294,1,129.375004935265,2|0,0:2|0:0,0:0:0:0:
255,384,290922,6,0,P|243:316|272:208,2,172.500006580353,2|0|0,0:2|0:0|0:0,0:0:0:0:
380,288,292009,2,0,B|526:296|526:296|465:355,1,215.625008225441,2|0,0:2|0:0,0:0:0:0:
331,380,292661,6,0,B|388:295|322:185|322:185|312:257|251:242|260:323,1,345.000013160706,2|0,0:2|0:0,0:0:0:0:
24,212,293965,2,0,P|70:222|154:183,1,129.375004935265,2|0,0:2|0:0,0:0:0:0:
193,62,294400,6,0,B|139:157|223:209|223:209|319:186|296:73,1,345.000013160706,2|0,0:2|0:0,0:0:0:0:
296,74,295705,5,0,0:0:0:0:
128,263,296139,6,0,B|197:264|233:317|233:317|304:262|370:328|370:328|332:301|288:315,1,345.000013160706,6|0,0:0|0:0,0:0:0:0:
204,192,297443,2,0,P|201:140|248:66,1,129.375004935265,2|0,0:2|0:0,0:0:0:0:
326,40,297878,6,0,L|139:31,3,172.500006580353,2|0|0|2,0:2|0:0|0:0|0:2,0:0:0:0:
98,211,299617,6,0,P|106:136|39:62,2,172.500006580353,2|0|0,0:2|0:0|0:0,0:0:0:0:
13,352,300704,2,0,P|76:304|237:287,1,215.625008225441,2|0,0:2|0:0,0:0:0:0:
253,384,301357,6,0,B|229:234|316:269|285:149|285:149|215:139|196:218,2,345.000013160706,2|0|0,0:2|0:0|0:0,0:0:0:0:
256,192,306574,12,6,310053,0:0:0:0:
335,104,310777,5,8,0:0:0:0:
39,89,310922,2,0,L|193:106,1,137.999995788574,2|0,0:0|0:0,0:0:0:0:
23,170,311212,2,0,L|177:187,1,137.999995788574,8|0,0:0|0:0,0:0:0:0:
7,251,311502,2,0,L|161:268,1,137.999995788574,8|0,0:0|0:0,0:0:0:0:
473,89,311792,6,0,L|319:106,1,137.999995788574,2|0,0:0|0:0,0:0:0:0:
489,170,312082,2,0,L|335:187,1,137.999995788574,8|0,0:0|0:0,0:0:0:0:
505,250,312372,2,0,L|351:267,1,137.999995788574,8|0,0:0|0:0,0:0:0:0:
129,343,312661,6,0,L|186:185,1,137.999995788574,2|0,0:0|0:0,0:0:0:0:
383,343,312951,2,0,L|325:185,1,137.999995788574,8|0,0:0|0:0,0:0:0:0:
256,365,313241,1,8,0:0:0:0:
256,78,313386,1,8,0:0:0:0:
200,231,313531,6,0,B|234:241|257:229|257:229|277:240|318:230,1,115,0|0,0:2|0:0,0:0:0:0:
332,64,314256,5,8,0:0:0:0:
42,59,314401,2,0,L|202:65,1,137.999995788574,2|0,0:0|0:0,0:0:0:0:
169,149,314691,2,0,L|31:143,1,137.999995788574,8|0,0:0|0:0,0:0:0:0:
22,228,314981,2,0,L|182:234,1,137.999995788574,8|0,0:0|0:0,0:0:0:0:
352,233,315270,6,0,L|490:228,1,137.999995788574,2|0,0:0|0:0,0:0:0:0:
480,143,315560,2,0,L|343:149,1,137.999995788574,8|0,0:0|0:0,0:0:0:0:
332,64,315850,2,0,L|470:59,1,137.999995788574,8|0,0:0|0:0,0:0:0:0:
256,281,316140,6,0,L|256:132,1,137.999995788574,2|8,0:0|0:0,0:0:0:0:
131,182,316430,1,8,0:0:0:0:
381,182,316574,1,8,0:0:0:0:
69,261,316719,1,0,1:0:0:0:
443,261,316864,1,8,0:0:0:0:
256,380,317009,6,0,B|255:363|247:349|247:349|269:334|269:334|255:305|256:272,1,115,2|0,0:2|0:0,0:0:0:0:
360,182,317734,5,8,0:0:0:0:
124,7,317879,2,0,L|216:128,1,137.999995788574,2|0,0:0|0:0,0:0:0:0:
35,108,318169,2,0,L|162:190,1,137.999995788574,8|0,0:0|0:0,0:0:0:0:
0,234,318459,2,0,L|148:267,1,137.999995788574,8|0,0:0|0:0,0:0:0:0:
388,7,318748,6,0,L|296:128,1,137.999995788574,2|0,0:0|0:0,0:0:0:0:
477,108,319038,2,0,L|349:190,1,137.999995788574,8|0,0:0|0:0,0:0:0:0:
512,234,319328,2,0,L|363:267,1,137.999995788574,8|0,0:0|0:0,0:0:0:0:
174,347,319618,6,0,L|194:193,1,137.999995788574,2|0,0:0|0:0,0:0:0:0:
338,347,319908,2,0,L|318:193,1,137.999995788574,8|0,0:0|0:0,0:0:0:0:
103,106,320198,1,8,0:0:0:0:
409,106,320343,1,8,0:0:0:0:
206,22,320487,6,0,B|251:35|257:49|257:49|262:35|312:21,1,115,2|0,0:2|0:0,0:0:0:0:
388,6,321212,5,8,0:0:0:0:
124,7,321357,2,0,L|207:116,1,137.999995788574,2|0,0:0|0:0,0:0:0:0:
151,182,321647,2,0,L|35:108,1,137.999995788574,8|0,0:0|0:0,0:0:0:0:
0,234,321937,2,0,L|134:264,1,137.999995788574,8|0,0:0|0:0,0:0:0:0:
377,264,322227,6,0,L|512:234,1,137.999995788574,2|0,0:0|0:0,0:0:0:0:
477,108,322517,2,0,L|360:182,1,137.999995788574,8|0,0:0|0:0,0:0:0:0:
304,116,322807,2,0,L|388:7,1,137.999995788574,8|0,0:0|0:0,0:0:0:0:
256,337,323096,6,0,L|257:175,1,137.999995788574,2|8,0:0|0:0,0:0:0:0:
152,30,323386,1,8,0:0:0:0:
360,116,323531,1,8,0:0:0:0:
120,129,323676,1,0,1:0:0:0:
391,18,323821,1,8,0:0:0:0:
212,279,323966,6,0,B|239:271|239:271|256:247|256:247|274:272|274:272|312:280,1,115,2|0,0:2|0:0,0:0:0:0:
313,178,324727,5,8,0:0:0:0:
11,149,324835,2,0,L|143:204,1,137.999995788574,2|0,0:0|0:0,0:0:0:0:
345,75,325125,2,0,L|213:130,1,137.999995788574,8|0,0:0|0:0,0:0:0:0:
8,10,325415,2,0,L|140:65,1,137.999995788574,8|0,0:0|0:0,0:0:0:0:
446,193,325705,6,0,L|314:138,1,137.999995788574,2|0,0:0|0:0,0:0:0:0:
112,267,325995,2,0,L|244:212,1,137.999995788574,8|0,0:0|0:0,0:0:0:0:
449,332,326285,2,0,L|317:277,1,137.999995788574,8|0,0:0|0:0,0:0:0:0:
11,149,326574,6,0,P|75:181|150:205,1,137.999995788574,2|0,0:0|0:0,0:0:0:0:
345,75,326864,2,0,P|285:109|213:130,1,137.999995788574,8|0,0:0|0:0,0:0:0:0:
8,10,327154,2,0,P|65:43|140:65,1,137.999995788574,8|0,0:0|0:0,0:0:0:0:
446,193,327444,6,0,P|386:160|314:138,1,137.999995788574,2|0,0:0|0:0,0:0:0:0:
112,267,327734,2,0,P|178:232|244:212,1,137.999995788574,8|0,0:0|0:0,0:0:0:0:
449,332,328024,2,0,P|383:298|317:277,1,137.999995788574,8|0,0:0|0:0,0:0:0:0:
11,149,328314,6,0,P|70:191|150:205,1,137.999995788574,2|0,0:0|0:0,0:0:0:0:
345,75,328604,2,0,P|291:118|213:130,1,137.999995788574,8|0,0:0|0:0,0:0:0:0:
8,10,328894,2,0,P|63:51|140:65,1,137.999995788574,8|0,0:0|0:0,0:0:0:0:
446,193,329184,6,0,P|388:152|314:138,1,137.999995788574,2|0,0:0|0:0,0:0:0:0:
112,267,329474,2,0,P|172:224|244:212,1,137.999995788574,8|0,0:0|0:0,0:0:0:0:
449,332,329764,2,0,P|392:290|317:277,1,137.999995788574,8|0,0:0|0:0,0:0:0:0:
11,149,330053,6,0,P|56:199|150:205,1,137.999995788574,2|0,0:0|0:0,0:0:0:0:
345,75,330343,2,0,P|299:124|213:130,1,137.999995788574,8|0,0:0|0:0,0:0:0:0:
8,10,330633,2,0,P|54:64|140:65,1,137.999995788574,8|0,0:0|0:0,0:0:0:0:
472,121,330922,6,0,P|466:158|448:192,1,76.6666666666667,2|0,0:0|0:0,0:0:0:0:
380,270,331067,2,0,P|347:290|310:297,1,76.6666666666667,8|0,0:0|0:0,0:0:0:0:
214,297,331212,2,0,P|175:289|133:258,1,76.6666666666667,8|0,0:0|0:0,0:0:0:0:
37,120,331357,6,0,P|43:161|63:198,1,76.6666666666667,2|0,0:0|0:0,0:0:0:0:
138,283,331502,2,0,P|173:305|214:313,1,76.6666666666667,8|0,0:0|0:0,0:0:0:0:
316,313,331647,2,0,P|358:304|405:270,1,76.6666666666667,8|0,0:0|0:0,0:0:0:0:
502,129,331792,6,0,P|497:166|481:201,1,76.6666666666667,2|0,0:0|0:0,0:0:0:0:
396,304,331937,2,0,P|364:324|327:335,1,76.6666666666667,8|0,0:0|0:0,0:0:0:0:
201,333,332082,2,0,P|163:326|129:309,1,76.6666666666667,8|0,0:0|0:0,0:0:0:0:
6,135,332227,6,0,P|11:176|28:214,1,76.6666666666667,2|0,0:0|0:0,0:0:0:0:
124,325,332372,2,0,P|159:347|199:359,1,76.6666666666667,8|0,0:0|0:0,0:0:0:0:
333,352,332517,2,0,P|374:344|411:325,1,76.6666666666667,8|0,0:0|0:0,0:0:0:0:
319,76,332661,6,0,P|287:58|241:52,1,76.6666666666667,2|0,0:0|0:0,0:0:0:0:
115,216,332806,2,0,P|140:182|174:157,1,76.6666666666667,8|0,0:0|0:0,0:0:0:0:
319,205,332951,2,0,P|334:241|339:279,1,76.6666666666667,8|0,0:0|0:0,0:0:0:0:
328,65,333096,6,0,P|296:47|250:41,1,76.6666666666667,2|0,0:0|0:0,0:0:0:0:
104,209,333241,2,0,P|129:175|163:150,1,76.6666666666667,8|0,0:0|0:0,0:0:0:0:
333,204,333386,2,0,P|348:240|353:278,1,76.6666666666667,8|0,0:0|0:0,0:0:0:0:
340,54,333531,6,0,P|308:36|262:30,1,76.6666666666667,2|0,0:0|0:0,0:0:0:0:
94,202,333676,2,0,P|119:168|153:143,1,76.6666666666667,8|0,0:0|0:0,0:0:0:0:
346,205,333821,2,0,P|361:241|366:279,1,76.6666666666667,8|0,0:0|0:0,0:0:0:0:
355,45,333966,6,0,P|323:27|277:21,1,76.6666666666667,2|0,0:0|0:0,0:0:0:0:
83,195,334111,2,0,P|108:161|142:136,1,76.6666666666667,8|0,0:0|0:0,0:0:0:0:
360,208,334256,2,0,P|375:244|380:282,1,76.6666666666667,8|0,0:0|0:0,0:0:0:0:
90,298,334401,6,0,P|90:332|111:372,1,76.6666666666667,2|0,1:1|0:0,0:0:0:0:
182,314,334545,2,0,P|194:345|228:376,1,76.6666666666667,2|0,1:1|0:0,0:0:0:0:
269,293,334690,2,0,P|295:320|330:335,1,76.6666666666667,2|0,1:1|0:0,0:0:0:0:
349,244,334835,2,0,P|378:259|424:261,1,76.6666666666667,2|0,1:1|0:0,0:0:0:0:
405,173,334980,2,0,P|438:176|482:163,1,76.6666666666667,2|0,1:1|0:0,0:0:0:0:
432,85,335125,2,0,P|465:77|501:49,1,76.6666666666667,2|0,1:1|0:0,0:0:0:0:
234,49,335270,6,0,P|203:30|153:16,1,76.6666666666667,2|0,1:1|0:0,0:0:0:0:
163,110,335415,2,0,P|127:115|79:136,1,76.6666666666667,2|0,1:1|0:0,0:0:0:0:
152,198,335560,2,0,P|127:225|105:272,1,76.6666666666667,2|0,1:1|0:0,0:0:0:0:
200,279,335705,2,0,P|199:315|211:365,1,76.6666666666667,2|0,1:1|0:0,0:0:0:0:
287,306,335850,2,0,P|309:334|351:364,1,76.6666666666667,2|0,1:1|0:0,0:0:0:0:
372,271,335995,2,0,P|407:278|459:274,1,76.6666666666667,2|0,1:1|0:0,0:0:0:0:
284,89,336140,6,0,P|281:47|316:0,1,76.6666666666667,2|0,1:1|0:0,0:0:0:0:
358,173,336285,2,0,P|393:150|450:157,1,76.6666666666667,2|0,1:1|0:0,0:0:0:0:
325,282,336430,2,0,P|362:300|384:354,1,76.6666666666667,2|0,1:1|0:0,0:0:0:0:
211,307,336575,2,0,P|213:348|178:395,1,76.6666666666667,2|0,1:1|0:0,0:0:0:0:
134,222,336719,2,0,P|98:244|41:237,1,76.6666666666667,2|0,1:1|0:0,0:0:0:0:
172,115,336864,2,0,P|134:96|112:42,1,76.6666666666667,2|0,1:1|0:0,0:0:0:0:
446,96,337009,6,0,P|441:57|408:19,1,76.6666666666667,2|0,1:1|0:0,0:0:0:0:
284,189,337154,2,0,P|318:204|356:201,1,76.6666666666667,2|0,1:1|0:0,0:0:0:0:
287,5,337299,2,0,P|256:28|240:63,1,76.6666666666667,2|0,1:1|0:0,0:0:0:0:
340,96,337444,5,0,1:1:0:0:
51,21,337879,6,0,B|57:93|106:140|106:140|84:194|84:194|218:79|261:224|391:186,1,517.500019741059,6|0,3:2|3:0,0:0:0:0:
173,283,338603,6,0,B|209:293|209:293|248:281,1,72.8333313884736,0|0,1:0|0:0,0:0:0:0:
288,141,338748,2,0,P|278:244|365:301,1,218.499994165421,4|0,3:0|0:0,0:0:0:0:
355,69,339038,2,0,P|291:89|199:65,1,145.666662776947,0|2,1:0|3:0,0:0:0:0:
14,64,339256,1,0,0:0:0:0:
0,50,339328,2,0,P|29:33|69:29,1,72.8333313884736,0|0,1:0|0:0,0:0:0:0:
159,150,339473,2,0,P|122:146|91:128,1,72.8333313884736,0|0,1:0|0:0,0:0:0:0:
268,20,339618,6,0,P|337:85|461:67,1,218.499994165421,4|0,3:2|0:0,0:0:0:0:
442,278,339908,2,0,P|464:203|513:155,1,145.666662776947,0|0,1:0|3:0,0:0:0:0:
355,193,340125,1,0,0:0:0:0:
348,209,340198,2,0,P|308:218|259:215,1,72.8333313884736,0|0,1:0|0:0,0:0:0:0:
156,355,340343,2,0,P|196:364|245:361,1,72.8333313884736,0|0,1:0|0:0,0:0:0:0:
168,134,340487,6,0,P|175:226|40:245,1,218.499994165421,4|0,3:0|0:0,0:0:0:0:
37,55,340777,2,0,P|69:75|112:73,1,72.8333313884736,0|0,1:0|0:0,0:0:0:0:
459,12,340922,5,2,3:1:0:0:
321,32,341067,1,0,1:0:0:0:
185,52,341212,1,0,1:0:0:0:
277,186,341357,6,0,B|360:183|404:268|404:268|247:412|58:288,1,517.500019741059,2|0,3:0|3:0,0:0:0:0:
325,72,342082,6,0,B|335:37|335:37|325:-8,1,72.8333313884736,0|0,1:0|0:0,0:0:0:0:
104,63,342226,2,0,P|200:110|303:83,1,218.499994165421,4|0,3:0|0:0,0:0:0:0:
398,262,342516,2,0,P|325:255|263:196,1,145.666662776947,0|0,1:0|3:0,0:0:0:0:
82,206,342734,1,0,0:0:0:0:
100,194,342806,2,0,P|137:201|184:227,1,72.8333313884736,0|0,1:0|0:0,0:0:0:0:
243,373,342951,2,0,P|230:337|229:283,1,72.8333313884736,0|0,1:0|0:0,0:0:0:0:
217,101,343096,6,0,P|286:166|394:92,1,218.499994165421,4|0,3:2|0:0,0:0:0:0:
504,13,343386,2,0,P|474:73|481:168,1,145.666662776947,0|0,1:0|3:0,0:0:0:0:
504,312,343603,1,0,0:0:0:0:
512,329,343676,2,0,P|474:325|423:335,1,72.8333313884736,0|0,1:0|0:0,0:0:0:0:
243,373,343821,2,0,P|281:377|332:367,1,72.8333313884736,0|0,1:0|0:0,0:0:0:0:
354,142,343966,6,0,P|324:172|312:211,1,72.8333313884736,4|0,3:0|0:0,0:0:0:0:
221,94,344111,2,0,P|211:128|215:164,1,72.8333313884736,0|0,1:0|0:0,0:0:0:0:
84,118,344256,2,0,P|94:158|122:188,1,72.8333313884736,0|0,1:0|0:0,0:0:0:0:
99,383,344401,6,0,P|67:354|48:314,1,72.8333313884736,2|0,3:1|0:0,0:0:0:0:
165,340,344545,2,0,P|144:301|140:257,1,72.8333313884736,0|0,1:0|0:0,0:0:0:0:
243,315,344690,2,0,P|236:279|242:243,1,72.8333313884736,0|0,1:0|0:0,0:0:0:0:
476,18,344835,6,0,B|367:99|445:235|445:235|445:314|361:351|263:317|267:235,1,517.500019741059,2|0,3:2|3:0,0:0:0:0:
243,60,345560,6,0,B|258:91|258:91|251:129,1,72.8333313884736,0|0,1:0|0:0,0:0:0:0:
114,194,345704,2,0,P|215:162|300:225,1,218.499994165421,4|0,3:0|0:0,0:0:0:0:
110,329,345995,2,0,P|173:356|249:351,1,145.666662776947,0|0,1:0|3:0,0:0:0:0:
392,213,346212,1,0,0:0:0:0:
396,231,346285,2,0,P|385:269|363:298,1,72.8333313884736,0|0,1:0|0:0,0:0:0:0:
147,331,346430,2,0,P|158:293|180:264,1,72.8333313884736,0|0,1:0|0:0,0:0:0:0:
396,231,346574,6,0,P|317:259|246:163,1,218.499994165421,4|0,3:2|0:0,0:0:0:0:
3,196,346864,2,0,P|25:121|74:73,1,145.666662776947,0|0,1:0|3:0,0:0:0:0:
308,42,347081,1,0,0:0:0:0:
299,55,347154,2,0,P|273:67|230:63,1,72.8333313884736,0|0,1:0|0:0,0:0:0:0:
82,210,347299,2,0,P|108:198|151:202,1,72.8333313884736,0|0,1:0|0:0,0:0:0:0:
375,93,347444,6,0,P|288:144|171:120,1,218.499994165421,4|0,3:0|0:0,0:0:0:0:
214,302,347734,2,0,P|226:256|244:233,1,72.8333313884736,0|0,1:0|0:0,0:0:0:0:
512,348,347879,5,2,3:1:0:0:
362,335,348024,1,0,1:0:0:0:
211,324,348169,1,0,1:0:0:0:
333,116,348314,6,0,B|374:176|371:251|371:251|486:147|411:23|411:23|348:47|297:7,1,517.500019741059,2|0,3:2|3:0,0:0:0:0:
105,102,349038,6,0,B|138:85|138:85|175:90,1,72.8333313884736,0|0,1:0|0:0,0:0:0:0:
272,216,349183,2,0,P|171:246|88:181,1,218.499994165421,4|0,3:0|0:0,0:0:0:0:
0,345,349473,2,0,P|71:358|156:306,1,145.666662776947,0|0,1:0|3:0,0:0:0:0:
220,73,349691,1,0,0:0:0:0:
198,77,349763,2,0,P|186:112|187:152,1,72.8333313884736,0|0,1:0|0:0,0:0:0:0:
304,336,349908,2,0,P|269:322|239:296,1,72.8333313884736,0|0,1:0|0:0,0:0:0:0:
458,253,350053,6,0,P|405:194|265:194,1,218.499994165421,4|0,3:2|0:0,0:0:0:0:
0,169,350343,2,0,P|53:228|193:228,1,218.499994165421,0|0,1:0|0:0,0:0:0:0:
71,32,350632,2,0,P|48:55|22:107,1,72.8333313884736,0|0,1:0|0:0,0:0:0:0:
219,152,350777,2,0,P|223:120|211:59,1,72.8333313884736,0|0,1:0|0:0,0:0:0:0:
3,343,350922,5,4,3:0:0:0:
124,120,351067,1,0,1:0:0:0:
262,348,351212,1,0,1:0:0:0:
133,236,351357,5,10,0:1:0:0:
143,274,351502,1,0,1:0:0:0:
105,261,351647,1,0,1:0:0:0:
360,341,351792,5,6,3:2:0:0:
329,182,351937,1,0,1:0:0:0:
299,24,352082,1,0,1:0:0:0:
492,79,352227,6,0,P|438:102|293:37,1,218.499994165421,4|0,3:0|0:0,0:0:0:0:
171,121,352516,2,0,B|208:113|208:113|243:127,1,72.8333313884736,0|0,1:0|0:0,0:0:0:0:
412,247,352661,6,0,P|311:280|228:212,1,218.499994165421,4|0,3:0|0:0,0:0:0:0:
9,77,352951,2,0,P|68:130|141:102,1,145.666662776947,0|0,1:0|3:0,0:0:0:0:
352,94,353169,1,0,0:0:0:0:
346,72,353242,2,0,P|323:43|276:24,1,72.8333313884736,0|0,1:0|0:0,0:0:0:0:
126,115,353386,2,0,P|135:80|158:52,1,72.8333313884736,0|0,1:0|0:0,0:0:0:0:
252,239,353531,6,0,P|310:271|462:235,1,218.499994165421,4|0,3:2|0:0,0:0:0:0:
117,350,353821,2,0,P|119:289|171:213,1,145.666662776947,0|0,1:0|3:0,0:0:0:0:
413,151,354038,1,0,0:0:0:0:
416,166,354110,2,0,P|387:190|345:200,1,72.8333313884736,0|0,1:0|0:0,0:0:0:0:
200,305,354256,2,0,P|229:329|271:339,1,72.8333313884736,0|0,1:0|0:0,0:0:0:0:
288,144,354401,6,0,P|269:79|100:43,1,218.499994165421,4|0,3:0|0:0,0:0:0:0:
5,179,354691,2,0,P|45:167|100:177,1,72.8333313884736,0|0,1:0|0:0,0:0:0:0:
310,239,354836,5,2,3:1:0:0:
160,292,354981,1,0,1:0:0:0:
14,349,355126,1,0,1:0:0:0:
338,315,355270,6,0,B|430:378|509:298|509:298|461:138|343:242|307:130|333:56,1,517.500019741059,2|0,3:2|3:0,0:0:0:0:
226,281,355995,6,0,B|236:246|236:246|218:173,1,72.8333313884736,0|0,1:0|0:0,0:0:0:0:
2,104,356139,2,0,P|54:212|152:243,1,218.499994165421,4|0,3:0|0:0,0:0:0:0:
361,126,356429,2,0,P|305:171|234:177,1,145.666662776947,0|0,1:0|3:0,0:0:0:0:
58,47,356647,1,0,0:0:0:0:
68,33,356719,2,0,P|102:27|141:33,1,72.8333313884736,0|0,1:0|0:0,0:0:0:0:
141,243,356864,2,0,P|118:216|104:179,1,72.8333313884736,0|0,1:0|0:0,0:0:0:0:
239,31,357009,6,0,P|308:96|416:22,1,218.499994165421,2|0,3:2|0:0,0:0:0:0:
422,245,357299,2,0,P|435:174|481:118,1,145.666662776947,0|0,1:0|3:0,0:0:0:0:
291,217,357516,1,0,0:0:0:0:
279,199,357589,2,0,P|291:154|317:126,1,72.8333313884736,0|0,1:0|0:0,0:0:0:0:
260,384,357734,2,0,P|240:341|242:303,1,72.8333313884736,0|0,1:0|0:0,0:0:0:0:
98,274,357879,6,0,P|64:260|39:234,1,72.8333313884736,0|0,3:0|0:0,0:0:0:0:
176,206,358024,2,0,P|153:177|144:142,1,72.8333313884736,0|0,1:0|0:0,0:0:0:0:
278,185,358169,2,0,P|272:149|282:114,1,72.8333313884736,0|0,1:0|0:0,0:0:0:0:
230,0,358314,5,2,3:1:0:0:
140,101,358458,1,0,1:0:0:0:
0,111,358603,1,0,1:0:0:0:
339,38,358748,6,0,P|365:75|372:107,1,72.8333313884736,4|0,3:2|0:0,0:0:0:0:
458,139,358893,2,0,P|454:184|438:213,1,72.8333313884736,0|0,0:0|0:0,0:0:0:0:
478,288,359038,2,0,P|446:320|415:332,1,72.8333313884736,0|0,0:0|0:0,0:0:0:0:
213,340,359183,2,0,P|167:285|272:324,1,291.333325553894,4|0,3:0|1:0,0:0:0:0:
32,271,359618,6,0,P|43:227|63:201,1,72.8333313884736,4|0,3:0|0:0,0:0:0:0:
32,114,359763,2,0,P|68:87|101:81,1,72.8333313884736,0|0,0:0|0:0,0:0:0:0:
134,4,359908,2,0,P|179:7|208:23,1,72.8333313884736,0|0,1:0|0:0,0:0:0:0:
344,173,360053,2,0,P|331:243|293:138,1,291.333325553894,4|0,3:0|1:0,0:0:0:0:
487,284,360487,6,0,P|446:303|413:304,1,72.8333313884736,4|0,3:2|0:0,0:0:0:0:
366,384,360632,2,0,P|322:372|296:352,1,72.8333313884736,0|0,0:0|0:0,0:0:0:0:
216,377,360777,2,0,P|189:339|182:307,1,72.8333313884736,0|0,1:0|0:0,0:0:0:0:
211,107,360922,2,0,P|273:71|216:167,1,291.333325553894,4|0,3:0|1:0,0:0:0:0:
6,118,361357,6,0,P|46:98|79:97,1,72.8333313884736,4|0,3:0|0:0,0:0:0:0:
127,18,361502,2,0,P|170:29|196:49,1,72.8333313884736,0|0,0:0|0:0,0:0:0:0:
277,25,361647,2,0,P|303:62|310:94,1,72.8333313884736,0|0,1:0|0:0,0:0:0:0:
282,295,361792,2,0,P|219:330|276:234,1,291.333325553894,2|0,3:1|1:0,0:0:0:0:
480,175,362227,6,0,P|377:172|281:88,1,230.000008773804,0|0,0:0|0:0,0:0:0:0:
100,262,362661,2,0,P|184:263|255:216,1,172.500006580353,0|0,0:0|0:0,0:0:0:0:
382,355,362951,5,2,1:0:0:0:
369,350,363096,2,0,L|244:308,1,115.000004386902,0|0,1:0|0:0,0:0:0:0:
459,230,363386,2,0,L|329:256,1,115.000004386902,0|0,1:0|0:0,0:0:0:0:
470,81,363676,2,0,L|371:168,1,115.000004386902,0|0,1:0|0:0,0:0:0:0:
75,262,363966,2,0,L|202:295,1,115.000004386902,0|0,1:2|0:0,0:0:0:0:
65,113,364256,2,0,L|159:205,1,115.000004386902,0|0,1:0|0:0,0:0:0:0:
136,0,364545,2,0,L|172:109,1,115.000004386902,0|0,1:0|0:0,0:0:0:0:
488,366,364835,5,4,1:2:0:0:
484,354,364980,1,4,1:2:0:0:
480,343,365125,1,4,1:2:0:0:
476,331,365270,1,4,1:2:0:0:
472,320,365415,1,4,1:2:0:0:
468,308,365560,1,4,1:2:0:0:
148,326,365705,5,6,3:2:0:0:
387,215,365850,1,0,0:0:0:0:
132,109,365995,1,0,0:0:0:0:
296,265,366140,1,2,3:2:0:0:
296,258,366285,1,0,0:0:0:0:
296,251,366429,1,4,0:3:0:0:
364,86,366574,5,2,3:2:0:0:
125,197,366719,1,0,0:0:0:0:
380,303,366864,1,0,0:0:0:0:
216,147,367009,1,6,3:2:0:0:
216,154,367154,1,0,0:0:0:0:
216,161,367298,1,0,0:0:0:0:
342,354,367444,5,2,3:2:0:0:
256,74,367589,1,0,0:0:0:0:
170,354,367734,1,0,0:0:0:0:
325,146,367879,1,2,3:2:0:0:
318,146,368024,1,0,0:0:0:0:
311,146,368168,1,4,0:3:0:0:
10,190,368313,6,0,P|98:255|230:239,1,230,2|0,3:2|0:0,0:0:0:0:
177,37,368603,2,0,P|169:74|180:115,1,76.6666666666667,0|0,0:0|0:0,0:0:0:0:
405,221,368748,2,0,B|446:242|505:230|505:230|436:298|313:251,1,306.666666666667,6|0,3:1|0:0,0:0:0:0:
115,58,369183,5,6,3:2:0:0:
376,101,369328,1,0,0:0:0:0:
138,167,369473,1,0,0:0:0:0:
402,212,369618,1,2,3:2:0:0:
400,205,369763,1,0,0:0:0:0:
398,198,369907,1,4,0:3:0:0:
196,17,370053,5,2,3:2:0:0:
457,60,370198,1,0,0:0:0:0:
138,167,370343,1,0,0:0:0:0:
402,212,370488,1,6,3:2:0:0:
400,205,370633,1,0,0:0:0:0:
398,198,370777,1,0,0:0:0:0:
162,88,370922,5,2,3:2:0:0:
335,312,371067,1,0,0:0:0:0:
307,88,371212,1,0,0:0:0:0:
141,315,371357,1,2,3:2:0:0:
141,308,371502,1,0,0:0:0:0:
142,302,371647,1,0,0:0:0:0:
40,100,371792,6,0,P|74:173|219:217,1,230,2|0,3:2|0:0,0:0:0:0:
395,203,372082,2,0,P|354:199|313:175,1,76.6666666666667,0|0,0:0|0:0,0:0:0:0:
194,2,372227,1,4,3:1:0:0:
216,91,372372,1,0,0:0:0:0:
130,65,372516,1,0,0:0:0:0:
414,0,372661,5,6,3:2:0:0:
473,220,372806,1,0,0:0:0:0:
374,116,372951,1,0,0:0:0:0:
338,380,373096,5,2,3:2:0:0:
279,160,373241,1,0,0:0:0:0:
378,264,373386,1,4,0:3:0:0:
293,52,373531,1,2,3:2:0:0:
294,58,373676,1,0,0:0:0:0:
294,65,373821,1,0,0:0:0:0:
77,185,373966,5,6,3:2:0:0:
168,196,374111,1,0,0:0:0:0:
259,207,374256,1,0,0:0:0:0:
388,28,374400,1,2,3:2:0:0:
200,99,374545,1,0,0:0:0:0:
422,217,374690,1,0,0:0:0:0:
153,2,374835,1,2,3:2:0:0:
154,9,374980,1,0,0:0:0:0:
155,16,375125,1,4,0:3:0:0:
40,226,375270,6,0,P|92:300|237:315,1,230,2|0,3:2|0:0,0:0:0:0:
171,137,375560,2,0,P|132:138|98:153,1,76.6666666666667,0|0,0:0|0:0,0:0:0:0:
306,290,375705,2,0,B|374:337|454:299|454:299|460:207|386:156,1,306.666666666667,6|0,3:1|0:0,0:0:0:0:
110,50,376140,6,0,P|251:98|408:29,1,306.666666666667,6|0,3:2|0:0,0:0:0:0:
116,229,376574,2,0,P|262:200|363:61,1,306.666666666667,2|4,3:2|0:3,0:0:0:0:
208,381,377009,2,0,P|320:282|338:112,1,306.666666666667,2|0,3:2|0:0,0:0:0:0:
90,206,377444,2,0,P|130:129|256:61,1,230,6|0,3:2|0:0,0:0:0:0:
271,323,377734,2,0,P|276:288|265:247,1,76.6666666666667,0|0,0:0|0:0,0:0:0:0:
58,151,377879,6,0,P|73:254|201:283,1,230,6|0,3:2|0:0,0:0:0:0:
270,227,378169,2,0,P|169:178|128:74,1,230,0|0,0:0|0:0,0:0:0:0:
263,0,378459,2,0,P|229:39|196:49,1,76.6666666666667,0|0,0:0|0:0,0:0:0:0:
297,146,378603,2,0,P|318:115|353:99,1,76.6666666666667,4|0,0:3|0:0,0:0:0:0:
368,367,378748,2,0,P|417:294|420:146,1,230,6|0,3:2|0:0,0:0:0:0:
248,274,379038,2,0,P|289:281|332:264,1,76.6666666666667,0|0,0:0|0:0,0:0:0:0:
108,157,379183,2,0,P|22:183|160:216,1,383.333333333333,2|0,3:2|0:0,0:0:0:0:
459,254,379618,5,6,3:2:0:0:
272,74,379763,1,0,0:0:0:0:
176,330,379908,1,0,0:0:0:0:
309,224,380053,1,2,3:2:0:0:
309,217,380198,1,0,0:0:0:0:
309,210,380342,1,4,0:3:0:0:
0,139,380487,5,2,3:2:0:0:
176,330,380632,1,0,0:0:0:0:
273,74,380777,1,0,0:0:0:0:
150,169,380922,1,6,3:2:0:0:
150,176,381067,1,0,0:0:0:0:
150,183,381211,1,0,0:0:0:0:
382,260,381357,5,2,3:2:0:0:
169,73,381502,1,0,0:0:0:0:
258,311,381647,1,0,0:0:0:0:
341,137,381792,1,2,3:2:0:0:
334,137,381937,1,0,0:0:0:0:
327,137,382081,1,4,0:3:0:0:
85,176,382226,6,0,P|201:168|305:225,1,230,2|0,3:2|0:0,0:0:0:0:
351,382,382516,2,0,P|359:345|348:304,1,76.6666666666667,0|0,0:0|0:0,0:0:0:0:
13,130,382661,2,0,B|-24:186|-38:316|79:370|148:322|148:322|122:299|93:295,1,383.333333333333,6|0,3:1|0:0,0:0:0:0:
266,36,383096,5,6,3:2:0:0:
31,29,383241,1,0,0:0:0:0:
149,232,383386,1,0,0:0:0:0:
174,44,383531,1,2,3:2:0:0:
173,51,383676,1,0,0:0:0:0:
172,58,383821,1,4,0:3:0:0:
175,315,383966,5,2,3:2:0:0:
410,321,384111,1,0,0:0:0:0:
291,118,384256,1,0,0:0:0:0:
267,307,384401,1,6,3:2:0:0:
268,300,384545,1,0,0:0:0:0:
269,293,384690,1,0,0:0:0:0:
68,239,384835,5,2,3:2:0:0:
374,167,384980,1,0,0:0:0:0:
227,384,385125,1,0,0:0:0:0:
118,92,385270,1,2,3:2:0:0:
121,99,385415,1,0,0:0:0:0:
125,105,385560,2,0,P|172:98|210:63,1,76.6666666666667,0|0,0:0|0:0,0:0:0:0:
450,35,385705,6,0,P|363:58|289:175,1,230,2|0,3:2|0:0,0:0:0:0:
334,336,385995,2,0,P|352:292|343:241,1,76.6666666666667,0|0,0:0|0:0,0:0:0:0:
54,234,386140,2,0,B|108:287|117:378|117:378|165:349|181:258,1,230,4|0,3:2|0:0,0:0:0:0:
136,89,386430,2,0,P|134:125|147:164,1,76.6666666666667,0|0,0:0|0:0,0:0:0:0:
373,127,386574,6,0,P|322:48|183:27,1,230,6|0,3:2|0:0,0:0:0:0:
233,221,386864,2,0,P|269:223|308:210,1,76.6666666666667,0|0,0:0|0:0,0:0:0:0:
439,50,387009,2,0,B|479:6|479:6|477:204,1,230,2|0,3:2|0:0,0:0:0:0:
512,356,387299,6,0,P|483:326|446:309,1,76.6666666666667,4|0,0:3|0:0,0:0:0:0:
184,345,387444,2,0,P|253:360|379:264,1,230,2|0,3:2|0:0,0:0:0:0:
284,85,387734,2,0,P|279:123|286:170,1,76.6666666666667,0|0,0:0|0:0,0:0:0:0:
136,261,387879,2,0,B|68:213|-13:221|-13:221|30:202|33:163,1,230,6|0,3:2|0:0,0:0:0:0:
113,23,388169,2,0,P|72:27|38:45,1,76.6666666666667,0|0,0:0|0:0,0:0:0:0:
64,352,388314,6,0,P|60:307|39:258,1,76.6666666666667,2|0,3:2|0:0,0:0:0:0:
189,373,388459,2,0,P|166:333|126:298,1,76.6666666666667,0|0,0:0|0:0,0:0:0:0:
310,333,388603,2,0,P|272:307|221:291,1,76.6666666666667,0|0,0:0|0:0,0:0:0:0:
406,248,388748,2,0,P|361:240|308:247,1,76.6666666666667,2|0,3:2|0:0,0:0:0:0:
459,132,388893,2,0,P|415:143|370:172,1,76.6666666666667,0|0,0:0|0:0,0:0:0:0:
457,3,389038,2,0,P|422:32|394:77,1,76.6666666666667,4|0,0:3|0:0,0:0:0:0:
264,151,389183,6,0,P|229:167|192:167,1,76.6666666666667,2|0,3:1|0:0,0:0:0:0:
57,47,389328,2,0,P|94:53|124:76,1,76.6666666666667
288,152,389473,2,0,P|247:172|201:171,1,76.6666666666667,0|0,0:0|0:0,0:0:0:0:
37,30,389618,2,0,P|82:38|119:65,1,76.6666666666667,6|0,3:1|0:0,0:0:0:0:
308,165,389763,2,0,P|273:181|236:181,1,76.6666666666667,0|0,0:0|0:0,0:0:0:0:
29,9,389908,2,0,P|66:15|96:38,1,76.6666666666667,0|0,0:0|0:0,0:0:0:0:
263,273,390053,5,0,0:0:0:0:
354,171,392444,6,0,P|390:134|404:73,1,103.499996841431,4|0,0:3|0:0,0:0:0:0:
188,266,392661,2,0,P|180:316|197:364,1,103.499996841431,4|0,0:3|0:0,0:0:0:0:
266,92,392879,2,0,P|242:46|199:17,1,103.499996841431,4|0,0:3|0:0,0:0:0:0:
403,299,393096,2,0,P|352:301|306:278,1,103.499996841431,12|0,0:1|0:0,0:0:0:0:
73,191,393314,2,0,P|113:160|164:151,1,103.499996841431,4|0,0:3|0:0,0:0:0:0:
421,148,393531,6,0,P|422:104|414:65,3,77.6250002961159,0|0|0|0,3:2|0:0|0:0|0:0,0:0:0:0:
306,278,393966,2,0,P|307:322|299:361,3,77.6250002961159,8|0|0|0,3:2|0:0|0:0|0:0,0:0:0:0:
114,157,394400,2,0,P|152:163|190:162,1,77.6250002961159,0|0,3:2|0:0,0:0:0:0:
335,30,394618,2,0,P|297:31|259:25,1,77.6250002961159,2|0,0:3|0:0,0:0:0:0:
74,237,394835,2,0,P|62:151|89:52,1,155.250000592232,8|0,3:2|0:0,0:0:0:0:
308,110,395161,5,0,0:0:0:0:
320,125,395270,2,0,P|327:161|328:202,1,77.6250002961159,0|0,3:0|0:0,0:0:0:0:
237,349,395487,2,0,B|226:303|226:303|235:255,1,92,2|0,0:1|0:0,0:0:0:0:
409,251,395705,1,8,3:2:0:0:
402,265,395813,2,0,B|360:294|360:294|309:300,2,92,0|0|0,0:0|0:0|0:0,0:0:0:0:
306,117,396139,1,2,3:1:0:0:
320,125,396248,2,0,B|371:129|371:129|419:108,2,92,0|2|0,0:0|0:1|0:0,0:0:0:0:
175,295,396574,6,0,L|82:315,1,92,10|0,3:1|0:0,0:0:0:0:
11,78,396792,2,0,L|104:98,1,92,0|0,0:0|0:0,0:0:0:0:
311,216,397009,6,0,P|261:203|209:210,3,77.6250002961159,0|0|0|0,3:0|0:0|0:0|0:0,0:0:0:0:
411,55,397444,2,0,P|461:42|513:49,3,77.6250002961159,8|0|0|0,3:2|0:0|0:0|0:0,0:0:0:0:
436,285,397879,2,0,P|411:249|398:186,1,77.6250002961159,0|0,3:0|0:0,0:0:0:0:
225,369,398096,2,0,P|250:333|263:270,1,77.6250002961159,2|0,0:3|0:0,0:0:0:0:
33,191,398313,2,0,P|109:202|189:182,1,155.250000592232,12|0,3:2|0:0,0:0:0:0:
267,17,398639,5,0,0:0:0:0:
284,25,398748,2,0,P|291:61|292:102,1,77.6250002961159,0|0,3:2|0:0,0:0:0:0:
282,304,398966,2,0,L|282:213,1,77.6250002961159,0|0,0:0|0:0,0:0:0:0:
373,173,399183,5,8,3:2:0:0:
389,176,399292,1,0,0:0:0:0:
405,179,399400,1,0,0:0:0:0:
421,182,399509,1,0,0:0:0:0:
428,270,399618,5,0,3:2:0:0:
412,273,399727,1,0,0:0:0:0:
396,276,399835,1,0,0:0:0:0:
380,279,399944,1,0,0:0:0:0:
305,328,400053,6,0,B|286:286|296:248|296:248|267:263|228:259,1,129.375004935265,8|0,3:2|0:0,0:0:0:0:
88,169,400487,6,0,P|73:121|72:85,3,77.6250002961159,2|0|0|0,3:2|0:0|0:0|0:0,0:0:0:0:
277,108,400922,2,0,P|292:60|293:24,3,77.6250002961159,8|0|0|0,3:2|0:0|0:0|0:0,0:0:0:0:
174,263,401357,2,0,P|209:246|247:239,1,77.6250002961159,0|0,3:2|0:0,0:0:0:0:
425,254,401574,2,0,P|394:232|369:203,1,77.6250002961159,2|0,0:3|0:0,0:0:0:0:
436,29,401792,1,8,3:2:0:0:
263,116,402009,2,0,P|233:127|187:129,1,77.6250002961159,2|0,0:1|0:0,0:0:0:0:
59,270,402227,6,0,L|44:171,1,92,2|0,3:1|0:0,0:0:0:0:
40,285,402444,2,0,L|25:186,1,92,2|0,0:1|0:0,0:0:0:0:
225,357,402661,2,0,L|240:258,1,92,8|0,3:2|0:0,0:0:0:0:
244,372,402879,2,0,L|259:273,1,92,2|0,0:1|0:0,0:0:0:0:
333,63,403096,6,0,B|279:21|194:20|149:63|157:128|193:150|239:135,1,276,2|0,3:1|0:0,0:0:0:0:
434,264,403531,2,0,B|435:306|405:335|340:326|310:272|333:190|388:149,1,276,10|0,3:1|0:0,0:0:0:0:
491,28,403966,5,2,3:2:0:0:
474,52,404074,1,0,0:0:0:0:
448,66,404183,2,0,P|397:68|359:47,1,80.499997543335,0|0,0:0|0:0,0:0:0:0:
275,155,404400,1,8,3:2:0:0:
258,131,404508,1,0,0:0:0:0:
232,117,404618,2,0,P|181:115|143:136,1,80.499997543335,0|0,0:0|0:0,0:0:0:0:
76,349,404835,6,0,L|54:259,1,80.499997543335,0|0,3:2|0:0,0:0:0:0:
46,181,405053,2,0,L|24:91,1,80.499997543335,2|0,0:3|0:0,0:0:0:0:
194,340,405270,2,0,L|187:247,1,80.499997543335,8|0,3:2|0:0,0:0:0:0:
193,169,405488,2,0,L|186:76,1,80.499997543335,0|0,0:0|0:0,0:0:0:0:
318,340,405705,2,0,L|323:259,1,80.499997543335,2|0,3:2|0:0,0:0:0:0:
319,169,405923,2,0,L|324:88,1,80.499997543335,0|0,0:0|0:0,0:0:0:0:
436,349,406140,2,0,L|455:270,1,80.499997543335,8|0,3:2|0:0,0:0:0:0:
485,102,406358,2,0,L|466:181,1,80.499997543335,4|0,0:3|0:0,0:0:0:0:
265,343,406574,6,0,P|302:306|323:259,1,103.499996841431,0|0,0:0|0:0,0:0:0:0:
157,237,406792,2,0,P|209:233|255:210,1,103.499996841431,0|0,0:0|0:0,0:0:0:0:
201,78,407009,6,0,P|161:43|137:-1,1,103.499996841431,0|0,0:0|0:0,0:0:0:0:
178,156,407226,2,0,P|126:154|78:135,1,103.499996841431,0|0,0:0|0:0,0:0:0:0:
335,30,407444,6,0,L|326:123,1,86.2500032901765,2|0,3:2|0:0,0:0:0:0:
443,31,407661,2,0,L|451:116,1,86.2500032901765,0|0,0:0|0:0,0:0:0:0:
315,210,407879,2,0,L|306:295,1,86.2500032901765,8|0,3:2|0:0,0:0:0:0:
463,211,408096,2,0,L|472:304,1,86.2500032901765,0|0,0:0|0:0,0:0:0:0:
212,334,408314,6,0,L|221:241,1,86.2500032901765,0|0,3:2|0:0,0:0:0:0:
104,333,408531,2,0,L|95:247,1,86.2500032901765,2|0,0:3|0:0,0:0:0:0:
232,154,408749,2,0,L|240:68,1,86.2500032901765,8|0,3:2|0:0,0:0:0:0:
84,153,408966,2,0,L|75:60,1,86.2500032901765,0|0,0:0|0:0,0:0:0:0:
280,1,409183,6,0,P|324:13|378:14,1,92,2|0,3:1|0:0,0:0:0:0:
467,239,409401,2,0,B|425:257|425:257|372:254,1,92,2|0,0:1|0:0,0:0:0:0:
435,86,409618,2,0,B|471:111|471:111|492:153,1,92,8|0,3:2|0:0,0:0:0:0:
320,186,409835,2,0,B|324:140|324:140|349:100,1,92,2|0,0:1|0:0,0:0:0:0:
501,146,410053,2,0,B|479:103|479:103|442:77,1,92,0|0,3:1|0:0,0:0:0:0:
339,98,410270,2,0,B|313:136|313:136|308:181,1,92,2|0,0:1|0:0,0:0:0:0:
500,384,410487,1,10,3:1:0:0:
409,171,410705,1,0,0:0:0:0:
136,359,410922,6,0,L|74:278,1,97.7500018644333,2|0,3:2|0:0,0:0:0:0:
187,276,411140,2,0,L|156:178,1,97.7500018644333,0|0,0:0|0:0,0:0:0:0:
262,216,411357,2,0,L|266:114,1,97.7500018644333,8|0,3:2|0:0,0:0:0:0:
355,183,411574,2,0,L|394:88,1,97.7500018644333,0|0,0:0|0:0,0:0:0:0:
376,359,411792,6,0,L|438:278,1,97.7500018644333,0|0,3:2|0:0,0:0:0:0:
325,276,412010,2,0,L|355:178,1,97.7500018644333,2|0,0:3|0:0,0:0:0:0:
250,216,412227,2,0,L|245:114,1,97.7500018644333,8|0,3:2|0:0,0:0:0:0:
157,183,412444,2,0,L|117:88,1,97.7500018644333,0|0,0:0|0:0,0:0:0:0:
57,356,412661,6,0,L|154:325,1,97.7500018644333,2|0,3:2|0:0,0:0:0:0:
364,326,412879,2,0,L|267:295,1,97.7500018644333,0|0,0:0|0:0,0:0:0:0:
80,244,413096,2,0,L|156:183,1,97.7500018644333,8|0,3:2|0:0,0:0:0:0:
362,215,413314,2,0,L|286:154,1,97.7500018644333,0|0,0:0|0:0,0:0:0:0:
106,0,413531,6,0,B|54:21|18:93|45:160|107:198|192:182|224:94|224:94|306:5|409:16|471:32|519:96|519:143|485:199|422:179|410:144,1,724.499977890015,0|0,3:2|0:0,0:0:0:0:
256,192,414401,12,2,417806,3:2:0:0:
494,115,417879,6,0,L|508:-34,2,120.749996315003,0|0|0,3:0|0:0|0:0,0:0:0:0:
419,161,418314,5,8,3:0:0:0:
417,184,418422,1,0,0:0:0:0:
415,208,418531,1,0,0:0:0:0:
413,232,418640,1,0,0:0:0:0:
323,294,418748,5,0,3:0:0:0:
320,264,418856,1,0,0:0:0:0:
317,233,418965,1,0,0:0:0:0:
315,202,419074,1,0,0:0:0:0:
229,110,419183,5,8,3:0:0:0:
226,151,419292,1,0,0:0:0:0:
222,192,419401,1,0,0:0:0:0:
218,232,419509,1,0,0:0:0:0:
112,154,419618,6,0,B|109:106|170:55|170:55|269:201|120:344|120:344|214:283|306:350|306:350|360:246|474:259,1,827.999974731446,2|0,0:1|0:0,0:0:0:0:
256,15,421357,6,0,L|167:23,3,68.9999978942872,2|0|0|0,3:2|0:0|0:0|0:0,0:0:0:0:
39,129,421792,2,0,L|128:137,1,68.9999978942872,10|0,3:2|0:0,0:0:0:0:
221,240,422009,2,0,L|289:233,1,68.9999978942872,0|0,1:0|0:0,0:0:0:0:
274,209,422227,2,0,L|185:217,3,68.9999978942872,2|0|0|0,3:2|0:0|0:0|0:0,0:0:0:0:
55,329,422662,2,0,L|144:337,3,68.9999978942872,10|0|0|0,3:2|0:0|0:0|0:0,0:0:0:0:
447,350,423096,6,0,L|453:281,1,68.9999978942872,6|0,3:2|0:0,0:0:0:0:
325,70,423313,2,0,L|331:138,1,68.9999978942872,4|0,0:2|0:0,0:0:0:0:
362,305,423531,2,0,L|368:237,1,68.9999978942872,10|0,3:2|0:0,0:0:0:0:
272,310,423748,2,0,L|278:378,1,68.9999978942872,0|0,0:0|0:0,0:0:0:0:
159,205,423965,2,0,L|227:198,3,68.9999978942872,2|0|0|0,3:2|0:0|0:0|0:0,0:0:0:0:
35,43,424401,6,0,P|63:127|115:29,1,258.75000987053,12|0,3:1|0:0,0:0:0:0:
249,88,424835,5,6,3:2:0:0:
269,86,424943,1,0,0:0:0:0:
289,84,425052,1,0,0:0:0:0:
309,82,425161,1,0,0:0:0:0:
384,37,425270,5,10,3:2:0:0:
404,39,425378,1,0,0:0:0:0:
480,122,425488,5,0,1:0:0:0:
460,124,425597,1,0,0:0:0:0:
440,126,425706,1,0,0:0:0:0:
420,128,425814,1,0,0:0:0:0:
399,130,425922,1,0,0:0:0:0:
378,133,426031,1,0,0:0:0:0:
314,189,426139,5,10,3:2:0:0:
294,187,426248,1,0,0:0:0:0:
274,185,426357,1,0,0:0:0:0:
254,183,426465,1,0,0:0:0:0:
174,130,426574,5,6,3:2:0:0:
172,109,426683,1,0,0:0:0:0:
110,49,426792,5,4,0:2:0:0:
112,28,426901,1,0,0:0:0:0:
195,1,427009,6,0,L|283:10,1,68.9999978942872,10|0,3:2|0:0,0:0:0:0:
452,78,427227,2,0,L|364:87,1,68.9999978942872,0|0,0:0|0:0,0:0:0:0:
407,286,427444,6,0,P|357:247|311:226,1,97.7500018644333,0|0,0:0|0:0,0:0:0:0:
221,370,427661,2,0,P|229:322|233:273,1,97.7500018644333,0|0,0:0|0:0,0:0:0:0:
51,209,427878,2,0,P|99:212|147:206,1,97.7500018644333,0|0,0:0|0:0,0:0:0:0:
153,26,428096,2,0,P|164:74|186:118,1,97.7500018644333,0|0,0:0|0:0,0:0:0:0:
399,95,428314,6,0,L|332:76,3,68.9999978942872,2|0|0|0,3:1|0:0|0:0|0:0,0:0:0:0:
410,250,428748,2,0,L|476:231,1,68.9999978942872,10|0,3:2|0:0,0:0:0:0:
237,168,428966,2,0,L|170:149,1,68.9999978942872,0|0,1:0|0:0,0:0:0:0:
163,121,429183,2,0,L|230:140,3,68.9999978942872,2|0|0|0,3:2|0:0|0:0|0:0,0:0:0:0:
308,284,429617,2,0,L|242:303,3,68.9999978942872,10|0|0|0,3:2|0:0|0:0|0:0,0:0:0:0:
458,111,430052,6,0,L|374:129,1,68.9999978942872,6|0,3:2|0:0,0:0:0:0:
192,27,430270,2,0,L|259:41,1,68.9999978942872,4|0,0:2|0:0,0:0:0:0:
144,261,430487,2,0,L|126:177,3,68.9999978942872,10|0|0|0,3:2|0:0|0:0|0:0,0:0:0:0:
315,195,430922,2,0,L|269:122,3,68.9999978942872,2|0|0|0,3:2|0:0|0:0|0:0,0:0:0:0:
392,354,431357,6,0,B|359:292|390:238|470:248|419:60,1,258.75000987053,12|0,3:1|0:0,0:0:0:0:
302,35,431792,5,6,3:2:0:0:
282,33,431900,1,0,0:0:0:0:
262,31,432009,1,0,0:0:0:0:
242,29,432118,1,0,0:0:0:0:
172,75,432227,5,10,3:2:0:0:
152,77,432336,1,0,0:0:0:0:
83,159,432444,5,0,1:0:0:0:
103,161,432552,1,0,0:0:0:0:
123,163,432661,1,2,3:2:0:0:
143,165,432770,1,0,0:0:0:0:
163,168,432879,1,0,0:0:0:0:
183,171,432987,1,0,0:0:0:0:
273,220,433096,5,10,3:2:0:0:
273,220,433205,1,0,0:0:0:0:
328,132,433314,2,0,L|333:76,2,45.9999985961914,0|0|0,0:0|0:0|0:0,0:0:0:0:
434,31,433531,5,6,3:2:0:0:
478,100,433640,1,0,0:0:0:0:
489,181,433748,1,4,0:2:0:0:
467,261,433857,1,0,0:0:0:0:
410,321,433966,5,10,3:2:0:0:
360,283,434074,1,0,0:0:0:0:
300,263,434183,1,4,0:3:0:0:
237,259,434292,1,0,0:0:0:0:
177,278,434401,5,4,3:3:0:0:
199,235,434509,1,0,0:0:0:0:
200,186,434618,1,4,0:3:0:0:
188,138,434727,1,0,0:0:0:0:
159,99,434835,6,0,P|139:51|228:72,1,172.5,8|0,3:1|0:0,0:0:0:0:
405,148,435270,6,0,L|411:69,3,63.2500019302369,2|0|0|0,3:1|0:0|0:0|0:0,0:0:0:0:
300,233,435705,2,0,L|294:154,1,63.2500019302369,10|0,3:2|0:0,0:0:0:0:
434,241,435922,2,0,L|429:304,1,63.2500019302369,0|0,1:0|0:0,0:0:0:0:
405,313,436140,2,0,L|411:234,3,63.2500019302369,2|0|0|0,3:2|0:0|0:0|0:0,0:0:0:0:
269,354,436574,2,0,B|118:349|118:349|157:304,1,189.750005790711,10|0,3:2|0:0,0:0:0:0:
29,138,437009,6,0,L|45:224,1,63.2500019302369,6|0,3:2|0:0,0:0:0:0:
169,66,437227,2,0,L|158:154,1,63.2500019302369,4|0,0:2|0:0,0:0:0:0:
329,54,437444,2,0,L|288:132,3,63.2500019302369,10|0|0|0,3:2|0:0|0:0|0:0,0:0:0:0:
483,100,437879,2,0,L|418:160,3,63.2500019302369,2|0|0|0,3:2|0:0|0:0|0:0,0:0:0:0:
399,316,438314,6,0,P|450:342|436:238,1,224.24998973465,12|0,3:1|0:0,0:0:0:0:
193,306,438748,6,0,L|258:320,3,63.2500019302369,6|0|0|0,3:2|0:0|0:0|0:0,0:0:0:0:
198,171,439183,2,0,L|136:157,1,63.2500019302369,10|0,3:2|0:0,0:0:0:0:
319,74,439401,2,0,L|258:61,1,63.2500019302369,0|0,1:0|0:0,0:0:0:0:
251,36,439618,2,0,L|312:49,3,63.2500019302369,2|0|0|0,3:2|0:0|0:0|0:0,0:0:0:0:
424,196,440053,2,0,B|434:67|434:67|481:16,1,189.750005790711,10|0,3:2|0:0,0:0:0:0:
272,198,440487,6,0,L|353:191,1,63.2500019302369,6|0,3:2|0:0,0:0:0:0:
184,40,440705,2,0,L|247:45,1,63.2500019302369,4|0,0:2|0:0,0:0:0:0:
397,59,440922,1,10,3:2:0:0:
185,231,441140,6,0,P|164:264|152:321,1,86.2500032901765,0|0,0:0|0:0,0:0:0:0:
270,36,441357,2,0,P|287:75|290:118,1,86.2500032901765,0|0,0:0|0:0,0:0:0:0:
112,129,441574,2,0,P|155:126|196:136,1,86.2500032901765,0|0,0:0|0:0,0:0:0:0:
335,326,441792,2,0,P|298:304|271:271,1,86.2500032901765,0|0,0:0|0:0,0:0:0:0:
408,157,442009,2,0,P|376:185|336:202,1,86.2500032901765,0|0,0:0|0:0,0:0:0:0:
120,40,442227,6,0,L|115:116,3,63.2500019302369,2|0|0|0,3:1|0:0|0:0|0:0,0:0:0:0:
42,182,442661,2,0,L|47:258,1,63.2500019302369,10|0,3:2|0:0,0:0:0:0:
119,375,442879,2,0,L|123:311,1,63.2500019302369,0|0,1:0|0:0,0:0:0:0:
147,299,443096,2,0,L|142:375,3,63.2500019302369,2|0|0|0,3:2|0:0|0:0|0:0,0:0:0:0:
296,370,443531,2,0,B|275:245|275:245|343:215,1,189.750005790711,10|0,3:2|0:0,0:0:0:0:
492,139,443966,6,0,L|405:97,1,63.2500019302369,6|0,3:2|0:0,0:0:0:0:
223,97,444183,2,0,L|310:55,1,63.2500019302369,4|0,0:2|0:0,0:0:0:0:
332,219,444401,2,0,L|275:246,3,63.2500019302369,10|0|0|0,3:2|0:0|0:0|0:0,0:0:0:0:
88,219,444835,2,0,L|144:246,3,63.2500019302369,2|0|0|0,3:2|0:0|0:0|0:0,0:0:0:0:
300,74,445270,6,0,B|234:78|234:78|206:65|199:50|199:50|195:65|172:85|172:85|108:90|108:90|153:105|172:136,1,298.999986312867,12|0,3:1|0:0,0:0:0:0:
66,97,448096,6,0,P|57:60|1:76,1,97.7500018644333,0|0,0:3|0:0,0:0:0:0:
172,78,448314,6,0,P|185:43|141:-1,1,100.625000959635,0|0,0:3|0:0,0:0:0:0:
289,97,448531,6,0,P|316:70|298:1,1,103.499996841431,0|0,0:3|0:0,0:0:0:0:
387,194,448749,6,0,P|436:184|467:117,1,106.374999594212,4|0,0:1|0:0,0:0:0:0:
395,339,448966,6,0,P|442:356|507:354,1,109.24999708271,4|0,0:1|0:0,0:0:0:0:
