osu file format v14

[General]
AudioFilename: audio.mp3
AudioLeadIn: 0
PreviewTime: 130026
Countdown: 0
SampleSet: Soft
StackLeniency: 0.7
Mode: 3
LetterboxInBreaks: 0
SpecialStyle: 0
WidescreenStoryboard: 0

[Editor]
Bookmarks: 51991
DistanceSpacing: 1.2
BeatDivisor: 3
GridSize: 4
TimelineZoom: 2.099999

[Metadata]
Title:Turn It Up
TitleUnicode:Turn It Up
Artist:Armin van Buuren
ArtistUnicode:Armin van Buuren
Creator:Rivals_7
Version:Hypnotized
Source:
Tags:edm psytrance DJ english electronic dance music balance psychedelic trance ARMA463
BeatmapID:2651268
BeatmapSetID:1276059

[Difficulty]
HPDrainRate:8.8
CircleSize:4
OverallDifficulty:8.5
ApproachRate:5
SliderMultiplier:1.4
SliderTickRate:1

[Events]
//Background and Video events
0,0,"turn it up.jpg",0,0
//Break Periods
//Storyboard Layer 0 (Background)
//Storyboard Layer 1 (Fail)
//Storyboard Layer 2 (Pass)
//Storyboard Layer 3 (Foreground)
//Storyboard Layer 4 (Overlay)
//Storyboard Sound Samples

[TimingPoints]
1847,434.782608695652,4,2,1,60,1,0
29673,-66.66666667,4,2,1,60,0,0
29745,-200,4,2,1,60,0,0
29818,-66.66666667,4,2,1,60,0,0
29890,-200,4,2,1,60,0,0
29962,-66.66666667,4,2,1,60,0,0
30034,-200,4,2,1,60,0,0
30107,-66.66666667,4,2,1,60,0,0
30179,-200,4,2,1,60,0,0
30252,-66.66666667,4,2,1,60,0,0
30324,-200,4,2,1,60,0,0
30397,-66.66666667,4,2,1,60,0,0
30469,-200,4,2,1,60,0,0
30542,-66.66666667,4,2,1,60,0,0
30614,-200,4,2,1,60,0,0
30687,-66.66666667,4,2,1,60,0,0
30759,-200,4,2,1,60,0,0
30832,-66.66666667,4,2,1,60,0,0
30904,-200,4,2,1,60,0,0
30977,-66.66666667,4,2,1,60,0,0
31049,-200,4,2,1,60,0,0
31122,-66.66666667,4,2,1,60,0,0
31158,-200,4,2,1,60,0,0
31194,-66.66666667,4,2,1,60,0,0
31230,-200,4,2,1,60,0,0
31267,-66.66666667,4,2,1,60,0,0
31303,-200,4,2,1,60,0,0
31339,-66.66666667,4,2,1,60,0,0
31375,-200,4,2,1,60,0,0
31412,-66.66666667,4,2,1,60,0,0
31484,-200,4,2,1,60,0,0
31557,-66.66666667,4,2,1,60,0,0
31629,-200,4,2,1,60,0,0
31702,-66.66666667,4,2,1,60,0,0
31774,-200,4,2,1,60,0,0
31846,-66.66666667,4,2,1,60,0,0
31918,-200,4,2,1,60,0,0
31991,-66.66666667,4,2,1,60,0,0
32063,-200,4,2,1,60,0,0
32136,-66.66666667,4,2,1,60,0,0
32208,-200,4,2,1,60,0,0
32281,-66.66666667,4,2,1,60,0,0
32353,-200,4,2,1,60,0,0
32426,-66.66666667,4,2,1,60,0,0
32498,-200,4,2,1,60,0,0
32571,-66.66666667,4,2,1,60,0,0
32643,-200,4,2,1,60,0,0
32716,-33.33333333,4,2,1,60,0,0
32744,-44.38198074,4,2,1,60,0,0
32773,-62.0169866,4,2,1,60,0,0
32801,-92.71883812,4,2,1,60,0,0
32830,-153.5223814,4,2,1,60,0,0
32859,-302.1281872,4,2,1,60,0,0
32888,-851.9839622,4,2,1,60,0,0
32917,-9492.962944,4,2,1,60,0,0
32946,-9552.577645,4,2,1,60,0,0
32975,-853.4179229,4,2,1,60,0,0
33004,-302.4285182,4,2,1,60,0,0
33033,-153.630925,4,2,1,60,0,0
33062,-92.76972768,4,2,1,60,0,0
33092,-62.04481118,4,2,1,60,0,0
33121,-44.39881857,4,2,1,60,0,0
33150,-33.33712197,4,2,1,60,0,0
33151,-66.6666666666667,4,2,1,60,0,0
33223,-200,4,2,1,60,0,0
33296,-66.66666667,4,2,1,60,0,0
33368,-200,4,2,1,60,0,0
33440,-66.66666667,4,2,1,60,0,0
33512,-200,4,2,1,60,0,0
33585,-66.66666667,4,2,1,60,0,0
33657,-200,4,2,1,60,0,0
33730,-66.66666667,4,2,1,60,0,0
33802,-200,4,2,1,60,0,0
33875,-66.66666667,4,2,1,60,0,0
33947,-200,4,2,1,60,0,0
34020,-66.66666667,4,2,1,60,0,0
34092,-200,4,2,1,60,0,0
34165,-66.66666667,4,2,1,60,0,0
34237,-200,4,2,1,60,0,0
34310,-66.66666667,4,2,1,60,0,0
34382,-200,4,2,1,60,0,0
34455,-66.66666667,4,2,1,60,0,0
34527,-200,4,2,1,60,0,0
34600,-66.66666667,4,2,1,60,0,0
34636,-200,4,2,1,60,0,0
34672,-66.66666667,4,2,1,60,0,0
34708,-200,4,2,1,60,0,0
34745,-66.66666667,4,2,1,60,0,0
34781,-200,4,2,1,60,0,0
34817,-66.66666667,4,2,1,60,0,0
34853,-200,4,2,1,60,0,0
34890,-66.66666667,4,2,1,60,0,0
34962,-200,4,2,1,60,0,0
35035,-66.66666667,4,2,1,60,0,0
35107,-200,4,2,1,60,0,0
35180,-66.66666667,4,2,1,60,0,0
35252,-200,4,2,1,60,0,0
35324,-66.66666667,4,2,1,60,0,0
35396,-200,4,2,1,60,0,0
35469,-66.66666667,4,2,1,60,0,0
35541,-200,4,2,1,60,0,0
35614,-66.66666667,4,2,1,60,0,0
35686,-200,4,2,1,60,0,0
35759,-66.66666667,4,2,1,60,0,0
35831,-200,4,2,1,60,0,0
35904,-66.66666667,4,2,1,60,0,0
35976,-200,4,2,1,60,0,0
36049,-66.66666667,4,2,1,60,0,0
36121,-200,4,2,1,60,0,0
36194,-20,4,2,1,60,0,0
36204,-1000,4,2,1,60,0,0
36267,-20,4,2,1,60,0,0
36277,-1000,4,2,1,60,0,0
36339,-20,4,2,1,60,0,0
36349,-1000,4,2,1,60,0,0
36412,-20,4,2,1,60,0,0
36422,-1000,4,2,1,60,0,0
36484,-20,4,2,1,60,0,0
36494,-1000,4,2,1,60,0,0
36520,-100,4,2,1,60,0,0
36628,-33.33712197,4,2,1,60,0,0
36629,-66.6666666666667,4,2,1,60,0,0
36702,-200,4,2,1,60,0,0
36775,-66.66666667,4,2,1,60,0,0
36847,-200,4,2,1,60,0,0
36919,-66.66666667,4,2,1,60,0,0
36991,-200,4,2,1,60,0,0
37064,-66.66666667,4,2,1,60,0,0
37136,-200,4,2,1,60,0,0
37209,-66.66666667,4,2,1,60,0,0
37281,-200,4,2,1,60,0,0
37354,-66.66666667,4,2,1,60,0,0
37426,-200,4,2,1,60,0,0
37499,-66.66666667,4,2,1,60,0,0
37571,-200,4,2,1,60,0,0
37644,-66.66666667,4,2,1,60,0,0
37716,-200,4,2,1,60,0,0
37789,-66.66666667,4,2,1,60,0,0
37861,-200,4,2,1,60,0,0
37934,-66.66666667,4,2,1,60,0,0
38006,-200,4,2,1,60,0,0
38079,-66.66666667,4,2,1,60,0,0
38115,-200,4,2,1,60,0,0
38151,-66.66666667,4,2,1,60,0,0
38187,-200,4,2,1,60,0,0
38224,-66.66666667,4,2,1,60,0,0
38260,-200,4,2,1,60,0,0
38296,-66.66666667,4,2,1,60,0,0
38332,-200,4,2,1,60,0,0
38369,-66.66666667,4,2,1,60,0,0
38441,-200,4,2,1,60,0,0
38514,-66.66666667,4,2,1,60,0,0
38586,-200,4,2,1,60,0,0
38659,-66.66666667,4,2,1,60,0,0
38731,-200,4,2,1,60,0,0
38803,-66.66666667,4,2,1,60,0,0
38875,-200,4,2,1,60,0,0
38948,-66.66666667,4,2,1,60,0,0
39020,-200,4,2,1,60,0,0
39093,-66.66666667,4,2,1,60,0,0
39165,-200,4,2,1,60,0,0
39238,-66.66666667,4,2,1,60,0,0
39310,-200,4,2,1,60,0,0
39383,-66.66666667,4,2,1,60,0,0
39455,-200,4,2,1,60,0,0
39528,-66.66666667,4,2,1,60,0,0
39600,-200,4,2,1,60,0,0
39673,-33.33333333,4,2,1,60,0,0
39701,-44.38198074,4,2,1,60,0,0
39730,-62.0169866,4,2,1,60,0,0
39758,-92.71883812,4,2,1,60,0,0
39787,-153.5223814,4,2,1,60,0,0
39816,-302.1281872,4,2,1,60,0,0
39845,-851.9839622,4,2,1,60,0,0
39874,-9492.962944,4,2,1,60,0,0
39903,-9552.577645,4,2,1,60,0,0
39932,-853.4179229,4,2,1,60,0,0
39961,-302.4285182,4,2,1,60,0,0
39990,-153.630925,4,2,1,60,0,0
40019,-92.76972768,4,2,1,60,0,0
40049,-62.04481118,4,2,1,60,0,0
40078,-44.39881857,4,2,1,60,0,0
40107,-33.33712197,4,2,1,60,0,0
40108,-66.6666666666667,4,2,1,60,0,0
40180,-200,4,2,1,60,0,0
40253,-66.66666667,4,2,1,60,0,0
40325,-200,4,2,1,60,0,0
40397,-66.66666667,4,2,1,60,0,0
40469,-200,4,2,1,60,0,0
40542,-66.66666667,4,2,1,60,0,0
40614,-200,4,2,1,60,0,0
40687,-66.66666667,4,2,1,60,0,0
40759,-200,4,2,1,60,0,0
40832,-66.66666667,4,2,1,60,0,0
40904,-200,4,2,1,60,0,0
40977,-66.66666667,4,2,1,60,0,0
41049,-200,4,2,1,60,0,0
41122,-66.66666667,4,2,1,60,0,0
41194,-200,4,2,1,60,0,0
41267,-66.66666667,4,2,1,60,0,0
41339,-200,4,2,1,60,0,0
41412,-66.66666667,4,2,1,60,0,0
41484,-200,4,2,1,60,0,0
41557,-66.66666667,4,2,1,60,0,0
41593,-200,4,2,1,60,0,0
41629,-66.66666667,4,2,1,60,0,0
41665,-200,4,2,1,60,0,0
41702,-66.66666667,4,2,1,60,0,0
41738,-200,4,2,1,60,0,0
41774,-66.66666667,4,2,1,60,0,0
41810,-200,4,2,1,60,0,0
41847,-66.66666667,4,2,1,60,0,0
41919,-200,4,2,1,60,0,0
41992,-66.66666667,4,2,1,60,0,0
42064,-200,4,2,1,60,0,0
42137,-66.66666667,4,2,1,60,0,0
42209,-200,4,2,1,60,0,0
42281,-66.66666667,4,2,1,60,0,0
42353,-200,4,2,1,60,0,0
42426,-66.66666667,4,2,1,60,0,0
42498,-200,4,2,1,60,0,0
42571,-66.66666667,4,2,1,60,0,0
42643,-200,4,2,1,60,0,0
42716,-66.66666667,4,2,1,60,0,0
42788,-200,4,2,1,60,0,0
42861,-66.66666667,4,2,1,60,0,0
42933,-200,4,2,1,60,0,0
43006,-66.66666667,4,2,1,60,0,0
43078,-200,4,2,1,60,0,0
43151,-20,4,2,1,60,0,0
43161,-1000,4,2,1,60,0,0
43224,-20,4,2,1,60,0,0
43234,-1000,4,2,1,60,0,0
43296,-20,4,2,1,60,0,0
43306,-1000,4,2,1,60,0,0
43369,-20,4,2,1,60,0,0
43379,-1000,4,2,1,60,0,0
43441,-20,4,2,1,60,0,0
43451,-1000,4,2,1,60,0,0
43477,-100,4,2,1,60,0,0
43586,-76.9230769230769,4,2,1,60,0,0
43659,-90.9090909090909,4,2,1,60,0,0
43731,-111.111111111111,4,2,1,60,0,0
44021,-76.9230769230769,4,2,1,60,0,0
44093,-90.9090909090909,4,2,1,60,0,0
44166,-111.111111111111,4,2,1,60,0,0
44456,-76.9230769230769,4,2,1,60,0,0
44528,-90.9090909090909,4,2,1,60,0,0
44601,-111.111111111111,4,2,1,60,0,0
44891,-76.9230769230769,4,2,1,60,0,0
44963,-90.9090909090909,4,2,1,60,0,0
45035,-111.111111111111,4,2,1,60,0,0
45325,-76.9230769230769,4,2,1,60,0,0
45398,-90.9090909090909,4,2,1,60,0,0
45470,-111.111111111111,4,2,1,60,0,0
45760,-76.9230769230769,4,2,1,60,0,0
45832,-90.9090909090909,4,2,1,60,0,0
45905,-111.111111111111,4,2,1,60,0,0
46195,-76.9230769230769,4,2,1,60,0,0
46267,-90.9090909090909,4,2,1,60,0,0
46340,-111.111111111111,4,2,1,60,0,0
46630,-76.9230769230769,4,2,1,60,0,0
46702,-90.9090909090909,4,2,1,60,0,0
46774,-111.111111111111,4,2,1,60,0,0
47064,-76.9230769230769,4,2,1,60,0,0
47137,-90.9090909090909,4,2,1,60,0,0
47209,-111.111111111111,4,2,1,60,0,0
47499,-76.9230769230769,4,2,1,60,0,0
47571,-90.9090909090909,4,2,1,60,0,0
47644,-111.111111111111,4,2,1,60,0,0
47934,-76.9230769230769,4,2,1,60,0,0
48006,-90.9090909090909,4,2,1,60,0,0
48079,-111.111111111111,4,2,1,60,0,0
48369,-76.9230769230769,4,2,1,60,0,0
48441,-90.9090909090909,4,2,1,60,0,0
48513,-111.111111111111,4,2,1,60,0,0
48803,-76.9230769230769,4,2,1,60,0,0
48876,-90.9090909090909,4,2,1,60,0,0
48948,-111.111111111111,4,2,1,60,0,0
49238,-76.9230769230769,4,2,1,60,0,0
49310,-90.9090909090909,4,2,1,60,0,0
49383,-111.111111111111,4,2,1,60,0,0
49673,-76.9230769230769,4,2,1,60,0,0
49745,-90.9090909090909,4,2,1,60,0,0
49818,-111.111111111111,4,2,1,60,0,0
50108,-76.9230769230769,4,2,1,60,0,0
50180,-90.9090909090909,4,2,1,60,0,0
50252,-111.111111111111,4,2,1,60,0,0
50543,-76.9230769230769,4,2,1,60,0,0
50616,-90.9090909090909,4,2,1,60,0,0
50688,-111.111111111111,4,2,1,60,0,0
50978,-76.9230769230769,4,2,1,60,0,0
51050,-90.9090909090909,4,2,1,60,0,0
51123,-111.111111111111,4,2,1,60,0,0
51413,-76.9230769230769,4,2,1,60,0,0
51485,-90.9090909090909,4,2,1,60,0,0
51558,-111.111111111111,4,2,1,60,0,0
51848,-76.9230769230769,4,2,1,60,0,0
51920,-90.9090909090909,4,2,1,60,0,0
51992,-111.111111111111,4,2,1,60,0,0
52282,-76.9230769230769,4,2,1,60,0,0
52355,-90.9090909090909,4,2,1,60,0,0
52427,-111.111111111111,4,2,1,60,0,0
52717,-76.9230769230769,4,2,1,60,0,0
52789,-90.9090909090909,4,2,1,60,0,0
52862,-111.111111111111,4,2,1,60,0,0
53152,-76.9230769230769,4,2,1,60,0,0
53224,-90.9090909090909,4,2,1,60,0,0
53297,-111.111111111111,4,2,1,60,0,0
53587,-76.9230769230769,4,2,1,60,0,0
53659,-90.9090909090909,4,2,1,60,0,0
53731,-111.111111111111,4,2,1,60,0,0
54021,-76.9230769230769,4,2,1,60,0,0
54094,-90.9090909090909,4,2,1,60,0,0
54166,-111.111111111111,4,2,1,60,0,0
54456,-76.9230769230769,4,2,1,60,0,0
54528,-90.9090909090909,4,2,1,60,0,0
54601,-111.111111111111,4,2,1,60,0,0
54891,-76.9230769230769,4,2,1,60,0,0
54963,-90.9090909090909,4,2,1,60,0,0
55036,-111.111111111111,4,2,1,60,0,0
55326,-76.9230769230769,4,2,1,60,0,0
55398,-90.9090909090909,4,2,1,60,0,0
55470,-111.111111111111,4,2,1,60,0,0
55760,-76.9230769230769,4,2,1,60,0,0
55833,-90.9090909090909,4,2,1,60,0,0
55905,-111.111111111111,4,2,1,60,0,0
56195,-76.9230769230769,4,2,1,60,0,0
56267,-90.9090909090909,4,2,1,60,0,0
56340,-111.111111111111,4,2,1,60,0,0
56630,-76.9230769230769,4,2,1,60,0,0
56702,-90.9090909090909,4,2,1,60,0,0
56775,-111.111111111111,4,2,1,60,0,0
57065,-76.9230769230769,4,2,1,60,0,0
57137,-90.9090909090909,4,2,1,60,0,0
57209,-111.111111111111,4,2,1,60,0,0
57499,-76.9230769230769,4,2,1,60,0,0
57572,-90.9090909090909,4,2,1,60,0,0
57644,-111.111111111111,4,2,1,60,0,0
57934,-76.9230769230769,4,2,1,60,0,0
58006,-90.9090909090909,4,2,1,60,0,0
58079,-111.111111111111,4,2,1,60,0,0
58369,-76.9230769230769,4,2,1,60,0,0
58441,-90.9090909090909,4,2,1,60,0,0
58514,-111.111111111111,4,2,1,60,0,0
58804,-76.9230769230769,4,2,1,60,0,0
58876,-90.9090909090909,4,2,1,60,0,0
58948,-111.111111111111,4,2,1,60,0,0
59238,-76.9230769230769,4,2,1,60,0,0
59311,-90.9090909090909,4,2,1,60,0,0
59383,-111.111111111111,4,2,1,60,0,0
59673,-76.9230769230769,4,2,1,60,0,0
59745,-90.9090909090909,4,2,1,60,0,0
59818,-111.111111111111,4,2,1,60,0,0
60108,-76.9230769230769,4,2,1,60,0,0
60180,-90.9090909090909,4,2,1,60,0,0
60253,-111.111111111111,4,2,1,60,0,0
60543,-76.9230769230769,4,2,1,60,0,0
60615,-90.9090909090909,4,2,1,60,0,0
60687,-111.111111111111,4,2,1,60,0,0
60977,-76.9230769230769,4,2,1,60,0,0
61050,-90.9090909090909,4,2,1,60,0,0
61122,-111.111111111111,4,2,1,60,0,0
61412,-76.9230769230769,4,2,1,60,0,0
61484,-90.9090909090909,4,2,1,60,0,0
61557,-111.111111111111,4,2,1,60,0,0
61847,-76.9230769230769,4,2,1,60,0,0
61919,-90.9090909090909,4,2,1,60,0,0
61992,-111.111111111111,4,2,1,60,0,0
62282,-76.9230769230769,4,2,1,60,0,0
62354,-90.9090909090909,4,2,1,60,0,0
62426,-111.111111111111,4,2,1,60,0,0
62716,-76.9230769230769,4,2,1,60,0,0
62789,-90.9090909090909,4,2,1,60,0,0
62861,-111.111111111111,4,2,1,60,0,0
63151,-76.9230769230769,4,2,1,60,0,0
63223,-90.9090909090909,4,2,1,60,0,0
63296,-111.111111111111,4,2,1,60,0,0
63586,-76.9230769230769,4,2,1,60,0,0
63658,-90.9090909090909,4,2,1,60,0,0
63731,-111.111111111111,4,2,1,60,0,0
64021,-76.9230769230769,4,2,1,60,0,0
64093,-90.9090909090909,4,2,1,60,0,0
64165,-111.111111111111,4,2,1,60,0,0
64455,-76.9230769230769,4,2,1,60,0,0
64528,-90.9090909090909,4,2,1,60,0,0
64600,-111.111111111111,4,2,1,60,0,0
64890,-76.9230769230769,4,2,1,60,0,0
64962,-90.9090909090909,4,2,1,60,0,0
65035,-111.111111111111,4,2,1,60,0,0
65325,-76.9230769230769,4,2,1,60,0,0
65397,-90.9090909090909,4,2,1,60,0,0
65470,-111.111111111111,4,2,1,60,0,0
65760,-76.9230769230769,4,2,1,60,0,0
65832,-90.9090909090909,4,2,1,60,0,0
65904,-111.111111111111,4,2,1,60,0,0
66194,-76.9230769230769,4,2,1,60,0,0
66267,-90.9090909090909,4,2,1,60,0,0
66339,-111.111111111111,4,2,1,60,0,0
66629,-76.9230769230769,4,2,1,60,0,0
66701,-90.9090909090909,4,2,1,60,0,0
66774,-111.111111111111,4,2,1,60,0,0
67064,-76.9230769230769,4,2,1,60,0,0
67136,-90.9090909090909,4,2,1,60,0,0
67209,-111.111111111111,4,2,1,60,0,0
67499,-76.9230769230769,4,2,1,60,0,0
67571,-90.9090909090909,4,2,1,60,0,0
67643,-111.111111111111,4,2,1,60,0,0
67933,-76.9230769230769,4,2,1,60,0,0
68006,-90.9090909090909,4,2,1,60,0,0
68078,-111.111111111111,4,2,1,60,0,0
68368,-76.9230769230769,4,2,1,60,0,0
68440,-90.9090909090909,4,2,1,60,0,0
68513,-111.111111111111,4,2,1,60,0,0
68803,-76.9230769230769,4,2,1,60,0,0
68875,-90.9090909090909,4,2,1,60,0,0
68948,-111.111111111111,4,2,1,60,0,0
69238,-76.9230769230769,4,2,1,60,0,0
69310,-90.9090909090909,4,2,1,60,0,0
69382,-111.111111111111,4,2,1,60,0,0
69673,-76.9230769230769,4,2,1,60,0,0
69746,-90.9090909090909,4,2,1,60,0,0
69818,-111.111111111111,4,2,1,60,0,0
70108,-76.9230769230769,4,2,1,60,0,0
70180,-90.9090909090909,4,2,1,60,0,0
70253,-111.111111111111,4,2,1,60,0,0
70543,-76.9230769230769,4,2,1,60,0,0
70615,-90.9090909090909,4,2,1,60,0,0
70688,-111.111111111111,4,2,1,60,0,0
70978,-76.9230769230769,4,2,1,60,0,0
71050,-90.9090909090909,4,2,1,60,0,0
71122,-111.111111111111,4,2,1,60,0,0
71412,-33.3333333333333,4,2,1,60,0,0
71846,-50,4,2,1,60,0,0
72281,-100,4,2,1,60,0,0
72716,-200,4,2,1,60,0,0
73731,-196.078431,4,2,1,60,0,0
73753.72549,-194.285714,4,2,1,60,0,0
73776.45098,-192.525481,4,2,1,60,0,0
73799.176471,-190.796857,4,2,1,60,0,0
73821.901961,-189.098999,4,2,1,60,0,0
73844.627451,-187.431092,4,2,1,60,0,0
73867.352941,-185.79235,4,2,1,60,0,0
73890.078431,-184.182015,4,2,1,60,0,0
73912.803922,-182.599356,4,2,1,60,0,0
73935.529412,-181.043663,4,2,1,60,0,0
73958.254902,-179.514256,4,2,1,60,0,0
73980.980392,-178.010471,4,2,1,60,0,0
74003.705882,-176.531672,4,2,1,60,0,0
74026.431373,-175.07724,4,2,1,60,0,0
74049.156863,-173.646578,4,2,1,60,0,0
74071.882353,-172.239108,4,2,1,60,0,0
74094.607843,-170.854271,4,2,1,60,0,0
74117.333333,-169.491525,4,2,1,60,0,0
74140.058824,-168.150346,4,2,1,60,0,0
74162.784314,-166.830226,4,2,1,60,0,0
74185.509804,-165.530672,4,2,1,60,0,0
74208.235294,-164.251208,4,2,1,60,0,0
74230.960784,-162.991371,4,2,1,60,0,0
74253.686275,-161.750714,4,2,1,60,0,0
74276.411765,-160.528801,4,2,1,60,0,0
74299.137255,-159.325211,4,2,1,60,0,0
74321.862745,-158.139535,4,2,1,60,0,0
74344.588235,-156.971376,4,2,1,60,0,0
74367.313725,-155.820348,4,2,1,60,0,0
74390.039216,-154.686078,4,2,1,60,0,0
74412.764706,-153.568202,4,2,1,60,0,0
74435.490196,-152.466368,4,2,1,60,0,0
74458.215686,-151.380232,4,2,1,60,0,0
74480.941176,-150.309461,4,2,1,60,0,0
74503.666667,-149.253731,4,2,1,60,0,0
74526.392157,-148.212729,4,2,1,60,0,0
74549.117647,-147.186147,4,2,1,60,0,0
74571.843137,-146.173689,4,2,1,60,0,0
74594.568627,-145.175064,4,2,1,60,0,0
74617.294118,-144.189992,4,2,1,60,0,0
74640.019608,-143.218197,4,2,1,60,0,0
74662.745098,-142.259414,4,2,1,60,0,0
74685.470588,-141.313383,4,2,1,60,0,0
74708.196078,-140.379851,4,2,1,60,0,0
74730.921569,-139.458573,4,2,1,60,0,0
74753.647059,-138.549307,4,2,1,60,0,0
74776.372549,-137.651822,4,2,1,60,0,0
74799.098039,-136.765889,4,2,1,60,0,0
74821.823529,-135.891287,4,2,1,60,0,0
74844.54902,-135.0278,4,2,1,60,0,0
74867.27451,-134.175217,4,2,1,60,0,0
74890,-133.333333,4,2,1,60,0,0
88803,-133.3333333,4,2,1,60,0,0
89081,-132.450332,4,2,1,60,0,0
89359,-131.578949,4,2,1,60,0,0
89637,-130.7189567,4,2,1,60,0,0
89916,-129.8701331,4,2,1,60,0,0
90194,-129.032262,4,2,1,60,0,0
90472,-128.2051329,4,2,1,60,0,0
90750,-127.3885308,4,2,1,60,0,0
91029,-126.582275,4,2,1,60,0,0
91307,-125.7861609,4,2,1,60,0,0
91585,-124.9999981,4,2,1,60,0,0
91863,-124.2236014,4,2,1,60,0,0
92142,-123.4567898,4,2,1,60,0,0
92420,-122.6993869,4,2,1,60,0,0
92698,-121.9512206,4,2,1,60,0,0
92976,-121.212123,4,2,1,60,0,0
93255,-120.4819301,4,2,1,60,0,0
93533,-119.7604821,4,2,1,60,0,0
93811,-119.0476228,4,2,1,60,0,0
94089,-118.3431913,4,2,1,60,0,0
94368,-117.6470555,4,2,1,60,0,0
94646,-116.9590617,4,2,1,60,0,0
94924,-116.2790678,4,2,1,60,0,0
95202,-115.6069351,4,2,1,60,0,0
95481,-114.9425281,4,2,1,60,0,0
95759,-114.2857143,4,2,1,60,0,0
96037,-113.6363643,4,2,1,60,0,0
96316,-112.9943515,4,2,1,60,0,0
96594,-112.3595524,4,2,1,60,0,0
96872,-111.731846,4,2,1,60,0,0
97150,-111.1111141,4,2,1,60,0,0
97429,-110.4972411,4,2,1,60,0,0
97707,-109.8901067,4,2,1,60,0,0
97985,-109.2896149,4,2,1,60,0,0
98263,-108.6956502,4,2,1,60,0,0
98542,-108.1081067,4,2,1,60,0,0
98820,-107.5268809,4,2,1,60,0,0
99098,-106.9518714,4,2,1,60,0,0
99376,-106.382979,4,2,1,60,0,0
99655,-105.8201066,4,2,1,60,0,0
99933,-105.2631592,4,2,1,60,0,0
100211,-104.7120437,4,2,1,60,0,0
100489,-104.166669,4,2,1,60,0,0
100768,-103.6269458,4,2,1,60,0,0
101046,-103.0927805,4,2,1,60,0,0
101324,-102.5641001,4,2,1,60,0,0
101602,-102.0408143,4,2,1,60,0,0
101881,-101.5228412,4,2,1,60,0,0
102159,-101.0101,4,2,1,60,0,0
102437,-100.5025121,4,2,1,60,0,0
102716,-100,4,2,1,60,0,0
116629,-33.33333333,4,2,1,60,0,0
116636,-36.74889271,4,2,1,60,0,0
116646,-40.6746538,4,2,1,60,0,0
116656,-45.20613159,4,2,1,60,0,0
116669,-50.4582265,4,2,1,60,0,0
116682,-56.56818012,4,2,1,60,0,0
116698,-63.6978541,4,2,1,60,0,0
116714,-72.03377889,4,2,1,60,0,0
116732,-81.78245533,4,2,1,60,0,0
116752,-93.15607865,4,2,1,60,0,0
116773,-106.3410106,4,2,1,60,0,0
116795,-121.4377371,4,2,1,60,0,0
116819,-138.3592521,4,2,1,60,0,0
116845,-156.6814627,4,2,1,60,0,0
116872,-175.4658093,4,2,1,60,0,0
116900,-193.1328831,4,2,1,60,0,0
116930,-207.5388824,4,2,1,60,0,0
116961,-216.4084287,4,2,1,60,0,0
116994,-218.0865475,4,2,1,60,0,0
117028,-212.2374028,4,2,1,60,0,0
117064,-200,4,2,1,60,0,0
118368,-33.33333333,4,2,1,60,0,0
118375,-36.74889271,4,2,1,60,0,0
118385,-40.6746538,4,2,1,60,0,0
118395,-45.20613159,4,2,1,60,0,0
118408,-50.4582265,4,2,1,60,0,0
118421,-56.56818012,4,2,1,60,0,0
118437,-63.6978541,4,2,1,60,0,0
118453,-72.03377889,4,2,1,60,0,0
118471,-81.78245533,4,2,1,60,0,0
118491,-93.15607865,4,2,1,60,0,0
118512,-106.3410106,4,2,1,60,0,0
118534,-121.4377371,4,2,1,60,0,0
118558,-138.3592521,4,2,1,60,0,0
118584,-156.6814627,4,2,1,60,0,0
118611,-175.4658093,4,2,1,60,0,0
118639,-193.1328831,4,2,1,60,0,0
118669,-207.5388824,4,2,1,60,0,0
118700,-216.4084287,4,2,1,60,0,0
118733,-218.0865475,4,2,1,60,0,0
118767,-212.2374028,4,2,1,60,0,0
118803,-200,4,2,1,60,0,0
120107,-33.33333333,4,2,1,60,0,0
120114,-36.74889271,4,2,1,60,0,0
120124,-40.6746538,4,2,1,60,0,0
120134,-45.20613159,4,2,1,60,0,0
120147,-50.4582265,4,2,1,60,0,0
120160,-56.56818012,4,2,1,60,0,0
120176,-63.6978541,4,2,1,60,0,0
120192,-72.03377889,4,2,1,60,0,0
120210,-81.78245533,4,2,1,60,0,0
120230,-93.15607865,4,2,1,60,0,0
120251,-106.3410106,4,2,1,60,0,0
120273,-121.4377371,4,2,1,60,0,0
120297,-138.3592521,4,2,1,60,0,0
120323,-156.6814627,4,2,1,60,0,0
120350,-175.4658093,4,2,1,60,0,0
120378,-193.1328831,4,2,1,60,0,0
120408,-207.5388824,4,2,1,60,0,0
120439,-216.4084287,4,2,1,60,0,0
120472,-218.0865475,4,2,1,60,0,0
120506,-212.2374028,4,2,1,60,0,0
120542,-200,4,2,1,60,0,0
120977,-33.33333333,4,2,1,60,0,0
120984,-36.74889271,4,2,1,60,0,0
120994,-40.6746538,4,2,1,60,0,0
121004,-45.20613159,4,2,1,60,0,0
121017,-50.4582265,4,2,1,60,0,0
121030,-56.56818012,4,2,1,60,0,0
121046,-63.6978541,4,2,1,60,0,0
121062,-72.03377889,4,2,1,60,0,0
121080,-81.78245533,4,2,1,60,0,0
121100,-93.15607865,4,2,1,60,0,0
121121,-106.3410106,4,2,1,60,0,0
121143,-121.4377371,4,2,1,60,0,0
121167,-138.3592521,4,2,1,60,0,0
121193,-156.6814627,4,2,1,60,0,0
121220,-175.4658093,4,2,1,60,0,0
121248,-193.1328831,4,2,1,60,0,0
121278,-207.5388824,4,2,1,60,0,0
121309,-216.4084287,4,2,1,60,0,0
121342,-218.0865475,4,2,1,60,0,0
121376,-212.2374028,4,2,1,60,0,0
121412,-200,4,2,1,60,0,0
121846,-66.66666667,4,2,1,60,0,0
121918,-200,4,2,1,60,0,0
121991,-66.66666667,4,2,1,60,0,0
122063,-200,4,2,1,60,0,0
122136,-66.66666667,4,2,1,60,0,0
122208,-200,4,2,1,60,0,0
122281,-66.66666667,4,2,1,60,0,0
122353,-200,4,2,1,60,0,0
122426,-66.66666667,4,2,1,60,0,0
122498,-200,4,2,1,60,0,0
122571,-66.66666667,4,2,1,60,0,0
122643,-200,4,2,1,60,0,0
122716,-66.66666667,4,2,1,60,0,0
122788,-200,4,2,1,60,0,0
122861,-66.66666667,4,2,1,60,0,0
122933,-200,4,2,1,60,0,0
123006,-66.66666667,4,2,1,60,0,0
123078,-200,4,2,1,60,0,0
123151,-66.66666667,4,2,1,60,0,0
123223,-200,4,2,1,60,0,0
123296,-66.66666667,4,2,1,60,0,0
123368,-200,4,2,1,60,0,0
123441,-66.66666667,4,2,1,60,0,0
123513,-200,4,2,1,60,0,0
123586,-66.66666667,4,2,1,60,0,0
123658,-200,4,2,1,60,0,0
123731,-66.66666667,4,2,1,60,0,0
123803,-200,4,2,1,60,0,0
123875,-66.66666667,4,2,1,60,0,0
123947,-200,4,2,1,60,0,0
124020,-66.66666667,4,2,1,60,0,0
124092,-200,4,2,1,60,0,0
124165,-66.66666667,4,2,1,60,0,0
124237,-200,4,2,1,60,0,0
124310,-66.66666667,4,2,1,60,0,0
124382,-200,4,2,1,60,0,0
124455,-66.66666667,4,2,1,60,0,0
124527,-200,4,2,1,60,0,0
124600,-66.66666667,4,2,1,60,0,0
124672,-200,4,2,1,60,0,0
124745,-66.66666667,4,2,1,60,0,0
124817,-200,4,2,1,60,0,0
124890,-66.66666667,4,2,1,60,0,0
124962,-200,4,2,1,60,0,0
125035,-66.66666667,4,2,1,60,0,0
125107,-200,4,2,1,60,0,0
125180,-66.66666667,4,2,1,60,0,0
125252,-200,4,2,1,60,0,0
125325,-66.66666667,4,2,1,60,0,0
125361,-200,4,2,1,60,0,0
125397,-66.66666667,4,2,1,60,0,0
125433,-200,4,2,1,60,0,0
125470,-66.66666667,4,2,1,60,0,0
125506,-200,4,2,1,60,0,0
125542,-66.66666667,4,2,1,60,0,0
125578,-200,4,2,1,60,0,0
125615,-66.66666667,4,2,1,60,0,0
125651,-200,4,2,1,60,0,0
125687,-66.66666667,4,2,1,60,0,0
125723,-200,4,2,1,60,0,0
125760,-66.66666667,4,2,1,60,0,0
125796,-200,4,2,1,60,0,0
125832,-66.66666667,4,2,1,60,0,0
125868,-200,4,2,1,60,0,0
125904,-66.66666667,4,2,1,60,0,0
125940,-200,4,2,1,60,0,0
125977,-66.66666667,4,2,1,60,0,0
126013,-200,4,2,1,60,0,0
126049,-66.66666667,4,2,1,60,0,0
126085,-200,4,2,1,60,0,0
126122,-66.66666667,4,2,1,60,0,0
126158,-200,4,2,1,60,0,0
126194,-66.66666667,4,2,1,60,0,0
126230,-200,4,2,1,60,0,0
126267,-66.66666667,4,2,1,60,0,0
126303,-200,4,2,1,60,0,0
126339,-66.66666667,4,2,1,60,0,0
126375,-200,4,2,1,60,0,0
126412,-66.66666667,4,2,1,60,0,0
126448,-200,4,2,1,60,0,0
126484,-66.66666667,4,2,1,60,0,0
126520,-200,4,2,1,60,0,0
126557,-66.66666667,4,2,1,60,0,0
126593,-200,4,2,1,60,0,0
126629,-66.66666667,4,2,1,60,0,0
126665,-200,4,2,1,60,0,0
126702,-66.66666667,4,2,1,60,0,0
126738,-200,4,2,1,60,0,0
126774,-66.66666667,4,2,1,60,0,0
126810,-200,4,2,1,60,0,0
126846,-66.66666667,4,2,1,60,0,0
126882,-200,4,2,1,60,0,0
126919,-66.66666667,4,2,1,60,0,0
126955,-200,4,2,1,60,0,0
126991,-66.66666667,4,2,1,60,0,0
127027,-200,4,2,1,60,0,0
130542,-66.66666667,4,2,1,60,0,0
130614,-200,4,2,1,60,0,0
130687,-66.66666667,4,2,1,60,0,0
130759,-200,4,2,1,60,0,0
130831,-66.66666667,4,2,1,60,0,0
130903,-200,4,2,1,60,0,0
130976,-66.66666667,4,2,1,60,0,0
131048,-200,4,2,1,60,0,0
131121,-66.66666667,4,2,1,60,0,0
131193,-200,4,2,1,60,0,0
131266,-66.66666667,4,2,1,60,0,0
131338,-200,4,2,1,60,0,0
131411,-66.66666667,4,2,1,60,0,0
131483,-200,4,2,1,60,0,0
131556,-66.66666667,4,2,1,60,0,0
131628,-200,4,2,1,60,0,0
131701,-66.66666667,4,2,1,60,0,0
131773,-200,4,2,1,60,0,0
131846,-66.66666667,4,2,1,60,0,0
131918,-200,4,2,1,60,0,0
131991,-66.66666667,4,2,1,60,0,0
132027,-200,4,2,1,60,0,0
132063,-66.66666667,4,2,1,60,0,0
132099,-200,4,2,1,60,0,0
132136,-66.66666667,4,2,1,60,0,0
132172,-200,4,2,1,60,0,0
132208,-66.66666667,4,2,1,60,0,0
132244,-200,4,2,1,60,0,0
132281,-66.66666667,4,2,1,60,0,0
132353,-200,4,2,1,60,0,0
132426,-66.66666667,4,2,1,60,0,0
132498,-200,4,2,1,60,0,0
132571,-66.66666667,4,2,1,60,0,0
132643,-200,4,2,1,60,0,0
132715,-66.66666667,4,2,1,60,0,0
132787,-200,4,2,1,60,0,0
132860,-66.66666667,4,2,1,60,0,0
132932,-200,4,2,1,60,0,0
133005,-66.66666667,4,2,1,60,0,0
133077,-200,4,2,1,60,0,0
133150,-66.66666667,4,2,1,60,0,0
133222,-200,4,2,1,60,0,0
133295,-66.66666667,4,2,1,60,0,0
133367,-200,4,2,1,60,0,0
133440,-66.66666667,4,2,1,60,0,0
133512,-200,4,2,1,60,0,0
133585,-33.33333333,4,2,1,60,0,0
133613,-44.38198074,4,2,1,60,0,0
133642,-62.0169866,4,2,1,60,0,0
133670,-92.71883812,4,2,1,60,0,0
133699,-153.5223814,4,2,1,60,0,0
133728,-302.1281872,4,2,1,60,0,0
133757,-851.9839622,4,2,1,60,0,0
133786,-9492.962944,4,2,1,60,0,0
133815,-9552.577645,4,2,1,60,0,0
133844,-853.4179229,4,2,1,60,0,0
133873,-302.4285182,4,2,1,60,0,0
133902,-153.630925,4,2,1,60,0,0
133931,-92.76972768,4,2,1,60,0,0
133961,-62.04481118,4,2,1,60,0,0
133990,-44.39881857,4,2,1,60,0,0
134019,-33.33712197,4,2,1,60,0,0
134020,-66.6666666666667,4,2,1,60,0,0
134092,-200,4,2,1,60,0,0
134165,-66.66666667,4,2,1,60,0,0
134237,-200,4,2,1,60,0,0
134309,-66.66666667,4,2,1,60,0,0
134381,-200,4,2,1,60,0,0
134454,-66.66666667,4,2,1,60,0,0
134526,-200,4,2,1,60,0,0
134599,-66.66666667,4,2,1,60,0,0
134671,-200,4,2,1,60,0,0
134744,-66.66666667,4,2,1,60,0,0
134816,-200,4,2,1,60,0,0
134889,-66.66666667,4,2,1,60,0,0
134961,-200,4,2,1,60,0,0
135034,-66.66666667,4,2,1,60,0,0
135106,-200,4,2,1,60,0,0
135179,-66.66666667,4,2,1,60,0,0
135251,-200,4,2,1,60,0,0
135324,-66.66666667,4,2,1,60,0,0
135396,-200,4,2,1,60,0,0
135469,-66.66666667,4,2,1,60,0,0
135505,-200,4,2,1,60,0,0
135541,-66.66666667,4,2,1,60,0,0
135577,-200,4,2,1,60,0,0
135614,-66.66666667,4,2,1,60,0,0
135650,-200,4,2,1,60,0,0
135686,-66.66666667,4,2,1,60,0,0
135722,-200,4,2,1,60,0,0
135759,-66.66666667,4,2,1,60,0,0
135831,-200,4,2,1,60,0,0
135904,-66.66666667,4,2,1,60,0,0
135976,-200,4,2,1,60,0,0
136049,-66.66666667,4,2,1,60,0,0
136121,-200,4,2,1,60,0,0
136193,-66.66666667,4,2,1,60,0,0
136265,-200,4,2,1,60,0,0
136338,-66.66666667,4,2,1,60,0,0
136410,-200,4,2,1,60,0,0
136483,-66.66666667,4,2,1,60,0,0
136555,-200,4,2,1,60,0,0
136628,-66.66666667,4,2,1,60,0,0
136700,-200,4,2,1,60,0,0
136773,-66.66666667,4,2,1,60,0,0
136845,-200,4,2,1,60,0,0
136918,-66.66666667,4,2,1,60,0,0
136990,-200,4,2,1,60,0,0
137064,-20,4,2,1,60,0,0
137074,-1000,4,2,1,60,0,0
137137,-20,4,2,1,60,0,0
137147,-1000,4,2,1,60,0,0
137209,-20,4,2,1,60,0,0
137219,-1000,4,2,1,60,0,0
137282,-20,4,2,1,60,0,0
137292,-1000,4,2,1,60,0,0
137354,-20,4,2,1,60,0,0
137364,-1000,4,2,1,60,0,0
137390,-100,4,2,1,60,0,0
137498,-66.6666666666667,4,2,1,60,0,0
137571,-200,4,2,1,60,0,0
137644,-66.66666667,4,2,1,60,0,0
137716,-200,4,2,1,60,0,0
137788,-66.66666667,4,2,1,60,0,0
137860,-200,4,2,1,60,0,0
137933,-66.66666667,4,2,1,60,0,0
138005,-200,4,2,1,60,0,0
138078,-66.66666667,4,2,1,60,0,0
138150,-200,4,2,1,60,0,0
138223,-66.66666667,4,2,1,60,0,0
138295,-200,4,2,1,60,0,0
138368,-66.66666667,4,2,1,60,0,0
138440,-200,4,2,1,60,0,0
138513,-66.66666667,4,2,1,60,0,0
138585,-200,4,2,1,60,0,0
138658,-66.66666667,4,2,1,60,0,0
138730,-200,4,2,1,60,0,0
138803,-66.66666667,4,2,1,60,0,0
138875,-200,4,2,1,60,0,0
138948,-66.66666667,4,2,1,60,0,0
138984,-200,4,2,1,60,0,0
139020,-66.66666667,4,2,1,60,0,0
139056,-200,4,2,1,60,0,0
139093,-66.66666667,4,2,1,60,0,0
139129,-200,4,2,1,60,0,0
139165,-66.66666667,4,2,1,60,0,0
139201,-200,4,2,1,60,0,0
139238,-66.66666667,4,2,1,60,0,0
139310,-200,4,2,1,60,0,0
139383,-66.66666667,4,2,1,60,0,0
139455,-200,4,2,1,60,0,0
139528,-66.66666667,4,2,1,60,0,0
139600,-200,4,2,1,60,0,0
139672,-66.66666667,4,2,1,60,0,0
139744,-200,4,2,1,60,0,0
139817,-66.66666667,4,2,1,60,0,0
139889,-200,4,2,1,60,0,0
139962,-66.66666667,4,2,1,60,0,0
140034,-200,4,2,1,60,0,0
140107,-66.66666667,4,2,1,60,0,0
140179,-200,4,2,1,60,0,0
140252,-66.66666667,4,2,1,60,0,0
140324,-200,4,2,1,60,0,0
140397,-66.66666667,4,2,1,60,0,0
140469,-200,4,2,1,60,0,0
140542,-33.33333333,4,2,1,60,0,0
140570,-44.38198074,4,2,1,60,0,0
140599,-62.0169866,4,2,1,60,0,0
140627,-92.71883812,4,2,1,60,0,0
140656,-153.5223814,4,2,1,60,0,0
140685,-302.1281872,4,2,1,60,0,0
140714,-851.9839622,4,2,1,60,0,0
140743,-9492.962944,4,2,1,60,0,0
140772,-9552.577645,4,2,1,60,0,0
140801,-853.4179229,4,2,1,60,0,0
140830,-302.4285182,4,2,1,60,0,0
140859,-153.630925,4,2,1,60,0,0
140888,-92.76972768,4,2,1,60,0,0
140918,-62.04481118,4,2,1,60,0,0
140947,-44.39881857,4,2,1,60,0,0
140976,-33.33712197,4,2,1,60,0,0
140977,-66.6666666666667,4,2,1,60,0,0
141049,-200,4,2,1,60,0,0
141122,-66.66666667,4,2,1,60,0,0
141194,-200,4,2,1,60,0,0
141266,-66.66666667,4,2,1,60,0,0
141338,-200,4,2,1,60,0,0
141411,-66.66666667,4,2,1,60,0,0
141483,-200,4,2,1,60,0,0
141556,-66.66666667,4,2,1,60,0,0
141628,-200,4,2,1,60,0,0
141701,-66.66666667,4,2,1,60,0,0
141773,-200,4,2,1,60,0,0
141846,-66.66666667,4,2,1,60,0,0
141918,-200,4,2,1,60,0,0
141991,-66.66666667,4,2,1,60,0,0
142063,-200,4,2,1,60,0,0
142136,-66.66666667,4,2,1,60,0,0
142208,-200,4,2,1,60,0,0
142281,-66.66666667,4,2,1,60,0,0
142353,-200,4,2,1,60,0,0
142426,-66.66666667,4,2,1,60,0,0
142462,-200,4,2,1,60,0,0
142498,-66.66666667,4,2,1,60,0,0
142534,-200,4,2,1,60,0,0
142571,-66.66666667,4,2,1,60,0,0
142607,-200,4,2,1,60,0,0
142643,-66.66666667,4,2,1,60,0,0
142679,-200,4,2,1,60,0,0
142716,-66.66666667,4,2,1,60,0,0
142788,-200,4,2,1,60,0,0
142861,-66.66666667,4,2,1,60,0,0
142933,-200,4,2,1,60,0,0
143006,-66.66666667,4,2,1,60,0,0
143078,-200,4,2,1,60,0,0
143150,-66.66666667,4,2,1,60,0,0
143222,-200,4,2,1,60,0,0
143295,-66.66666667,4,2,1,60,0,0
143367,-200,4,2,1,60,0,0
143440,-66.66666667,4,2,1,60,0,0
143512,-200,4,2,1,60,0,0
143585,-66.66666667,4,2,1,60,0,0
143657,-200,4,2,1,60,0,0
143730,-66.66666667,4,2,1,60,0,0
143802,-200,4,2,1,60,0,0
143875,-66.66666667,4,2,1,60,0,0
143947,-200,4,2,1,60,0,0
144020,-20,4,2,1,60,0,0
144030,-1000,4,2,1,60,0,0
144093,-20,4,2,1,60,0,0
144103,-1000,4,2,1,60,0,0
144165,-20,4,2,1,60,0,0
144175,-1000,4,2,1,60,0,0
144238,-20,4,2,1,60,0,0
144248,-1000,4,2,1,60,0,0
144310,-20,4,2,1,60,0,0
144320,-1000,4,2,1,60,0,0
144346,-100,4,2,1,60,0,0
144455,-76.9230769230769,4,2,1,60,0,0
144528,-90.9090909090909,4,2,1,60,0,0
144600,-111.111111111111,4,2,1,60,0,0
144890,-76.9230769230769,4,2,1,60,0,0
144962,-90.9090909090909,4,2,1,60,0,0
145035,-111.111111111111,4,2,1,60,0,0
145325,-76.9230769230769,4,2,1,60,0,0
145397,-90.9090909090909,4,2,1,60,0,0
145470,-111.111111111111,4,2,1,60,0,0
145760,-76.9230769230769,4,2,1,60,0,0
145832,-90.9090909090909,4,2,1,60,0,0
145904,-111.111111111111,4,2,1,60,0,0
146194,-76.9230769230769,4,2,1,60,0,0
146267,-90.9090909090909,4,2,1,60,0,0
146339,-111.111111111111,4,2,1,60,0,0
146629,-76.9230769230769,4,2,1,60,0,0
146701,-90.9090909090909,4,2,1,60,0,0
146774,-111.111111111111,4,2,1,60,0,0
147064,-76.9230769230769,4,2,1,60,0,0
147136,-90.9090909090909,4,2,1,60,0,0
147209,-111.111111111111,4,2,1,60,0,0
147499,-76.9230769230769,4,2,1,60,0,0
147571,-90.9090909090909,4,2,1,60,0,0
147643,-111.111111111111,4,2,1,60,0,0
147933,-76.9230769230769,4,2,1,60,0,0
148006,-90.9090909090909,4,2,1,60,0,0
148078,-111.111111111111,4,2,1,60,0,0
148368,-76.9230769230769,4,2,1,60,0,0
148440,-90.9090909090909,4,2,1,60,0,0
148513,-111.111111111111,4,2,1,60,0,0
148803,-76.9230769230769,4,2,1,60,0,0
148875,-90.9090909090909,4,2,1,60,0,0
148948,-111.111111111111,4,2,1,60,0,0
149238,-76.9230769230769,4,2,1,60,0,0
149310,-90.9090909090909,4,2,1,60,0,0
149382,-111.111111111111,4,2,1,60,0,0
149672,-76.9230769230769,4,2,1,60,0,0
149745,-90.9090909090909,4,2,1,60,0,0
149817,-111.111111111111,4,2,1,60,0,0
150107,-76.9230769230769,4,2,1,60,0,0
150179,-90.9090909090909,4,2,1,60,0,0
150252,-111.111111111111,4,2,1,60,0,0
150542,-76.9230769230769,4,2,1,60,0,0
150614,-90.9090909090909,4,2,1,60,0,0
150687,-111.111111111111,4,2,1,60,0,0
150977,-76.9230769230769,4,2,1,60,0,0
151049,-90.9090909090909,4,2,1,60,0,0
151121,-111.111111111111,4,2,1,60,0,0
151412,-76.9230769230769,4,2,1,60,0,0
151485,-90.9090909090909,4,2,1,60,0,0
151557,-111.111111111111,4,2,1,60,0,0
151847,-76.9230769230769,4,2,1,60,0,0
151919,-90.9090909090909,4,2,1,60,0,0
151992,-111.111111111111,4,2,1,60,0,0
152282,-76.9230769230769,4,2,1,60,0,0
152354,-90.9090909090909,4,2,1,60,0,0
152427,-111.111111111111,4,2,1,60,0,0
152717,-76.9230769230769,4,2,1,60,0,0
152789,-90.9090909090909,4,2,1,60,0,0
152861,-111.111111111111,4,2,1,60,0,0
153151,-76.9230769230769,4,2,1,60,0,0
153224,-90.9090909090909,4,2,1,60,0,0
153296,-111.111111111111,4,2,1,60,0,0
153586,-76.9230769230769,4,2,1,60,0,0
153658,-90.9090909090909,4,2,1,60,0,0
153731,-111.111111111111,4,2,1,60,0,0
154021,-76.9230769230769,4,2,1,60,0,0
154093,-90.9090909090909,4,2,1,60,0,0
154166,-111.111111111111,4,2,1,60,0,0
154456,-76.9230769230769,4,2,1,60,0,0
154528,-90.9090909090909,4,2,1,60,0,0
154600,-111.111111111111,4,2,1,60,0,0
154890,-76.9230769230769,4,2,1,60,0,0
154963,-90.9090909090909,4,2,1,60,0,0
155035,-111.111111111111,4,2,1,60,0,0
155325,-76.9230769230769,4,2,1,60,0,0
155397,-90.9090909090909,4,2,1,60,0,0
155470,-111.111111111111,4,2,1,60,0,0
155760,-76.9230769230769,4,2,1,60,0,0
155832,-90.9090909090909,4,2,1,60,0,0
155905,-111.111111111111,4,2,1,60,0,0
156195,-76.9230769230769,4,2,1,60,0,0
156267,-90.9090909090909,4,2,1,60,0,0
156339,-111.111111111111,4,2,1,60,0,0
156629,-76.9230769230769,4,2,1,60,0,0
156702,-90.9090909090909,4,2,1,60,0,0
156774,-111.111111111111,4,2,1,60,0,0
157064,-76.9230769230769,4,2,1,60,0,0
157136,-90.9090909090909,4,2,1,60,0,0
157209,-111.111111111111,4,2,1,60,0,0
157499,-76.9230769230769,4,2,1,60,0,0
157571,-90.9090909090909,4,2,1,60,0,0
157644,-111.111111111111,4,2,1,60,0,0
157934,-76.9230769230769,4,2,1,60,0,0
158006,-90.9090909090909,4,2,1,60,0,0
158078,-111.111111111111,4,2,1,60,0,0
158368,-76.9230769230769,4,2,1,60,0,0
158441,-90.9090909090909,4,2,1,60,0,0
158513,-111.111111111111,4,2,1,60,0,0
158803,-76.9230769230769,4,2,1,60,0,0
158875,-90.9090909090909,4,2,1,60,0,0
158948,-111.111111111111,4,2,1,60,0,0
159238,-76.9230769230769,4,2,1,60,0,0
159310,-90.9090909090909,4,2,1,60,0,0
159383,-111.111111111111,4,2,1,60,0,0
159673,-76.9230769230769,4,2,1,60,0,0
159745,-90.9090909090909,4,2,1,60,0,0
159817,-111.111111111111,4,2,1,60,0,0
160107,-76.9230769230769,4,2,1,60,0,0
160180,-90.9090909090909,4,2,1,60,0,0
160252,-111.111111111111,4,2,1,60,0,0
160542,-76.9230769230769,4,2,1,60,0,0
160614,-90.9090909090909,4,2,1,60,0,0
160687,-111.111111111111,4,2,1,60,0,0
160977,-76.9230769230769,4,2,1,60,0,0
161049,-90.9090909090909,4,2,1,60,0,0
161122,-111.111111111111,4,2,1,60,0,0
161412,-76.9230769230769,4,2,1,60,0,0
161484,-90.9090909090909,4,2,1,60,0,0
161556,-111.111111111111,4,2,1,60,0,0
161846,-76.9230769230769,4,2,1,60,0,0
161919,-90.9090909090909,4,2,1,60,0,0
161991,-111.111111111111,4,2,1,60,0,0
162281,-76.9230769230769,4,2,1,60,0,0
162353,-90.9090909090909,4,2,1,60,0,0
162426,-111.111111111111,4,2,1,60,0,0
162716,-76.9230769230769,4,2,1,60,0,0
162788,-90.9090909090909,4,2,1,60,0,0
162861,-111.111111111111,4,2,1,60,0,0
163151,-76.9230769230769,4,2,1,60,0,0
163223,-90.9090909090909,4,2,1,60,0,0
163295,-111.111111111111,4,2,1,60,0,0

[HitObjects]
320,192,1847,5,0,0:0:0:0:
448,192,1847,1,0,0:0:0:0:
320,192,2281,1,0,0:0:0:0:
448,192,2281,1,0,0:0:0:0:
320,192,2716,1,0,0:0:0:0:
448,192,2716,1,0,0:0:0:0:
320,192,3151,1,0,0:0:0:0:
448,192,3151,1,0,0:0:0:0:
320,192,3586,1,0,0:0:0:0:
448,192,3586,1,0,0:0:0:0:
320,192,4020,1,0,0:0:0:0:
448,192,4020,1,0,0:0:0:0:
320,192,4455,1,0,0:0:0:0:
448,192,4455,1,0,0:0:0:0:
320,192,4890,1,0,0:0:0:0:
448,192,4890,1,0,0:0:0:0:
64,192,5325,1,0,0:0:0:0:
192,192,5325,1,0,0:0:0:0:
64,192,5760,1,0,0:0:0:0:
192,192,5760,1,0,0:0:0:0:
64,192,6194,128,0,6339:0:0:0:0:
192,192,6194,128,0,6339:0:0:0:0:
64,192,6629,1,0,0:0:0:0:
192,192,6629,1,0,0:0:0:0:
64,192,7064,1,0,0:0:0:0:
192,192,7064,1,0,0:0:0:0:
64,192,7499,1,0,0:0:0:0:
192,192,7499,1,0,0:0:0:0:
64,192,7933,1,0,0:0:0:0:
192,192,7933,1,0,0:0:0:0:
64,192,8368,1,0,0:0:0:0:
192,192,8368,1,0,0:0:0:0:
192,192,8803,1,0,0:0:0:0:
448,192,8803,1,0,0:0:0:0:
192,192,9238,1,0,0:0:0:0:
448,192,9238,1,0,0:0:0:0:
192,192,9673,1,0,0:0:0:0:
448,192,9673,1,0,0:0:0:0:
192,192,10107,1,0,0:0:0:0:
448,192,10107,1,0,0:0:0:0:
192,192,10542,1,0,0:0:0:0:
448,192,10542,1,0,0:0:0:0:
192,192,10977,1,0,0:0:0:0:
448,192,10977,1,0,0:0:0:0:
192,192,11412,1,0,0:0:0:0:
448,192,11412,1,0,0:0:0:0:
64,192,11702,1,0,0:0:0:0:
320,192,11702,1,0,0:0:0:0:
192,192,11846,1,0,0:0:0:0:
448,192,11846,1,0,0:0:0:0:
64,192,12281,1,0,0:0:0:0:
320,192,12281,1,0,0:0:0:0:
64,192,12716,1,0,0:0:0:0:
320,192,12716,1,0,0:0:0:0:
64,192,13151,1,0,0:0:0:0:
320,192,13151,1,0,0:0:0:0:
64,192,13586,1,0,0:0:0:0:
320,192,13586,1,0,0:0:0:0:
64,192,14020,1,0,0:0:0:0:
192,192,14020,1,0,0:0:0:0:
192,192,14165,1,0,0:0:0:0:
448,192,14165,1,0,0:0:0:0:
448,192,14310,1,0,0:0:0:0:
64,192,14455,1,0,0:0:0:0:
192,192,14455,1,0,0:0:0:0:
64,192,14600,1,0,0:0:0:0:
192,192,14745,1,0,0:0:0:0:
448,192,14745,1,0,0:0:0:0:
64,192,14890,1,0,0:0:0:0:
320,192,14890,1,0,0:0:0:0:
448,192,14890,1,0,0:0:0:0:
192,192,15035,1,0,0:0:0:0:
320,192,15035,1,0,0:0:0:0:
192,192,15180,1,0,0:0:0:0:
64,192,15325,1,0,0:0:0:0:
320,192,15325,1,0,0:0:0:0:
448,192,15325,1,0,0:0:0:0:
64,192,15760,1,0,0:0:0:0:
192,192,15760,1,0,0:0:0:0:
320,192,15760,1,0,0:0:0:0:
448,192,15760,128,0,16049:0:0:0:0:
320,192,16049,1,0,0:0:0:0:
64,192,16194,1,0,0:0:0:0:
192,192,16194,1,0,0:0:0:0:
320,192,16484,1,0,0:0:0:0:
64,192,16629,128,0,16919:0:0:0:0:
192,192,16629,1,0,0:0:0:0:
320,192,16919,1,0,0:0:0:0:
64,192,17064,1,0,0:0:0:0:
448,192,17064,1,0,0:0:0:0:
320,192,17354,1,0,0:0:0:0:
192,192,17499,1,0,0:0:0:0:
448,192,17499,128,0,17789:0:0:0:0:
64,192,17789,1,0,0:0:0:0:
192,192,17933,1,0,0:0:0:0:
320,192,17933,128,0,18223:0:0:0:0:
448,192,18223,1,0,0:0:0:0:
64,192,18368,128,0,18803:0:0:0:0:
192,192,18368,1,0,0:0:0:0:
448,192,18513,1,0,0:0:0:0:
448,192,18658,1,0,0:0:0:0:
192,192,18803,1,0,0:0:0:0:
320,192,18803,1,0,0:0:0:0:
448,192,18948,1,0,0:0:0:0:
448,192,19093,1,0,0:0:0:0:
64,192,19238,128,0,19528:0:0:0:0:
192,192,19238,1,0,0:0:0:0:
320,192,19528,1,0,0:0:0:0:
192,192,19673,128,0,19962:0:0:0:0:
448,192,19673,1,0,0:0:0:0:
320,192,19962,1,0,0:0:0:0:
64,192,20107,128,0,20252:0:0:0:0:
448,192,20107,128,0,20252:0:0:0:0:
192,192,20397,1,0,0:0:0:0:
320,192,20542,1,0,0:0:0:0:
448,192,20542,128,0,20832:0:0:0:0:
64,192,20832,1,0,0:0:0:0:
192,192,20977,1,0,0:0:0:0:
320,192,20977,1,0,0:0:0:0:
448,192,21122,1,0,0:0:0:0:
64,192,21267,1,0,0:0:0:0:
192,192,21267,1,0,0:0:0:0:
64,192,21412,1,0,0:0:0:0:
448,192,21412,128,0,21702:0:0:0:0:
192,192,21702,1,0,0:0:0:0:
320,192,21702,1,0,0:0:0:0:
64,192,21846,128,0,22281:0:0:0:0:
320,192,21846,1,0,0:0:0:0:
320,192,22136,1,0,0:0:0:0:
448,192,22136,1,0,0:0:0:0:
192,192,22281,1,0,0:0:0:0:
448,192,22281,1,0,0:0:0:0:
192,192,22426,1,0,0:0:0:0:
320,192,22571,1,0,0:0:0:0:
192,192,22644,1,0,0:0:0:0:
64,192,22716,1,0,0:0:0:0:
320,192,22716,1,0,0:0:0:0:
448,192,22716,128,0,23006:0:0:0:0:
192,192,23006,1,0,0:0:0:0:
64,192,23151,1,0,0:0:0:0:
320,192,23151,1,0,0:0:0:0:
448,192,23441,1,0,0:0:0:0:
64,192,23586,128,0,23875:0:0:0:0:
320,192,23586,1,0,0:0:0:0:
192,192,23875,1,0,0:0:0:0:
320,192,24020,1,0,0:0:0:0:
448,192,24020,1,0,0:0:0:0:
64,192,24310,1,0,0:0:0:0:
192,192,24455,1,0,0:0:0:0:
448,192,24455,128,0,24745:0:0:0:0:
64,192,24745,1,0,0:0:0:0:
192,192,24890,1,0,0:0:0:0:
320,192,24890,128,0,25180:0:0:0:0:
448,192,25180,1,0,0:0:0:0:
64,192,25325,128,0,25615:0:0:0:0:
192,192,25325,1,0,0:0:0:0:
192,192,25615,1,0,0:0:0:0:
320,192,25615,1,0,0:0:0:0:
448,192,25615,1,0,0:0:0:0:
64,192,25760,1,0,0:0:0:0:
448,192,25760,1,0,0:0:0:0:
64,192,25904,1,0,0:0:0:0:
64,192,26049,1,0,0:0:0:0:
320,192,26194,1,0,0:0:0:0:
448,192,26194,128,0,26484:0:0:0:0:
64,192,26484,1,0,0:0:0:0:
192,192,26629,1,0,0:0:0:0:
320,192,26629,128,0,26919:0:0:0:0:
448,192,26919,1,0,0:0:0:0:
64,192,27064,1,0,0:0:0:0:
192,192,27064,128,0,27354:0:0:0:0:
320,192,27354,1,0,0:0:0:0:
64,192,27499,1,0,0:0:0:0:
448,192,27499,128,0,27789:0:0:0:0:
192,192,27789,1,0,0:0:0:0:
320,192,27861,1,0,0:0:0:0:
64,192,27933,1,0,0:0:0:0:
192,192,27933,1,0,0:0:0:0:
64,192,28078,1,0,0:0:0:0:
192,192,28078,1,0,0:0:0:0:
320,192,28223,1,0,0:0:0:0:
448,192,28223,1,0,0:0:0:0:
320,192,28368,1,0,0:0:0:0:
448,192,28368,1,0,0:0:0:0:
64,192,28513,1,0,0:0:0:0:
192,192,28513,1,0,0:0:0:0:
192,192,28658,1,0,0:0:0:0:
320,192,28658,1,0,0:0:0:0:
320,192,28803,1,0,0:0:0:0:
448,192,28803,1,0,0:0:0:0:
64,192,28948,1,0,0:0:0:0:
192,192,28948,1,0,0:0:0:0:
192,192,29093,1,0,0:0:0:0:
320,192,29093,1,0,0:0:0:0:
64,192,29238,1,0,0:0:0:0:
320,192,29238,1,0,0:0:0:0:
448,192,29238,1,0,0:0:0:0:
64,192,29383,1,0,0:0:0:0:
320,192,29528,1,0,0:0:0:0:
64,192,29673,1,0,0:0:0:0:
192,192,29673,1,0,0:0:0:0:
320,192,29673,1,0,0:0:0:0:
448,192,29673,1,0,0:0:0:0:
192,192,29818,1,0,0:0:0:0:
320,192,29962,1,0,0:0:0:0:
448,192,29962,1,0,0:0:0:0:
64,192,30107,1,0,0:0:0:0:
192,192,30107,1,0,0:0:0:0:
320,192,30107,1,0,0:0:0:0:
448,192,30107,1,0,0:0:0:0:
192,192,30252,1,0,0:0:0:0:
64,192,30397,1,0,0:0:0:0:
448,192,30397,1,0,0:0:0:0:
64,192,30542,1,0,0:0:0:0:
192,192,30542,1,0,0:0:0:0:
320,192,30542,1,0,0:0:0:0:
448,192,30542,1,0,0:0:0:0:
320,192,30687,1,0,0:0:0:0:
64,192,30832,1,0,0:0:0:0:
192,192,30832,1,0,0:0:0:0:
64,192,30977,1,0,0:0:0:0:
192,192,30977,1,0,0:0:0:0:
320,192,30977,1,0,0:0:0:0:
448,192,30977,1,0,0:0:0:0:
320,192,31122,1,0,0:0:0:0:
448,192,31122,1,0,0:0:0:0:
64,192,31194,1,0,0:0:0:0:
192,192,31194,1,0,0:0:0:0:
320,192,31267,1,0,0:0:0:0:
448,192,31267,1,0,0:0:0:0:
192,192,31339,1,0,0:0:0:0:
64,192,31412,1,0,0:0:0:0:
320,192,31412,1,0,0:0:0:0:
448,192,31412,1,0,0:0:0:0:
64,192,31557,1,0,0:0:0:0:
320,192,31702,1,0,0:0:0:0:
448,192,31702,1,0,0:0:0:0:
64,192,31846,1,0,0:0:0:0:
192,192,31846,1,0,0:0:0:0:
320,192,31846,1,0,0:0:0:0:
448,192,31846,1,0,0:0:0:0:
192,192,31991,1,0,0:0:0:0:
64,192,32136,1,0,0:0:0:0:
448,192,32136,1,0,0:0:0:0:
64,192,32281,1,0,0:0:0:0:
192,192,32281,1,0,0:0:0:0:
320,192,32281,1,0,0:0:0:0:
448,192,32281,1,0,0:0:0:0:
320,192,32426,1,0,0:0:0:0:
64,192,32571,1,0,0:0:0:0:
192,192,32571,1,0,0:0:0:0:
64,192,32716,1,0,0:0:0:0:
192,192,32716,1,0,0:0:0:0:
320,192,32716,1,0,0:0:0:0:
448,192,32716,1,0,0:0:0:0:
64,192,33151,1,0,0:0:0:0:
192,192,33151,1,0,0:0:0:0:
320,192,33151,1,0,0:0:0:0:
448,192,33151,1,0,0:0:0:0:
192,192,33296,1,0,0:0:0:0:
320,192,33441,1,0,0:0:0:0:
448,192,33441,1,0,0:0:0:0:
64,192,33586,1,0,0:0:0:0:
192,192,33586,1,0,0:0:0:0:
320,192,33586,1,0,0:0:0:0:
448,192,33586,1,0,0:0:0:0:
64,192,33731,1,0,0:0:0:0:
192,192,33875,1,0,0:0:0:0:
320,192,33875,1,0,0:0:0:0:
64,192,34020,1,0,0:0:0:0:
192,192,34020,1,0,0:0:0:0:
320,192,34020,1,0,0:0:0:0:
448,192,34020,1,0,0:0:0:0:
448,192,34165,1,0,0:0:0:0:
64,192,34310,1,0,0:0:0:0:
192,192,34310,1,0,0:0:0:0:
64,192,34455,1,0,0:0:0:0:
192,192,34455,1,0,0:0:0:0:
320,192,34455,1,0,0:0:0:0:
448,192,34455,1,0,0:0:0:0:
320,192,34600,1,0,0:0:0:0:
448,192,34600,1,0,0:0:0:0:
64,192,34673,1,0,0:0:0:0:
192,192,34673,1,0,0:0:0:0:
320,192,34745,1,0,0:0:0:0:
448,192,34745,1,0,0:0:0:0:
192,192,34818,1,0,0:0:0:0:
64,192,34890,1,0,0:0:0:0:
320,192,34890,1,0,0:0:0:0:
448,192,34890,1,0,0:0:0:0:
64,192,35035,1,0,0:0:0:0:
320,192,35180,1,0,0:0:0:0:
448,192,35180,1,0,0:0:0:0:
64,192,35325,1,0,0:0:0:0:
192,192,35325,1,0,0:0:0:0:
320,192,35325,1,0,0:0:0:0:
448,192,35325,1,0,0:0:0:0:
192,192,35470,1,0,0:0:0:0:
64,192,35615,1,0,0:0:0:0:
320,192,35615,1,0,0:0:0:0:
64,192,35760,1,0,0:0:0:0:
192,192,35760,1,0,0:0:0:0:
320,192,35760,1,0,0:0:0:0:
448,192,35760,1,0,0:0:0:0:
448,192,35904,1,0,0:0:0:0:
64,192,36049,1,0,0:0:0:0:
192,192,36049,1,0,0:0:0:0:
192,192,36194,1,0,0:0:0:0:
320,192,36194,1,0,0:0:0:0:
64,192,36194,128,0,36484:0:0:0:0:
448,192,36194,128,0,36484:0:0:0:0:
64,192,36629,1,0,0:0:0:0:
192,192,36629,1,0,0:0:0:0:
320,192,36629,1,0,0:0:0:0:
448,192,36629,1,0,0:0:0:0:
64,192,36774,1,0,0:0:0:0:
320,192,36774,1,0,0:0:0:0:
192,192,36919,1,0,0:0:0:0:
448,192,36919,1,0,0:0:0:0:
64,192,37064,1,0,0:0:0:0:
192,192,37064,1,0,0:0:0:0:
320,192,37064,1,0,0:0:0:0:
448,192,37064,1,0,0:0:0:0:
320,192,37209,1,0,0:0:0:0:
448,192,37209,1,0,0:0:0:0:
64,192,37354,1,0,0:0:0:0:
192,192,37354,1,0,0:0:0:0:
64,192,37499,1,0,0:0:0:0:
192,192,37499,1,0,0:0:0:0:
320,192,37499,1,0,0:0:0:0:
448,192,37499,1,0,0:0:0:0:
192,192,37644,1,0,0:0:0:0:
448,192,37644,1,0,0:0:0:0:
64,192,37789,1,0,0:0:0:0:
320,192,37789,1,0,0:0:0:0:
64,192,37933,1,0,0:0:0:0:
192,192,37933,1,0,0:0:0:0:
320,192,37933,1,0,0:0:0:0:
448,192,37933,1,0,0:0:0:0:
192,192,38078,1,0,0:0:0:0:
448,192,38078,1,0,0:0:0:0:
64,192,38151,1,0,0:0:0:0:
320,192,38151,1,0,0:0:0:0:
192,192,38223,1,0,0:0:0:0:
448,192,38223,1,0,0:0:0:0:
64,192,38296,1,0,0:0:0:0:
192,192,38368,1,0,0:0:0:0:
320,192,38368,1,0,0:0:0:0:
448,192,38368,1,0,0:0:0:0:
320,192,38513,1,0,0:0:0:0:
448,192,38513,1,0,0:0:0:0:
64,192,38658,1,0,0:0:0:0:
192,192,38658,1,0,0:0:0:0:
64,192,38803,1,0,0:0:0:0:
192,192,38803,1,0,0:0:0:0:
320,192,38803,1,0,0:0:0:0:
448,192,38803,1,0,0:0:0:0:
64,192,38948,1,0,0:0:0:0:
448,192,38948,1,0,0:0:0:0:
192,192,39093,1,0,0:0:0:0:
320,192,39093,1,0,0:0:0:0:
64,192,39238,1,0,0:0:0:0:
192,192,39238,1,0,0:0:0:0:
320,192,39238,1,0,0:0:0:0:
448,192,39238,1,0,0:0:0:0:
320,192,39383,1,0,0:0:0:0:
448,192,39383,1,0,0:0:0:0:
64,192,39528,1,0,0:0:0:0:
192,192,39528,1,0,0:0:0:0:
64,192,39673,1,0,0:0:0:0:
192,192,39673,1,0,0:0:0:0:
320,192,39673,1,0,0:0:0:0:
448,192,39673,1,0,0:0:0:0:
64,192,40107,1,0,0:0:0:0:
192,192,40107,1,0,0:0:0:0:
320,192,40107,1,0,0:0:0:0:
448,192,40107,1,0,0:0:0:0:
320,192,40252,1,0,0:0:0:0:
448,192,40252,1,0,0:0:0:0:
64,192,40397,1,0,0:0:0:0:
192,192,40397,1,0,0:0:0:0:
64,192,40542,1,0,0:0:0:0:
192,192,40542,1,0,0:0:0:0:
320,192,40542,1,0,0:0:0:0:
448,192,40542,1,0,0:0:0:0:
192,192,40687,1,0,0:0:0:0:
448,192,40687,1,0,0:0:0:0:
64,192,40832,1,0,0:0:0:0:
320,192,40832,1,0,0:0:0:0:
64,192,40977,1,0,0:0:0:0:
192,192,40977,1,0,0:0:0:0:
320,192,40977,1,0,0:0:0:0:
448,192,40977,1,0,0:0:0:0:
64,192,41122,1,0,0:0:0:0:
448,192,41122,1,0,0:0:0:0:
192,192,41267,1,0,0:0:0:0:
320,192,41267,1,0,0:0:0:0:
64,192,41412,1,0,0:0:0:0:
192,192,41412,1,0,0:0:0:0:
320,192,41412,1,0,0:0:0:0:
448,192,41412,1,0,0:0:0:0:
64,192,41557,1,0,0:0:0:0:
448,192,41557,1,0,0:0:0:0:
192,192,41629,1,0,0:0:0:0:
320,192,41629,1,0,0:0:0:0:
64,192,41702,1,0,0:0:0:0:
448,192,41702,1,0,0:0:0:0:
320,192,41774,1,0,0:0:0:0:
64,192,41846,1,0,0:0:0:0:
192,192,41846,1,0,0:0:0:0:
448,192,41846,1,0,0:0:0:0:
64,192,41991,1,0,0:0:0:0:
192,192,41991,1,0,0:0:0:0:
320,192,42136,1,0,0:0:0:0:
448,192,42136,1,0,0:0:0:0:
64,192,42281,1,0,0:0:0:0:
192,192,42281,1,0,0:0:0:0:
320,192,42281,1,0,0:0:0:0:
448,192,42281,1,0,0:0:0:0:
64,192,42426,1,0,0:0:0:0:
320,192,42426,1,0,0:0:0:0:
192,192,42571,1,0,0:0:0:0:
448,192,42571,1,0,0:0:0:0:
64,192,42716,1,0,0:0:0:0:
192,192,42716,1,0,0:0:0:0:
320,192,42716,1,0,0:0:0:0:
448,192,42716,1,0,0:0:0:0:
320,192,42861,1,0,0:0:0:0:
448,192,42861,1,0,0:0:0:0:
64,192,43006,1,0,0:0:0:0:
192,192,43006,1,0,0:0:0:0:
192,192,43151,1,0,0:0:0:0:
320,192,43151,1,0,0:0:0:0:
448,192,43151,128,0,43441:0:0:0:0:
64,192,43151,128,0,43441:0:0:0:0:
64,192,43586,1,0,0:0:0:0:
192,192,43586,1,0,0:0:0:0:
320,192,43586,1,0,0:0:0:0:
448,192,43586,1,0,0:0:0:0:
192,192,43731,1,0,0:0:0:0:
320,192,43875,1,0,0:0:0:0:
448,192,43875,1,0,0:0:0:0:
64,192,44020,1,0,0:0:0:0:
192,192,44020,1,0,0:0:0:0:
320,192,44020,1,0,0:0:0:0:
448,192,44020,1,0,0:0:0:0:
192,192,44165,1,0,0:0:0:0:
64,192,44310,1,0,0:0:0:0:
448,192,44310,1,0,0:0:0:0:
64,192,44455,1,0,0:0:0:0:
192,192,44455,1,0,0:0:0:0:
320,192,44455,1,0,0:0:0:0:
320,192,44600,1,0,0:0:0:0:
64,192,44745,1,0,0:0:0:0:
448,192,44745,1,0,0:0:0:0:
64,192,44890,1,0,0:0:0:0:
192,192,44890,1,0,0:0:0:0:
320,192,44890,1,0,0:0:0:0:
448,192,44890,1,0,0:0:0:0:
320,192,45035,1,0,0:0:0:0:
448,192,45035,1,0,0:0:0:0:
64,192,45107,1,0,0:0:0:0:
192,192,45107,1,0,0:0:0:0:
320,192,45180,1,0,0:0:0:0:
448,192,45180,1,0,0:0:0:0:
192,192,45252,1,0,0:0:0:0:
64,192,45325,1,0,0:0:0:0:
320,192,45325,1,0,0:0:0:0:
448,192,45325,1,0,0:0:0:0:
64,192,45470,1,0,0:0:0:0:
320,192,45615,1,0,0:0:0:0:
448,192,45615,1,0,0:0:0:0:
64,192,45760,1,0,0:0:0:0:
192,192,45760,1,0,0:0:0:0:
320,192,45760,1,0,0:0:0:0:
448,192,45760,1,0,0:0:0:0:
192,192,45904,1,0,0:0:0:0:
320,192,46049,1,0,0:0:0:0:
448,192,46049,1,0,0:0:0:0:
64,192,46194,1,0,0:0:0:0:
192,192,46194,1,0,0:0:0:0:
448,192,46194,1,0,0:0:0:0:
192,192,46339,1,0,0:0:0:0:
320,192,46484,1,0,0:0:0:0:
448,192,46484,1,0,0:0:0:0:
64,192,46629,1,0,0:0:0:0:
192,192,46629,1,0,0:0:0:0:
320,192,46629,1,0,0:0:0:0:
448,192,46629,1,0,0:0:0:0:
64,192,47064,1,0,0:0:0:0:
192,192,47064,1,0,0:0:0:0:
320,192,47064,1,0,0:0:0:0:
448,192,47064,1,0,0:0:0:0:
192,192,47209,1,0,0:0:0:0:
320,192,47354,1,0,0:0:0:0:
448,192,47354,1,0,0:0:0:0:
64,192,47499,1,0,0:0:0:0:
192,192,47499,1,0,0:0:0:0:
320,192,47499,1,0,0:0:0:0:
448,192,47499,1,0,0:0:0:0:
64,192,47644,1,0,0:0:0:0:
192,192,47789,1,0,0:0:0:0:
320,192,47789,1,0,0:0:0:0:
64,192,47933,1,0,0:0:0:0:
320,192,47933,1,0,0:0:0:0:
448,192,47933,1,0,0:0:0:0:
192,192,48078,1,0,0:0:0:0:
64,192,48223,1,0,0:0:0:0:
448,192,48223,1,0,0:0:0:0:
64,192,48368,1,0,0:0:0:0:
192,192,48368,1,0,0:0:0:0:
320,192,48368,1,0,0:0:0:0:
448,192,48368,1,0,0:0:0:0:
320,192,48513,1,0,0:0:0:0:
448,192,48513,1,0,0:0:0:0:
64,192,48586,1,0,0:0:0:0:
192,192,48586,1,0,0:0:0:0:
320,192,48658,1,0,0:0:0:0:
448,192,48658,1,0,0:0:0:0:
192,192,48731,1,0,0:0:0:0:
64,192,48803,1,0,0:0:0:0:
320,192,48803,1,0,0:0:0:0:
448,192,48803,1,0,0:0:0:0:
64,192,48948,1,0,0:0:0:0:
192,192,48948,1,0,0:0:0:0:
64,192,49093,1,0,0:0:0:0:
192,192,49093,1,0,0:0:0:0:
64,192,49238,1,0,0:0:0:0:
192,192,49238,1,0,0:0:0:0:
320,192,49238,1,0,0:0:0:0:
448,192,49238,1,0,0:0:0:0:
320,192,49383,1,0,0:0:0:0:
64,192,49528,1,0,0:0:0:0:
192,192,49528,1,0,0:0:0:0:
64,192,49673,1,0,0:0:0:0:
192,192,49673,1,0,0:0:0:0:
448,192,49673,1,0,0:0:0:0:
320,192,49818,1,0,0:0:0:0:
448,192,49818,1,0,0:0:0:0:
64,192,49962,1,0,0:0:0:0:
192,192,49962,1,0,0:0:0:0:
64,192,50107,1,0,0:0:0:0:
192,192,50107,1,0,0:0:0:0:
320,192,50107,1,0,0:0:0:0:
448,192,50107,1,0,0:0:0:0:
320,192,50397,1,0,0:0:0:0:
448,192,50397,1,0,0:0:0:0:
64,192,50542,1,0,0:0:0:0:
192,192,50542,1,0,0:0:0:0:
320,192,50542,1,0,0:0:0:0:
448,192,50542,1,0,0:0:0:0:
192,192,50687,1,0,0:0:0:0:
64,192,50832,1,0,0:0:0:0:
448,192,50832,1,0,0:0:0:0:
64,192,50977,1,0,0:0:0:0:
192,192,50977,1,0,0:0:0:0:
320,192,50977,1,0,0:0:0:0:
448,192,50977,1,0,0:0:0:0:
320,192,51122,1,0,0:0:0:0:
64,192,51267,1,0,0:0:0:0:
192,192,51267,1,0,0:0:0:0:
64,192,51412,1,0,0:0:0:0:
192,192,51412,1,0,0:0:0:0:
448,192,51412,1,0,0:0:0:0:
448,192,51557,1,0,0:0:0:0:
192,192,51702,1,0,0:0:0:0:
320,192,51702,1,0,0:0:0:0:
64,192,51846,1,0,0:0:0:0:
192,192,51846,1,0,0:0:0:0:
320,192,51846,1,0,0:0:0:0:
448,192,51846,1,0,0:0:0:0:
64,192,51991,1,0,0:0:0:0:
192,192,51991,1,0,0:0:0:0:
320,192,52064,1,0,0:0:0:0:
448,192,52064,1,0,0:0:0:0:
64,192,52136,1,0,0:0:0:0:
192,192,52136,1,0,0:0:0:0:
320,192,52209,1,0,0:0:0:0:
64,192,52281,1,0,0:0:0:0:
192,192,52281,1,0,0:0:0:0:
448,192,52281,1,0,0:0:0:0:
448,192,52426,1,0,0:0:0:0:
64,192,52571,1,0,0:0:0:0:
192,192,52571,1,0,0:0:0:0:
64,192,52716,1,0,0:0:0:0:
192,192,52716,1,0,0:0:0:0:
320,192,52716,1,0,0:0:0:0:
448,192,52716,1,0,0:0:0:0:
320,192,52861,1,0,0:0:0:0:
64,192,53006,1,0,0:0:0:0:
448,192,53006,1,0,0:0:0:0:
192,192,53151,1,0,0:0:0:0:
320,192,53151,1,0,0:0:0:0:
448,192,53151,1,0,0:0:0:0:
192,192,53296,1,0,0:0:0:0:
64,192,53441,1,0,0:0:0:0:
448,192,53441,1,0,0:0:0:0:
64,192,53586,1,0,0:0:0:0:
192,192,53586,1,0,0:0:0:0:
320,192,53586,1,0,0:0:0:0:
448,192,53586,1,0,0:0:0:0:
64,192,54020,1,0,0:0:0:0:
192,192,54020,1,0,0:0:0:0:
320,192,54020,1,0,0:0:0:0:
448,192,54020,1,0,0:0:0:0:
320,192,54165,1,0,0:0:0:0:
64,192,54310,1,0,0:0:0:0:
192,192,54310,1,0,0:0:0:0:
64,192,54455,1,0,0:0:0:0:
192,192,54455,1,0,0:0:0:0:
320,192,54455,1,0,0:0:0:0:
448,192,54455,1,0,0:0:0:0:
448,192,54600,1,0,0:0:0:0:
64,192,54745,1,0,0:0:0:0:
192,192,54745,1,0,0:0:0:0:
64,192,54890,1,0,0:0:0:0:
320,192,54890,1,0,0:0:0:0:
448,192,54890,1,0,0:0:0:0:
320,192,55035,1,0,0:0:0:0:
64,192,55180,1,0,0:0:0:0:
448,192,55180,1,0,0:0:0:0:
64,192,55325,1,0,0:0:0:0:
192,192,55325,1,0,0:0:0:0:
320,192,55325,1,0,0:0:0:0:
448,192,55325,1,0,0:0:0:0:
64,192,55470,1,0,0:0:0:0:
192,192,55470,1,0,0:0:0:0:
320,192,55542,1,0,0:0:0:0:
448,192,55542,1,0,0:0:0:0:
64,192,55615,1,0,0:0:0:0:
192,192,55615,1,0,0:0:0:0:
320,192,55687,1,0,0:0:0:0:
64,192,55760,1,0,0:0:0:0:
192,192,55760,1,0,0:0:0:0:
448,192,55760,1,0,0:0:0:0:
320,192,55904,1,0,0:0:0:0:
448,192,55904,1,0,0:0:0:0:
320,192,56049,1,0,0:0:0:0:
448,192,56049,1,0,0:0:0:0:
64,192,56194,1,0,0:0:0:0:
192,192,56194,1,0,0:0:0:0:
320,192,56194,1,0,0:0:0:0:
448,192,56194,1,0,0:0:0:0:
64,192,56339,1,0,0:0:0:0:
192,192,56484,1,0,0:0:0:0:
320,192,56484,1,0,0:0:0:0:
64,192,56629,1,0,0:0:0:0:
320,192,56629,1,0,0:0:0:0:
448,192,56629,1,0,0:0:0:0:
192,192,56774,1,0,0:0:0:0:
448,192,56774,1,0,0:0:0:0:
64,192,56919,1,0,0:0:0:0:
192,192,56919,1,0,0:0:0:0:
64,192,57064,1,0,0:0:0:0:
320,192,57064,1,0,0:0:0:0:
448,192,57064,1,0,0:0:0:0:
64,192,57354,1,0,0:0:0:0:
192,192,57354,1,0,0:0:0:0:
64,192,57499,1,0,0:0:0:0:
192,192,57499,1,0,0:0:0:0:
320,192,57499,1,0,0:0:0:0:
448,192,57499,1,0,0:0:0:0:
320,192,57644,1,0,0:0:0:0:
64,192,57789,1,0,0:0:0:0:
192,192,57789,1,0,0:0:0:0:
64,192,57933,1,0,0:0:0:0:
192,192,57933,1,0,0:0:0:0:
320,192,57933,1,0,0:0:0:0:
448,192,57933,1,0,0:0:0:0:
320,192,58078,1,0,0:0:0:0:
64,192,58223,1,0,0:0:0:0:
448,192,58223,1,0,0:0:0:0:
192,192,58368,1,0,0:0:0:0:
320,192,58368,1,0,0:0:0:0:
448,192,58368,1,0,0:0:0:0:
192,192,58513,1,0,0:0:0:0:
64,192,58658,1,0,0:0:0:0:
448,192,58658,1,0,0:0:0:0:
64,192,58803,1,0,0:0:0:0:
192,192,58803,1,0,0:0:0:0:
320,192,58803,1,0,0:0:0:0:
448,192,58803,1,0,0:0:0:0:
64,192,58948,1,0,0:0:0:0:
192,192,58948,1,0,0:0:0:0:
320,192,59020,1,0,0:0:0:0:
448,192,59020,1,0,0:0:0:0:
64,192,59093,1,0,0:0:0:0:
192,192,59093,1,0,0:0:0:0:
320,192,59165,1,0,0:0:0:0:
64,192,59238,1,0,0:0:0:0:
192,192,59238,1,0,0:0:0:0:
448,192,59238,1,0,0:0:0:0:
448,192,59383,1,0,0:0:0:0:
64,192,59528,1,0,0:0:0:0:
192,192,59528,1,0,0:0:0:0:
64,192,59673,1,0,0:0:0:0:
192,192,59673,1,0,0:0:0:0:
320,192,59673,1,0,0:0:0:0:
448,192,59673,1,0,0:0:0:0:
320,192,59818,1,0,0:0:0:0:
64,192,59962,1,0,0:0:0:0:
192,192,59962,1,0,0:0:0:0:
64,192,60107,1,0,0:0:0:0:
320,192,60107,1,0,0:0:0:0:
448,192,60107,1,0,0:0:0:0:
320,192,60252,1,0,0:0:0:0:
64,192,60397,1,0,0:0:0:0:
192,192,60397,1,0,0:0:0:0:
64,192,60542,1,0,0:0:0:0:
192,192,60542,1,0,0:0:0:0:
320,192,60542,1,0,0:0:0:0:
448,192,60542,1,0,0:0:0:0:
64,192,60977,1,0,0:0:0:0:
192,192,60977,1,0,0:0:0:0:
320,192,60977,1,0,0:0:0:0:
448,192,60977,1,0,0:0:0:0:
320,192,61122,1,0,0:0:0:0:
64,192,61267,1,0,0:0:0:0:
192,192,61267,1,0,0:0:0:0:
64,192,61412,1,0,0:0:0:0:
192,192,61412,1,0,0:0:0:0:
320,192,61412,1,0,0:0:0:0:
448,192,61412,1,0,0:0:0:0:
448,192,61557,1,0,0:0:0:0:
192,192,61702,1,0,0:0:0:0:
320,192,61702,1,0,0:0:0:0:
64,192,61846,1,0,0:0:0:0:
192,192,61846,1,0,0:0:0:0:
448,192,61846,1,0,0:0:0:0:
320,192,61991,1,0,0:0:0:0:
64,192,62136,1,0,0:0:0:0:
448,192,62136,1,0,0:0:0:0:
64,192,62281,1,0,0:0:0:0:
192,192,62281,1,0,0:0:0:0:
320,192,62281,1,0,0:0:0:0:
448,192,62281,1,0,0:0:0:0:
64,192,62426,1,0,0:0:0:0:
192,192,62426,1,0,0:0:0:0:
320,192,62499,1,0,0:0:0:0:
448,192,62499,1,0,0:0:0:0:
64,192,62571,1,0,0:0:0:0:
192,192,62571,1,0,0:0:0:0:
320,192,62644,1,0,0:0:0:0:
64,192,62716,1,0,0:0:0:0:
192,192,62716,1,0,0:0:0:0:
448,192,62716,1,0,0:0:0:0:
320,192,62861,1,0,0:0:0:0:
448,192,62861,1,0,0:0:0:0:
320,192,63006,1,0,0:0:0:0:
448,192,63006,1,0,0:0:0:0:
64,192,63151,1,0,0:0:0:0:
192,192,63151,1,0,0:0:0:0:
320,192,63151,1,0,0:0:0:0:
448,192,63151,1,0,0:0:0:0:
192,192,63296,1,0,0:0:0:0:
320,192,63441,1,0,0:0:0:0:
448,192,63441,1,0,0:0:0:0:
64,192,63586,1,0,0:0:0:0:
320,192,63586,1,0,0:0:0:0:
448,192,63586,1,0,0:0:0:0:
64,192,63731,1,0,0:0:0:0:
192,192,63731,1,0,0:0:0:0:
320,192,63875,1,0,0:0:0:0:
448,192,63875,1,0,0:0:0:0:
64,192,64020,1,0,0:0:0:0:
192,192,64020,1,0,0:0:0:0:
320,192,64020,1,0,0:0:0:0:
448,192,64020,1,0,0:0:0:0:
64,192,64310,1,0,0:0:0:0:
192,192,64310,1,0,0:0:0:0:
64,192,64455,1,0,0:0:0:0:
192,192,64455,1,0,0:0:0:0:
320,192,64455,1,0,0:0:0:0:
448,192,64455,1,0,0:0:0:0:
320,192,64600,1,0,0:0:0:0:
64,192,64745,1,0,0:0:0:0:
448,192,64745,1,0,0:0:0:0:
64,192,64890,1,0,0:0:0:0:
192,192,64890,1,0,0:0:0:0:
320,192,64890,1,0,0:0:0:0:
448,192,64890,1,0,0:0:0:0:
192,192,65035,1,0,0:0:0:0:
320,192,65180,1,0,0:0:0:0:
448,192,65180,1,0,0:0:0:0:
64,192,65325,1,0,0:0:0:0:
320,192,65325,1,0,0:0:0:0:
448,192,65325,1,0,0:0:0:0:
64,192,65470,1,0,0:0:0:0:
192,192,65615,1,0,0:0:0:0:
320,192,65615,1,0,0:0:0:0:
64,192,65760,1,0,0:0:0:0:
192,192,65760,1,0,0:0:0:0:
320,192,65760,1,0,0:0:0:0:
448,192,65760,1,0,0:0:0:0:
320,192,65904,1,0,0:0:0:0:
448,192,65904,1,0,0:0:0:0:
64,192,65977,1,0,0:0:0:0:
192,192,65977,1,0,0:0:0:0:
320,192,66049,1,0,0:0:0:0:
448,192,66049,1,0,0:0:0:0:
192,192,66122,1,0,0:0:0:0:
64,192,66194,1,0,0:0:0:0:
320,192,66194,1,0,0:0:0:0:
448,192,66194,1,0,0:0:0:0:
64,192,66339,1,0,0:0:0:0:
320,192,66484,1,0,0:0:0:0:
448,192,66484,1,0,0:0:0:0:
64,192,66629,1,0,0:0:0:0:
192,192,66629,1,0,0:0:0:0:
320,192,66629,1,0,0:0:0:0:
448,192,66629,1,0,0:0:0:0:
192,192,66774,1,0,0:0:0:0:
64,192,66919,1,0,0:0:0:0:
448,192,66919,1,0,0:0:0:0:
64,192,67064,1,0,0:0:0:0:
192,192,67064,1,0,0:0:0:0:
320,192,67064,1,0,0:0:0:0:
320,192,67209,1,0,0:0:0:0:
64,192,67354,1,0,0:0:0:0:
448,192,67354,1,0,0:0:0:0:
64,192,67499,1,0,0:0:0:0:
192,192,67499,1,0,0:0:0:0:
320,192,67499,1,0,0:0:0:0:
448,192,67499,1,0,0:0:0:0:
64,192,67933,1,0,0:0:0:0:
192,192,67933,1,0,0:0:0:0:
320,192,67933,1,0,0:0:0:0:
448,192,67933,1,0,0:0:0:0:
192,192,68078,1,0,0:0:0:0:
320,192,68223,1,0,0:0:0:0:
448,192,68223,1,0,0:0:0:0:
64,192,68368,1,0,0:0:0:0:
192,192,68368,1,0,0:0:0:0:
320,192,68368,1,0,0:0:0:0:
448,192,68368,1,0,0:0:0:0:
64,192,68513,1,0,0:0:0:0:
320,192,68658,1,0,0:0:0:0:
448,192,68658,1,0,0:0:0:0:
64,192,68803,1,0,0:0:0:0:
192,192,68803,1,0,0:0:0:0:
448,192,68803,1,0,0:0:0:0:
192,192,68948,1,0,0:0:0:0:
64,192,69093,1,0,0:0:0:0:
448,192,69093,1,0,0:0:0:0:
64,192,69238,1,0,0:0:0:0:
192,192,69238,1,0,0:0:0:0:
320,192,69238,1,0,0:0:0:0:
448,192,69238,1,0,0:0:0:0:
320,192,69383,1,0,0:0:0:0:
448,192,69383,1,0,0:0:0:0:
64,192,69455,1,0,0:0:0:0:
192,192,69455,1,0,0:0:0:0:
320,192,69528,1,0,0:0:0:0:
448,192,69528,1,0,0:0:0:0:
192,192,69600,1,0,0:0:0:0:
64,192,69673,1,0,0:0:0:0:
320,192,69673,1,0,0:0:0:0:
448,192,69673,1,0,0:0:0:0:
64,192,69818,1,0,0:0:0:0:
320,192,69962,1,0,0:0:0:0:
448,192,69962,1,0,0:0:0:0:
64,192,70107,1,0,0:0:0:0:
192,192,70107,1,0,0:0:0:0:
320,192,70107,1,0,0:0:0:0:
448,192,70107,1,0,0:0:0:0:
192,192,70252,1,0,0:0:0:0:
64,192,70397,1,0,0:0:0:0:
448,192,70397,1,0,0:0:0:0:
64,192,70542,1,0,0:0:0:0:
192,192,70542,1,0,0:0:0:0:
320,192,70542,1,0,0:0:0:0:
448,192,70542,1,0,0:0:0:0:
320,192,70687,1,0,0:0:0:0:
64,192,70832,1,0,0:0:0:0:
448,192,70832,1,0,0:0:0:0:
64,192,70977,1,0,0:0:0:0:
192,192,70977,1,0,0:0:0:0:
320,192,70977,1,0,0:0:0:0:
448,192,70977,1,0,0:0:0:0:
192,192,71267,1,0,0:0:0:0:
192,192,71412,1,0,0:0:0:0:
320,192,71412,1,0,0:0:0:0:
64,192,74890,1,0,0:0:0:0:
448,192,74890,128,0,75180:0:0:0:0:
192,192,75180,1,0,0:0:0:0:
320,192,75325,1,0,0:0:0:0:
448,192,75325,128,0,75615:0:0:0:0:
64,192,75615,1,0,0:0:0:0:
192,192,75760,1,0,0:0:0:0:
448,192,75760,128,0,76049:0:0:0:0:
320,192,76049,1,0,0:0:0:0:
64,192,76194,1,0,0:0:0:0:
448,192,76194,128,0,76484:0:0:0:0:
192,192,76484,1,0,0:0:0:0:
64,192,76629,1,0,0:0:0:0:
320,192,76629,128,0,76919:0:0:0:0:
448,192,76919,1,0,0:0:0:0:
192,192,77064,1,0,0:0:0:0:
320,192,77064,128,0,77354:0:0:0:0:
64,192,77354,1,0,0:0:0:0:
192,192,77499,1,0,0:0:0:0:
320,192,77499,128,0,77789:0:0:0:0:
448,192,77789,1,0,0:0:0:0:
192,192,77933,1,0,0:0:0:0:
320,192,77933,128,0,78223:0:0:0:0:
64,192,78223,1,0,0:0:0:0:
192,192,78368,128,0,78658:0:0:0:0:
448,192,78368,1,0,0:0:0:0:
320,192,78658,1,0,0:0:0:0:
192,192,78803,128,0,79093:0:0:0:0:
448,192,78803,1,0,0:0:0:0:
320,192,79093,1,0,0:0:0:0:
192,192,79238,128,0,79528:0:0:0:0:
448,192,79238,1,0,0:0:0:0:
320,192,79528,1,0,0:0:0:0:
64,192,79673,1,0,0:0:0:0:
192,192,79673,128,0,79962:0:0:0:0:
448,192,79962,1,0,0:0:0:0:
64,192,80107,128,0,80397:0:0:0:0:
320,192,80107,1,0,0:0:0:0:
448,192,80397,1,0,0:0:0:0:
64,192,80542,128,0,80832:0:0:0:0:
320,192,80542,1,0,0:0:0:0:
192,192,80832,1,0,0:0:0:0:
64,192,80977,128,0,81267:0:0:0:0:
448,192,80977,1,0,0:0:0:0:
192,192,81267,1,0,0:0:0:0:
64,192,81412,128,0,81702:0:0:0:0:
320,192,81412,1,0,0:0:0:0:
192,192,81702,1,0,0:0:0:0:
320,192,81846,128,0,82136:0:0:0:0:
448,192,81846,1,0,0:0:0:0:
64,192,82136,1,0,0:0:0:0:
320,192,82281,128,0,82571:0:0:0:0:
448,192,82281,1,0,0:0:0:0:
64,192,82571,1,0,0:0:0:0:
192,192,82716,1,0,0:0:0:0:
320,192,82716,128,0,83006:0:0:0:0:
64,192,83006,1,0,0:0:0:0:
320,192,83151,128,0,83441:0:0:0:0:
448,192,83151,1,0,0:0:0:0:
64,192,83441,1,0,0:0:0:0:
192,192,83586,128,0,83875:0:0:0:0:
448,192,83586,1,0,0:0:0:0:
320,192,83875,1,0,0:0:0:0:
192,192,84020,128,0,84310:0:0:0:0:
448,192,84020,1,0,0:0:0:0:
320,192,84310,1,0,0:0:0:0:
64,192,84455,1,0,0:0:0:0:
192,192,84455,128,0,84745:0:0:0:0:
448,192,84745,1,0,0:0:0:0:
192,192,84890,128,0,85180:0:0:0:0:
320,192,84890,1,0,0:0:0:0:
64,192,85180,1,0,0:0:0:0:
320,192,85325,1,0,0:0:0:0:
448,192,85325,128,0,85615:0:0:0:0:
192,192,85615,1,0,0:0:0:0:
320,192,85760,1,0,0:0:0:0:
448,192,85760,128,0,86049:0:0:0:0:
64,192,86049,1,0,0:0:0:0:
192,192,86194,1,0,0:0:0:0:
448,192,86194,128,0,86484:0:0:0:0:
320,192,86484,1,0,0:0:0:0:
192,192,86629,1,0,0:0:0:0:
448,192,86629,128,0,86919:0:0:0:0:
320,192,86919,1,0,0:0:0:0:
64,192,87064,128,0,87354:0:0:0:0:
192,192,87064,1,0,0:0:0:0:
448,192,87354,1,0,0:0:0:0:
64,192,87499,128,0,87789:0:0:0:0:
320,192,87499,1,0,0:0:0:0:
192,192,87789,1,0,0:0:0:0:
320,192,87933,1,0,0:0:0:0:
448,192,87933,128,0,88223:0:0:0:0:
64,192,88223,1,0,0:0:0:0:
192,192,88368,1,0,0:0:0:0:
448,192,88368,128,0,88658:0:0:0:0:
320,192,88658,1,0,0:0:0:0:
64,192,88803,128,0,89093:0:0:0:0:
448,192,88803,128,0,89093:0:0:0:0:
192,192,89093,1,0,0:0:0:0:
64,192,89238,128,0,89528:0:0:0:0:
320,192,89238,1,0,0:0:0:0:
448,192,89528,1,0,0:0:0:0:
64,192,89673,128,0,89962:0:0:0:0:
320,192,89673,128,0,89962:0:0:0:0:
192,192,89962,1,0,0:0:0:0:
64,192,90107,128,0,90397:0:0:0:0:
448,192,90107,1,0,0:0:0:0:
320,192,90397,1,0,0:0:0:0:
192,192,90542,128,0,90832:0:0:0:0:
448,192,90542,128,0,90832:0:0:0:0:
320,192,90832,1,0,0:0:0:0:
64,192,90977,128,0,91267:0:0:0:0:
448,192,90977,128,0,91267:0:0:0:0:
320,192,91267,1,0,0:0:0:0:
192,192,91412,128,0,91702:0:0:0:0:
448,192,91412,128,0,91702:0:0:0:0:
64,192,91702,1,0,0:0:0:0:
320,192,91846,1,0,0:0:0:0:
448,192,91846,128,0,92136:0:0:0:0:
192,192,92136,1,0,0:0:0:0:
64,192,92281,128,0,92571:0:0:0:0:
320,192,92281,128,0,92571:0:0:0:0:
448,192,92571,1,0,0:0:0:0:
192,192,92716,128,0,93006:0:0:0:0:
320,192,92716,128,0,93006:0:0:0:0:
448,192,93006,1,0,0:0:0:0:
64,192,93151,128,0,93296:0:0:0:0:
320,192,93151,128,0,93441:0:0:0:0:
192,192,93441,1,0,0:0:0:0:
64,192,93586,128,0,93875:0:0:0:0:
320,192,93586,128,0,93875:0:0:0:0:
448,192,93875,1,0,0:0:0:0:
64,192,94020,128,0,94310:0:0:0:0:
192,192,94020,128,0,94310:0:0:0:0:
320,192,94310,1,0,0:0:0:0:
192,192,94455,128,0,94745:0:0:0:0:
448,192,94455,128,0,94745:0:0:0:0:
320,192,94745,1,0,0:0:0:0:
64,192,94890,128,0,95180:0:0:0:0:
192,192,94890,128,0,95180:0:0:0:0:
320,192,95180,1,0,0:0:0:0:
192,192,95325,128,0,95615:0:0:0:0:
448,192,95325,1,0,0:0:0:0:
320,192,95615,1,0,0:0:0:0:
64,192,95760,128,0,96049:0:0:0:0:
448,192,95760,128,0,96049:0:0:0:0:
320,192,96049,1,0,0:0:0:0:
64,192,96194,128,0,96484:0:0:0:0:
192,192,96194,1,0,0:0:0:0:
320,192,96484,1,0,0:0:0:0:
64,192,96629,128,0,96919:0:0:0:0:
192,192,96629,128,0,96919:0:0:0:0:
448,192,96919,1,0,0:0:0:0:
64,192,97064,128,0,97354:0:0:0:0:
320,192,97064,1,0,0:0:0:0:
192,192,97354,1,0,0:0:0:0:
320,192,97499,128,0,97789:0:0:0:0:
448,192,97499,128,0,97789:0:0:0:0:
64,192,97789,1,0,0:0:0:0:
192,192,97933,128,0,98223:0:0:0:0:
448,192,97933,128,0,98223:0:0:0:0:
320,192,98223,1,0,0:0:0:0:
64,192,98368,128,0,98658:0:0:0:0:
448,192,98368,128,0,98658:0:0:0:0:
192,192,98658,1,0,0:0:0:0:
320,192,98803,1,0,0:0:0:0:
448,192,98803,128,0,99093:0:0:0:0:
64,192,99093,1,0,0:0:0:0:
192,192,99238,128,0,99528:0:0:0:0:
320,192,99238,128,0,99528:0:0:0:0:
448,192,99528,1,0,0:0:0:0:
64,192,99673,128,0,99962:0:0:0:0:
192,192,99673,128,0,99962:0:0:0:0:
448,192,99962,1,0,0:0:0:0:
192,192,100107,128,0,100397:0:0:0:0:
320,192,100107,128,0,100397:0:0:0:0:
64,192,100397,1,0,0:0:0:0:
192,192,100542,128,0,100832:0:0:0:0:
448,192,100542,128,0,100832:0:0:0:0:
64,192,100832,1,0,0:0:0:0:
320,192,100977,1,0,0:0:0:0:
448,192,100977,1,0,0:0:0:0:
320,192,101122,1,0,0:0:0:0:
64,192,101267,1,0,0:0:0:0:
320,192,101267,1,0,0:0:0:0:
64,192,101412,1,0,0:0:0:0:
192,192,101412,1,0,0:0:0:0:
448,192,101412,1,0,0:0:0:0:
192,192,101557,1,0,0:0:0:0:
192,192,101702,1,0,0:0:0:0:
64,192,101846,1,0,0:0:0:0:
320,192,101846,1,0,0:0:0:0:
448,192,101846,1,0,0:0:0:0:
448,192,101991,1,0,0:0:0:0:
192,192,102136,1,0,0:0:0:0:
448,192,102136,1,0,0:0:0:0:
64,192,102281,1,0,0:0:0:0:
192,192,102281,1,0,0:0:0:0:
320,192,102281,1,0,0:0:0:0:
64,192,102426,1,0,0:0:0:0:
64,192,102571,1,0,0:0:0:0:
320,192,102716,128,0,103006:0:0:0:0:
448,192,102716,128,0,103006:0:0:0:0:
64,192,103006,128,0,103441:0:0:0:0:
192,192,103151,128,0,103441:0:0:0:0:
320,192,103151,128,0,103441:0:0:0:0:
448,192,103441,128,0,103875:0:0:0:0:
64,192,103586,128,0,103875:0:0:0:0:
192,192,103586,128,0,103875:0:0:0:0:
320,192,103875,1,0,0:0:0:0:
320,192,104020,128,0,104310:0:0:0:0:
448,192,104020,128,0,104310:0:0:0:0:
192,192,104310,128,0,104745:0:0:0:0:
64,192,104455,128,0,104745:0:0:0:0:
448,192,104455,128,0,104745:0:0:0:0:
320,192,104745,128,0,105180:0:0:0:0:
64,192,104890,128,0,105180:0:0:0:0:
192,192,104890,128,0,105180:0:0:0:0:
448,192,105180,128,0,105615:0:0:0:0:
64,192,105325,1,0,0:0:0:0:
320,192,105325,128,0,105615:0:0:0:0:
64,192,105470,1,0,0:0:0:0:
64,192,105615,1,0,0:0:0:0:
192,192,105615,1,0,0:0:0:0:
192,192,105760,1,0,0:0:0:0:
448,192,105760,1,0,0:0:0:0:
448,192,105904,1,0,0:0:0:0:
448,192,106049,1,0,0:0:0:0:
64,192,106194,128,0,106484:0:0:0:0:
192,192,106194,128,0,106484:0:0:0:0:
320,192,106484,128,0,106919:0:0:0:0:
64,192,106629,128,0,106919:0:0:0:0:
448,192,106629,128,0,106919:0:0:0:0:
192,192,106919,128,0,107354:0:0:0:0:
64,192,107064,128,0,107354:0:0:0:0:
448,192,107064,128,0,107354:0:0:0:0:
320,192,107354,128,0,107789:0:0:0:0:
64,192,107499,128,0,107789:0:0:0:0:
448,192,107499,128,0,107789:0:0:0:0:
192,192,107789,128,0,108223:0:0:0:0:
64,192,107933,128,0,108223:0:0:0:0:
448,192,107933,128,0,108223:0:0:0:0:
320,192,108223,1,0,0:0:0:0:
64,192,108368,1,0,0:0:0:0:
320,192,108368,1,0,0:0:0:0:
448,192,108368,1,0,0:0:0:0:
64,192,108513,1,0,0:0:0:0:
320,192,108658,1,0,0:0:0:0:
448,192,108658,1,0,0:0:0:0:
64,192,108803,1,0,0:0:0:0:
192,192,108803,1,0,0:0:0:0:
448,192,108803,1,0,0:0:0:0:
192,192,108948,1,0,0:0:0:0:
320,192,109093,1,0,0:0:0:0:
448,192,109093,1,0,0:0:0:0:
64,192,109238,1,0,0:0:0:0:
320,192,109238,1,0,0:0:0:0:
448,192,109238,1,0,0:0:0:0:
64,192,109383,1,0,0:0:0:0:
448,192,109528,1,0,0:0:0:0:
192,192,109673,128,0,109962:0:0:0:0:
448,192,109673,128,0,109962:0:0:0:0:
64,192,109962,128,0,110397:0:0:0:0:
320,192,110107,128,0,110397:0:0:0:0:
448,192,110107,128,0,110397:0:0:0:0:
192,192,110397,128,0,110832:0:0:0:0:
64,192,110542,128,0,110832:0:0:0:0:
448,192,110542,128,0,110832:0:0:0:0:
320,192,110832,128,0,111267:0:0:0:0:
64,192,110977,128,0,111267:0:0:0:0:
192,192,110977,128,0,111267:0:0:0:0:
448,192,111267,128,0,111702:0:0:0:0:
192,192,111412,128,0,111702:0:0:0:0:
320,192,111412,128,0,111702:0:0:0:0:
64,192,111702,128,0,112136:0:0:0:0:
192,192,111846,128,0,112136:0:0:0:0:
448,192,111846,1,0,0:0:0:0:
448,192,111991,1,0,0:0:0:0:
320,192,112136,1,0,0:0:0:0:
448,192,112136,1,0,0:0:0:0:
64,192,112281,1,0,0:0:0:0:
320,192,112281,1,0,0:0:0:0:
64,192,112426,1,0,0:0:0:0:
192,192,112571,1,0,0:0:0:0:
320,192,112571,1,0,0:0:0:0:
448,192,112571,1,0,0:0:0:0:
64,192,112716,1,0,0:0:0:0:
192,192,112716,1,0,0:0:0:0:
448,192,112716,1,0,0:0:0:0:
64,192,112861,1,0,0:0:0:0:
320,192,113006,1,0,0:0:0:0:
448,192,113006,1,0,0:0:0:0:
320,192,113151,128,0,113441:0:0:0:0:
448,192,113151,128,0,113441:0:0:0:0:
64,192,113441,128,0,113875:0:0:0:0:
192,192,113586,128,0,113875:0:0:0:0:
320,192,113586,128,0,113875:0:0:0:0:
448,192,113875,128,0,114310:0:0:0:0:
192,192,114020,128,0,114310:0:0:0:0:
320,192,114020,128,0,114310:0:0:0:0:
64,192,114310,128,0,114745:0:0:0:0:
192,192,114455,128,0,114745:0:0:0:0:
448,192,114455,128,0,114745:0:0:0:0:
320,192,114745,1,0,0:0:0:0:
64,192,114890,1,0,0:0:0:0:
320,192,114890,1,0,0:0:0:0:
448,192,114890,1,0,0:0:0:0:
64,192,115035,1,0,0:0:0:0:
320,192,115180,1,0,0:0:0:0:
448,192,115180,1,0,0:0:0:0:
64,192,115325,1,0,0:0:0:0:
192,192,115325,1,0,0:0:0:0:
448,192,115325,1,0,0:0:0:0:
192,192,115470,1,0,0:0:0:0:
64,192,115615,1,0,0:0:0:0:
320,192,115615,1,0,0:0:0:0:
192,192,115760,1,0,0:0:0:0:
320,192,115760,1,0,0:0:0:0:
448,192,115760,1,0,0:0:0:0:
192,192,115904,1,0,0:0:0:0:
64,192,116049,1,0,0:0:0:0:
448,192,116049,1,0,0:0:0:0:
64,192,116194,1,0,0:0:0:0:
192,192,116194,1,0,0:0:0:0:
320,192,116194,1,0,0:0:0:0:
448,192,116339,1,0,0:0:0:0:
192,192,116484,1,0,0:0:0:0:
320,192,116484,1,0,0:0:0:0:
64,192,116629,128,0,117064:0:0:0:0:
192,192,116629,1,0,0:0:0:0:
448,192,116629,128,0,117064:0:0:0:0:
64,192,118368,128,0,118803:0:0:0:0:
448,192,118368,128,0,118803:0:0:0:0:
64,192,120107,128,0,120542:0:0:0:0:
448,192,120107,128,0,120542:0:0:0:0:
64,192,120977,128,0,121412:0:0:0:0:
448,192,120977,128,0,121412:0:0:0:0:
64,192,121846,128,0,122281:0:0:0:0:
448,192,121846,1,0,0:0:0:0:
448,192,121991,1,0,0:0:0:0:
448,192,122136,1,0,0:0:0:0:
448,192,122281,1,0,0:0:0:0:
448,192,122426,1,0,0:0:0:0:
448,192,122571,1,0,0:0:0:0:
64,192,122716,128,0,123151:0:0:0:0:
448,192,122716,1,0,0:0:0:0:
448,192,122861,1,0,0:0:0:0:
448,192,123006,1,0,0:0:0:0:
448,192,123151,1,0,0:0:0:0:
448,192,123296,1,0,0:0:0:0:
448,192,123441,1,0,0:0:0:0:
64,192,123586,128,0,123875:0:0:0:0:
448,192,123586,1,0,0:0:0:0:
448,192,123731,1,0,0:0:0:0:
448,192,123875,1,0,0:0:0:0:
64,192,124020,128,0,124310:0:0:0:0:
448,192,124020,1,0,0:0:0:0:
448,192,124165,1,0,0:0:0:0:
448,192,124310,1,0,0:0:0:0:
64,192,124455,128,0,124745:0:0:0:0:
448,192,124455,1,0,0:0:0:0:
448,192,124600,1,0,0:0:0:0:
448,192,124745,1,0,0:0:0:0:
64,192,124890,128,0,125180:0:0:0:0:
448,192,124890,1,0,0:0:0:0:
448,192,125035,1,0,0:0:0:0:
448,192,125180,1,0,0:0:0:0:
64,192,125325,1,0,0:0:0:0:
448,192,125325,1,0,0:0:0:0:
320,192,125397,1,0,0:0:0:0:
64,192,125470,1,0,0:0:0:0:
192,192,125542,1,0,0:0:0:0:
64,192,125615,1,0,0:0:0:0:
320,192,125687,1,0,0:0:0:0:
64,192,125760,1,0,0:0:0:0:
192,192,125832,1,0,0:0:0:0:
320,192,125904,1,0,0:0:0:0:
64,192,125977,1,0,0:0:0:0:
448,192,126049,1,0,0:0:0:0:
192,192,126122,1,0,0:0:0:0:
448,192,126194,1,0,0:0:0:0:
320,192,126267,1,0,0:0:0:0:
448,192,126339,1,0,0:0:0:0:
64,192,126412,1,0,0:0:0:0:
320,192,126484,1,0,0:0:0:0:
192,192,126557,1,0,0:0:0:0:
320,192,126629,1,0,0:0:0:0:
192,192,126702,1,0,0:0:0:0:
448,192,126774,1,0,0:0:0:0:
64,192,126846,1,0,0:0:0:0:
320,192,126919,1,0,0:0:0:0:
64,192,126991,1,0,0:0:0:0:
448,192,127064,1,0,0:0:0:0:
64,192,130542,1,0,0:0:0:0:
192,192,130542,1,0,0:0:0:0:
320,192,130542,1,0,0:0:0:0:
448,192,130542,1,0,0:0:0:0:
320,192,130687,1,0,0:0:0:0:
64,192,130832,1,0,0:0:0:0:
192,192,130832,1,0,0:0:0:0:
64,192,130977,1,0,0:0:0:0:
192,192,130977,1,0,0:0:0:0:
320,192,130977,1,0,0:0:0:0:
448,192,130977,1,0,0:0:0:0:
320,192,131122,1,0,0:0:0:0:
64,192,131267,1,0,0:0:0:0:
448,192,131267,1,0,0:0:0:0:
64,192,131412,1,0,0:0:0:0:
192,192,131412,1,0,0:0:0:0:
320,192,131412,1,0,0:0:0:0:
448,192,131412,1,0,0:0:0:0:
192,192,131557,1,0,0:0:0:0:
320,192,131702,1,0,0:0:0:0:
448,192,131702,1,0,0:0:0:0:
64,192,131846,1,0,0:0:0:0:
192,192,131846,1,0,0:0:0:0:
320,192,131846,1,0,0:0:0:0:
448,192,131846,1,0,0:0:0:0:
64,192,131991,1,0,0:0:0:0:
192,192,131991,1,0,0:0:0:0:
320,192,132064,1,0,0:0:0:0:
448,192,132064,1,0,0:0:0:0:
64,192,132136,1,0,0:0:0:0:
192,192,132136,1,0,0:0:0:0:
320,192,132209,1,0,0:0:0:0:
64,192,132281,1,0,0:0:0:0:
192,192,132281,1,0,0:0:0:0:
448,192,132281,1,0,0:0:0:0:
448,192,132426,1,0,0:0:0:0:
64,192,132571,1,0,0:0:0:0:
192,192,132571,1,0,0:0:0:0:
64,192,132716,1,0,0:0:0:0:
192,192,132716,1,0,0:0:0:0:
320,192,132716,1,0,0:0:0:0:
448,192,132716,1,0,0:0:0:0:
320,192,132861,1,0,0:0:0:0:
64,192,133006,1,0,0:0:0:0:
448,192,133006,1,0,0:0:0:0:
64,192,133151,1,0,0:0:0:0:
192,192,133151,1,0,0:0:0:0:
320,192,133151,1,0,0:0:0:0:
448,192,133151,1,0,0:0:0:0:
192,192,133296,1,0,0:0:0:0:
320,192,133441,1,0,0:0:0:0:
448,192,133441,1,0,0:0:0:0:
64,192,133586,1,0,0:0:0:0:
192,192,133586,1,0,0:0:0:0:
320,192,133586,1,0,0:0:0:0:
448,192,133586,1,0,0:0:0:0:
64,192,134020,1,0,0:0:0:0:
192,192,134020,1,0,0:0:0:0:
320,192,134020,1,0,0:0:0:0:
448,192,134020,1,0,0:0:0:0:
320,192,134165,1,0,0:0:0:0:
64,192,134310,1,0,0:0:0:0:
192,192,134310,1,0,0:0:0:0:
64,192,134455,1,0,0:0:0:0:
192,192,134455,1,0,0:0:0:0:
320,192,134455,1,0,0:0:0:0:
448,192,134455,1,0,0:0:0:0:
448,192,134600,1,0,0:0:0:0:
192,192,134745,1,0,0:0:0:0:
320,192,134745,1,0,0:0:0:0:
64,192,134890,1,0,0:0:0:0:
192,192,134890,1,0,0:0:0:0:
320,192,134890,1,0,0:0:0:0:
448,192,134890,1,0,0:0:0:0:
64,192,135035,1,0,0:0:0:0:
320,192,135180,1,0,0:0:0:0:
448,192,135180,1,0,0:0:0:0:
64,192,135325,1,0,0:0:0:0:
192,192,135325,1,0,0:0:0:0:
320,192,135325,1,0,0:0:0:0:
448,192,135325,1,0,0:0:0:0:
64,192,135470,1,0,0:0:0:0:
192,192,135470,1,0,0:0:0:0:
320,192,135542,1,0,0:0:0:0:
448,192,135542,1,0,0:0:0:0:
64,192,135615,1,0,0:0:0:0:
192,192,135615,1,0,0:0:0:0:
320,192,135687,1,0,0:0:0:0:
64,192,135760,1,0,0:0:0:0:
192,192,135760,1,0,0:0:0:0:
448,192,135760,1,0,0:0:0:0:
448,192,135904,1,0,0:0:0:0:
64,192,136049,1,0,0:0:0:0:
192,192,136049,1,0,0:0:0:0:
64,192,136194,1,0,0:0:0:0:
192,192,136194,1,0,0:0:0:0:
320,192,136194,1,0,0:0:0:0:
448,192,136194,1,0,0:0:0:0:
320,192,136339,1,0,0:0:0:0:
192,192,136484,1,0,0:0:0:0:
448,192,136484,1,0,0:0:0:0:
64,192,136629,1,0,0:0:0:0:
192,192,136629,1,0,0:0:0:0:
320,192,136629,1,0,0:0:0:0:
448,192,136629,1,0,0:0:0:0:
64,192,136774,1,0,0:0:0:0:
320,192,136919,1,0,0:0:0:0:
448,192,136919,1,0,0:0:0:0:
64,192,137064,128,0,137354:0:0:0:0:
448,192,137064,128,0,137354:0:0:0:0:
64,192,137499,1,0,0:0:0:0:
192,192,137499,1,0,0:0:0:0:
320,192,137499,1,0,0:0:0:0:
448,192,137499,1,0,0:0:0:0:
192,192,137644,1,0,0:0:0:0:
448,192,137644,1,0,0:0:0:0:
64,192,137789,1,0,0:0:0:0:
320,192,137789,1,0,0:0:0:0:
64,192,137933,1,0,0:0:0:0:
192,192,137933,1,0,0:0:0:0:
320,192,137933,1,0,0:0:0:0:
448,192,137933,1,0,0:0:0:0:
64,192,138078,1,0,0:0:0:0:
192,192,138078,1,0,0:0:0:0:
320,192,138223,1,0,0:0:0:0:
448,192,138223,1,0,0:0:0:0:
64,192,138368,1,0,0:0:0:0:
192,192,138368,1,0,0:0:0:0:
320,192,138368,1,0,0:0:0:0:
448,192,138368,1,0,0:0:0:0:
64,192,138513,1,0,0:0:0:0:
320,192,138513,1,0,0:0:0:0:
192,192,138658,1,0,0:0:0:0:
448,192,138658,1,0,0:0:0:0:
64,192,138803,1,0,0:0:0:0:
192,192,138803,1,0,0:0:0:0:
320,192,138803,1,0,0:0:0:0:
448,192,138803,1,0,0:0:0:0:
64,192,138948,1,0,0:0:0:0:
320,192,138948,1,0,0:0:0:0:
192,192,139020,1,0,0:0:0:0:
448,192,139020,1,0,0:0:0:0:
64,192,139093,1,0,0:0:0:0:
320,192,139093,1,0,0:0:0:0:
448,192,139165,1,0,0:0:0:0:
64,192,139238,1,0,0:0:0:0:
192,192,139238,1,0,0:0:0:0:
320,192,139238,1,0,0:0:0:0:
64,192,139383,1,0,0:0:0:0:
192,192,139383,1,0,0:0:0:0:
320,192,139528,1,0,0:0:0:0:
448,192,139528,1,0,0:0:0:0:
64,192,139673,1,0,0:0:0:0:
192,192,139673,1,0,0:0:0:0:
320,192,139673,1,0,0:0:0:0:
448,192,139673,1,0,0:0:0:0:
64,192,139818,1,0,0:0:0:0:
448,192,139818,1,0,0:0:0:0:
192,192,139962,1,0,0:0:0:0:
320,192,139962,1,0,0:0:0:0:
64,192,140107,1,0,0:0:0:0:
192,192,140107,1,0,0:0:0:0:
320,192,140107,1,0,0:0:0:0:
448,192,140107,1,0,0:0:0:0:
64,192,140252,1,0,0:0:0:0:
192,192,140252,1,0,0:0:0:0:
320,192,140397,1,0,0:0:0:0:
448,192,140397,1,0,0:0:0:0:
64,192,140542,1,0,0:0:0:0:
192,192,140542,1,0,0:0:0:0:
320,192,140542,1,0,0:0:0:0:
448,192,140542,1,0,0:0:0:0:
64,192,140977,1,0,0:0:0:0:
192,192,140977,1,0,0:0:0:0:
320,192,140977,1,0,0:0:0:0:
448,192,140977,1,0,0:0:0:0:
64,192,141122,1,0,0:0:0:0:
192,192,141122,1,0,0:0:0:0:
320,192,141267,1,0,0:0:0:0:
448,192,141267,1,0,0:0:0:0:
64,192,141412,1,0,0:0:0:0:
192,192,141412,1,0,0:0:0:0:
320,192,141412,1,0,0:0:0:0:
448,192,141412,1,0,0:0:0:0:
64,192,141557,1,0,0:0:0:0:
320,192,141557,1,0,0:0:0:0:
192,192,141702,1,0,0:0:0:0:
448,192,141702,1,0,0:0:0:0:
64,192,141846,1,0,0:0:0:0:
192,192,141846,1,0,0:0:0:0:
320,192,141846,1,0,0:0:0:0:
448,192,141846,1,0,0:0:0:0:
64,192,141991,1,0,0:0:0:0:
448,192,141991,1,0,0:0:0:0:
192,192,142136,1,0,0:0:0:0:
320,192,142136,1,0,0:0:0:0:
64,192,142281,1,0,0:0:0:0:
192,192,142281,1,0,0:0:0:0:
320,192,142281,1,0,0:0:0:0:
448,192,142281,1,0,0:0:0:0:
64,192,142426,1,0,0:0:0:0:
448,192,142426,1,0,0:0:0:0:
192,192,142499,1,0,0:0:0:0:
320,192,142499,1,0,0:0:0:0:
64,192,142571,1,0,0:0:0:0:
448,192,142571,1,0,0:0:0:0:
192,192,142644,1,0,0:0:0:0:
64,192,142716,1,0,0:0:0:0:
320,192,142716,1,0,0:0:0:0:
448,192,142716,1,0,0:0:0:0:
320,192,142861,1,0,0:0:0:0:
448,192,142861,1,0,0:0:0:0:
64,192,143006,1,0,0:0:0:0:
192,192,143006,1,0,0:0:0:0:
64,192,143151,1,0,0:0:0:0:
192,192,143151,1,0,0:0:0:0:
320,192,143151,1,0,0:0:0:0:
448,192,143151,1,0,0:0:0:0:
192,192,143296,1,0,0:0:0:0:
448,192,143296,1,0,0:0:0:0:
64,192,143441,1,0,0:0:0:0:
320,192,143441,1,0,0:0:0:0:
64,192,143586,1,0,0:0:0:0:
192,192,143586,1,0,0:0:0:0:
320,192,143586,1,0,0:0:0:0:
448,192,143586,1,0,0:0:0:0:
64,192,143731,1,0,0:0:0:0:
192,192,143731,1,0,0:0:0:0:
320,192,143875,1,0,0:0:0:0:
448,192,143875,1,0,0:0:0:0:
192,192,144020,1,0,0:0:0:0:
320,192,144020,1,0,0:0:0:0:
64,192,144020,128,0,144310:0:0:0:0:
448,192,144020,128,0,144310:0:0:0:0:
64,192,144455,1,0,0:0:0:0:
192,192,144455,1,0,0:0:0:0:
320,192,144455,1,0,0:0:0:0:
448,192,144455,1,0,0:0:0:0:
192,192,144600,1,0,0:0:0:0:
64,192,144745,1,0,0:0:0:0:
320,192,144745,1,0,0:0:0:0:
448,192,144745,1,0,0:0:0:0:
64,192,144890,1,0,0:0:0:0:
192,192,144890,1,0,0:0:0:0:
320,192,144890,1,0,0:0:0:0:
448,192,144890,1,0,0:0:0:0:
448,192,145035,1,0,0:0:0:0:
64,192,145180,1,0,0:0:0:0:
192,192,145180,1,0,0:0:0:0:
320,192,145180,1,0,0:0:0:0:
64,192,145325,1,0,0:0:0:0:
192,192,145325,1,0,0:0:0:0:
320,192,145325,1,0,0:0:0:0:
448,192,145325,1,0,0:0:0:0:
64,192,145470,1,0,0:0:0:0:
192,192,145615,1,0,0:0:0:0:
320,192,145615,1,0,0:0:0:0:
448,192,145615,1,0,0:0:0:0:
64,192,145760,1,0,0:0:0:0:
192,192,145760,1,0,0:0:0:0:
320,192,145760,1,0,0:0:0:0:
448,192,145760,1,0,0:0:0:0:
64,192,145904,1,0,0:0:0:0:
192,192,145904,1,0,0:0:0:0:
320,192,145977,1,0,0:0:0:0:
448,192,145977,1,0,0:0:0:0:
64,192,146049,1,0,0:0:0:0:
192,192,146049,1,0,0:0:0:0:
320,192,146122,1,0,0:0:0:0:
64,192,146194,1,0,0:0:0:0:
192,192,146194,1,0,0:0:0:0:
448,192,146194,1,0,0:0:0:0:
448,192,146339,1,0,0:0:0:0:
64,192,146484,1,0,0:0:0:0:
192,192,146484,1,0,0:0:0:0:
320,192,146484,1,0,0:0:0:0:
64,192,146629,1,0,0:0:0:0:
192,192,146629,1,0,0:0:0:0:
320,192,146629,1,0,0:0:0:0:
448,192,146629,1,0,0:0:0:0:
192,192,146774,1,0,0:0:0:0:
64,192,146919,1,0,0:0:0:0:
320,192,146919,1,0,0:0:0:0:
448,192,146919,1,0,0:0:0:0:
64,192,147064,1,0,0:0:0:0:
192,192,147064,1,0,0:0:0:0:
320,192,147064,1,0,0:0:0:0:
448,192,147064,1,0,0:0:0:0:
448,192,147209,1,0,0:0:0:0:
64,192,147354,1,0,0:0:0:0:
192,192,147354,1,0,0:0:0:0:
320,192,147354,1,0,0:0:0:0:
64,192,147499,1,0,0:0:0:0:
192,192,147499,1,0,0:0:0:0:
320,192,147499,1,0,0:0:0:0:
448,192,147499,1,0,0:0:0:0:
64,192,147933,1,0,0:0:0:0:
192,192,147933,1,0,0:0:0:0:
320,192,147933,1,0,0:0:0:0:
448,192,147933,1,0,0:0:0:0:
320,192,148078,1,0,0:0:0:0:
64,192,148223,1,0,0:0:0:0:
192,192,148223,1,0,0:0:0:0:
448,192,148223,1,0,0:0:0:0:
64,192,148368,1,0,0:0:0:0:
192,192,148368,1,0,0:0:0:0:
320,192,148368,1,0,0:0:0:0:
448,192,148368,1,0,0:0:0:0:
64,192,148513,1,0,0:0:0:0:
192,192,148658,1,0,0:0:0:0:
320,192,148658,1,0,0:0:0:0:
448,192,148658,1,0,0:0:0:0:
64,192,148803,1,0,0:0:0:0:
192,192,148803,1,0,0:0:0:0:
320,192,148803,1,0,0:0:0:0:
448,192,148803,1,0,0:0:0:0:
448,192,148948,1,0,0:0:0:0:
64,192,149093,1,0,0:0:0:0:
192,192,149093,1,0,0:0:0:0:
320,192,149093,1,0,0:0:0:0:
64,192,149238,1,0,0:0:0:0:
192,192,149238,1,0,0:0:0:0:
320,192,149238,1,0,0:0:0:0:
448,192,149238,1,0,0:0:0:0:
320,192,149383,1,0,0:0:0:0:
448,192,149383,1,0,0:0:0:0:
64,192,149455,1,0,0:0:0:0:
192,192,149455,1,0,0:0:0:0:
320,192,149528,1,0,0:0:0:0:
448,192,149528,1,0,0:0:0:0:
192,192,149600,1,0,0:0:0:0:
64,192,149673,1,0,0:0:0:0:
320,192,149673,1,0,0:0:0:0:
448,192,149673,1,0,0:0:0:0:
64,192,149818,1,0,0:0:0:0:
192,192,149962,1,0,0:0:0:0:
320,192,149962,1,0,0:0:0:0:
448,192,149962,1,0,0:0:0:0:
64,192,150107,1,0,0:0:0:0:
192,192,150107,1,0,0:0:0:0:
320,192,150107,1,0,0:0:0:0:
448,192,150107,1,0,0:0:0:0:
320,192,150252,1,0,0:0:0:0:
64,192,150397,1,0,0:0:0:0:
192,192,150397,1,0,0:0:0:0:
448,192,150397,1,0,0:0:0:0:
64,192,150542,1,0,0:0:0:0:
192,192,150542,1,0,0:0:0:0:
320,192,150542,1,0,0:0:0:0:
448,192,150542,1,0,0:0:0:0:
64,192,150687,1,0,0:0:0:0:
192,192,150832,1,0,0:0:0:0:
320,192,150832,1,0,0:0:0:0:
448,192,150832,1,0,0:0:0:0:
64,192,150977,1,0,0:0:0:0:
192,192,150977,1,0,0:0:0:0:
320,192,150977,1,0,0:0:0:0:
448,192,150977,1,0,0:0:0:0:
64,192,151412,1,0,0:0:0:0:
192,192,151412,1,0,0:0:0:0:
320,192,151412,1,0,0:0:0:0:
448,192,151412,1,0,0:0:0:0:
320,192,151557,1,0,0:0:0:0:
64,192,151702,1,0,0:0:0:0:
192,192,151702,1,0,0:0:0:0:
448,192,151702,1,0,0:0:0:0:
64,192,151846,1,0,0:0:0:0:
192,192,151846,1,0,0:0:0:0:
320,192,151846,1,0,0:0:0:0:
448,192,151846,1,0,0:0:0:0:
64,192,151991,1,0,0:0:0:0:
192,192,152136,1,0,0:0:0:0:
320,192,152136,1,0,0:0:0:0:
448,192,152136,1,0,0:0:0:0:
64,192,152281,1,0,0:0:0:0:
192,192,152281,1,0,0:0:0:0:
320,192,152281,1,0,0:0:0:0:
448,192,152281,1,0,0:0:0:0:
448,192,152426,1,0,0:0:0:0:
64,192,152571,1,0,0:0:0:0:
192,192,152571,1,0,0:0:0:0:
320,192,152571,1,0,0:0:0:0:
64,192,152716,1,0,0:0:0:0:
192,192,152716,1,0,0:0:0:0:
320,192,152716,1,0,0:0:0:0:
448,192,152716,1,0,0:0:0:0:
320,192,152861,1,0,0:0:0:0:
448,192,152861,1,0,0:0:0:0:
64,192,152933,1,0,0:0:0:0:
192,192,152933,1,0,0:0:0:0:
320,192,153006,1,0,0:0:0:0:
448,192,153006,1,0,0:0:0:0:
192,192,153078,1,0,0:0:0:0:
64,192,153151,1,0,0:0:0:0:
320,192,153151,1,0,0:0:0:0:
448,192,153151,1,0,0:0:0:0:
64,192,153296,1,0,0:0:0:0:
192,192,153441,1,0,0:0:0:0:
320,192,153441,1,0,0:0:0:0:
448,192,153441,1,0,0:0:0:0:
64,192,153586,1,0,0:0:0:0:
192,192,153586,1,0,0:0:0:0:
320,192,153586,1,0,0:0:0:0:
448,192,153586,1,0,0:0:0:0:
320,192,153731,1,0,0:0:0:0:
64,192,153875,1,0,0:0:0:0:
192,192,153875,1,0,0:0:0:0:
448,192,153875,1,0,0:0:0:0:
64,192,154020,1,0,0:0:0:0:
192,192,154020,1,0,0:0:0:0:
320,192,154020,1,0,0:0:0:0:
448,192,154020,1,0,0:0:0:0:
64,192,154165,1,0,0:0:0:0:
192,192,154310,1,0,0:0:0:0:
320,192,154310,1,0,0:0:0:0:
448,192,154310,1,0,0:0:0:0:
64,192,154455,1,0,0:0:0:0:
192,192,154455,1,0,0:0:0:0:
320,192,154455,1,0,0:0:0:0:
448,192,154455,1,0,0:0:0:0:
64,192,154890,1,0,0:0:0:0:
192,192,154890,1,0,0:0:0:0:
320,192,154890,1,0,0:0:0:0:
448,192,154890,1,0,0:0:0:0:
192,192,155035,1,0,0:0:0:0:
64,192,155180,1,0,0:0:0:0:
320,192,155180,1,0,0:0:0:0:
448,192,155180,1,0,0:0:0:0:
64,192,155325,1,0,0:0:0:0:
192,192,155325,1,0,0:0:0:0:
320,192,155325,1,0,0:0:0:0:
448,192,155325,1,0,0:0:0:0:
448,192,155470,1,0,0:0:0:0:
64,192,155615,1,0,0:0:0:0:
192,192,155615,1,0,0:0:0:0:
320,192,155615,1,0,0:0:0:0:
64,192,155760,1,0,0:0:0:0:
192,192,155760,1,0,0:0:0:0:
320,192,155760,1,0,0:0:0:0:
448,192,155760,1,0,0:0:0:0:
64,192,155904,1,0,0:0:0:0:
192,192,156049,1,0,0:0:0:0:
320,192,156049,1,0,0:0:0:0:
448,192,156049,1,0,0:0:0:0:
64,192,156194,1,0,0:0:0:0:
192,192,156194,1,0,0:0:0:0:
320,192,156194,1,0,0:0:0:0:
448,192,156194,1,0,0:0:0:0:
64,192,156339,1,0,0:0:0:0:
192,192,156339,1,0,0:0:0:0:
320,192,156412,1,0,0:0:0:0:
448,192,156412,1,0,0:0:0:0:
64,192,156484,1,0,0:0:0:0:
192,192,156484,1,0,0:0:0:0:
320,192,156557,1,0,0:0:0:0:
64,192,156629,1,0,0:0:0:0:
192,192,156629,1,0,0:0:0:0:
448,192,156629,1,0,0:0:0:0:
448,192,156774,1,0,0:0:0:0:
64,192,156919,1,0,0:0:0:0:
192,192,156919,1,0,0:0:0:0:
320,192,156919,1,0,0:0:0:0:
64,192,157064,1,0,0:0:0:0:
192,192,157064,1,0,0:0:0:0:
320,192,157064,1,0,0:0:0:0:
448,192,157064,1,0,0:0:0:0:
192,192,157209,1,0,0:0:0:0:
64,192,157354,1,0,0:0:0:0:
320,192,157354,1,0,0:0:0:0:
448,192,157354,1,0,0:0:0:0:
64,192,157499,1,0,0:0:0:0:
192,192,157499,1,0,0:0:0:0:
320,192,157499,1,0,0:0:0:0:
448,192,157499,1,0,0:0:0:0:
448,192,157644,1,0,0:0:0:0:
64,192,157789,1,0,0:0:0:0:
192,192,157789,1,0,0:0:0:0:
320,192,157789,1,0,0:0:0:0:
64,192,157933,1,0,0:0:0:0:
192,192,157933,1,0,0:0:0:0:
320,192,157933,1,0,0:0:0:0:
448,192,157933,1,0,0:0:0:0:
64,192,158368,1,0,0:0:0:0:
192,192,158368,1,0,0:0:0:0:
320,192,158368,1,0,0:0:0:0:
448,192,158368,1,0,0:0:0:0:
320,192,158513,1,0,0:0:0:0:
448,192,158513,1,0,0:0:0:0:
64,192,158658,1,0,0:0:0:0:
192,192,158658,1,0,0:0:0:0:
448,192,158658,1,0,0:0:0:0:
64,192,158803,1,0,0:0:0:0:
192,192,158803,1,0,0:0:0:0:
320,192,158803,1,0,0:0:0:0:
448,192,158803,1,0,0:0:0:0:
64,192,158948,1,0,0:0:0:0:
320,192,158948,1,0,0:0:0:0:
192,192,159093,1,0,0:0:0:0:
320,192,159093,1,0,0:0:0:0:
448,192,159093,1,0,0:0:0:0:
64,192,159238,1,0,0:0:0:0:
192,192,159238,1,0,0:0:0:0:
320,192,159238,1,0,0:0:0:0:
448,192,159238,1,0,0:0:0:0:
64,192,159383,1,0,0:0:0:0:
192,192,159383,1,0,0:0:0:0:
64,192,159528,1,0,0:0:0:0:
192,192,159528,1,0,0:0:0:0:
448,192,159528,1,0,0:0:0:0:
64,192,159673,1,0,0:0:0:0:
192,192,159673,1,0,0:0:0:0:
320,192,159673,1,0,0:0:0:0:
448,192,159673,1,0,0:0:0:0:
320,192,159818,1,0,0:0:0:0:
448,192,159818,1,0,0:0:0:0:
64,192,159890,1,0,0:0:0:0:
192,192,159890,1,0,0:0:0:0:
320,192,159962,1,0,0:0:0:0:
448,192,159962,1,0,0:0:0:0:
192,192,160035,1,0,0:0:0:0:
64,192,160107,1,0,0:0:0:0:
320,192,160107,1,0,0:0:0:0:
448,192,160107,1,0,0:0:0:0:
192,192,160252,1,0,0:0:0:0:
448,192,160252,1,0,0:0:0:0:
64,192,160397,1,0,0:0:0:0:
192,192,160397,1,0,0:0:0:0:
320,192,160397,1,0,0:0:0:0:
64,192,160542,1,0,0:0:0:0:
192,192,160542,1,0,0:0:0:0:
320,192,160542,1,0,0:0:0:0:
448,192,160542,1,0,0:0:0:0:
64,192,160687,1,0,0:0:0:0:
448,192,160687,1,0,0:0:0:0:
192,192,160832,1,0,0:0:0:0:
320,192,160832,1,0,0:0:0:0:
448,192,160832,1,0,0:0:0:0:
64,192,160977,1,0,0:0:0:0:
192,192,160977,1,0,0:0:0:0:
320,192,160977,1,0,0:0:0:0:
448,192,160977,1,0,0:0:0:0:
64,192,161122,1,0,0:0:0:0:
320,192,161122,1,0,0:0:0:0:
64,192,161267,1,0,0:0:0:0:
192,192,161267,1,0,0:0:0:0:
448,192,161267,1,0,0:0:0:0:
64,192,161412,1,0,0:0:0:0:
192,192,161412,1,0,0:0:0:0:
320,192,161412,1,0,0:0:0:0:
448,192,161412,1,0,0:0:0:0:
64,192,161846,1,0,0:0:0:0:
192,192,161846,1,0,0:0:0:0:
320,192,161846,1,0,0:0:0:0:
448,192,161846,1,0,0:0:0:0:
320,192,161991,1,0,0:0:0:0:
448,192,161991,1,0,0:0:0:0:
64,192,162136,1,0,0:0:0:0:
192,192,162136,1,0,0:0:0:0:
320,192,162136,1,0,0:0:0:0:
64,192,162281,1,0,0:0:0:0:
192,192,162281,1,0,0:0:0:0:
320,192,162281,1,0,0:0:0:0:
448,192,162281,1,0,0:0:0:0:
64,192,162426,1,0,0:0:0:0:
448,192,162426,1,0,0:0:0:0:
192,192,162571,1,0,0:0:0:0:
320,192,162571,1,0,0:0:0:0:
448,192,162571,1,0,0:0:0:0:
64,192,162716,1,0,0:0:0:0:
192,192,162716,1,0,0:0:0:0:
320,192,162716,1,0,0:0:0:0:
448,192,162716,1,0,0:0:0:0:
64,192,162861,1,0,0:0:0:0:
320,192,162861,1,0,0:0:0:0:
64,192,163006,1,0,0:0:0:0:
192,192,163006,1,0,0:0:0:0:
448,192,163006,1,0,0:0:0:0:
64,192,163151,1,0,0:0:0:0:
192,192,163151,1,0,0:0:0:0:
320,192,163151,1,0,0:0:0:0:
448,192,163151,1,0,0:0:0:0:
320,192,163296,1,0,0:0:0:0:
448,192,163296,1,0,0:0:0:0:
64,192,163368,1,0,0:0:0:0:
192,192,163368,1,0,0:0:0:0:
320,192,163441,1,0,0:0:0:0:
448,192,163441,1,0,0:0:0:0:
192,192,163513,1,0,0:0:0:0:
64,192,163586,1,0,0:0:0:0:
448,192,163586,1,0,0:0:0:0:
64,192,163731,1,0,0:0:0:0:
64,192,163875,1,0,0:0:0:0:
320,192,163875,1,0,0:0:0:0:
448,192,163875,1,0,0:0:0:0:
192,192,164020,1,0,0:0:0:0:
448,192,164020,1,0,0:0:0:0:
192,192,164165,1,0,0:0:0:0:
64,192,164310,1,0,0:0:0:0:
320,192,164310,1,0,0:0:0:0:
448,192,164310,1,0,0:0:0:0:
192,192,164455,1,0,0:0:0:0:
64,192,164600,1,0,0:0:0:0:
320,192,164600,1,0,0:0:0:0:
448,192,164600,1,0,0:0:0:0:
192,192,164745,1,0,0:0:0:0:
320,192,164745,1,0,0:0:0:0:
64,192,164890,1,0,0:0:0:0:
192,192,164890,1,0,0:0:0:0:
448,192,164890,1,0,0:0:0:0:
448,192,165035,1,0,0:0:0:0:
64,192,165180,1,0,0:0:0:0:
64,192,165325,1,0,0:0:0:0:
192,192,165325,1,0,0:0:0:0:
448,192,165325,1,0,0:0:0:0:
