osu file format v14

[General]
AudioFilename: audio.mp3
AudioLeadIn: 0
PreviewTime: 130026
Countdown: 0
SampleSet: Soft
StackLeniency: 0.7
Mode: 3
LetterboxInBreaks: 0
SpecialStyle: 0
WidescreenStoryboard: 1

[Editor]
Bookmarks: 51991
DistanceSpacing: 1.2
BeatDivisor: 3
GridSize: 4
TimelineZoom: 1.5

[Metadata]
Title:Turn It Up
TitleUnicode:Turn It Up
Artist:Armin van Buuren
ArtistUnicode:Armin van Buuren
Creator:Rivals_7
Version:Beginner
Source:
Tags:edm psytrance DJ english electronic dance music balance psychedelic trance ARMA463
BeatmapID:2668517
BeatmapSetID:1276059

[Difficulty]
HPDrainRate:6.5
CircleSize:4
OverallDifficulty:6.5
ApproachRate:5
SliderMultiplier:1.4
SliderTickRate:1

[Events]
//Background and Video events
0,0,"turn it up.jpg",0,0
//Break Periods
//Storyboard Layer 0 (Background)
//Storyboard Layer 1 (Fail)
//Storyboard Layer 2 (Pass)
//Storyboard Layer 3 (Foreground)
//Storyboard Layer 4 (Overlay)
//Storyboard Sound Samples

[TimingPoints]
1847,434.782608695652,4,2,1,60,1,0

[HitObjects]
320,192,1847,5,0,0:0:0:0:
448,192,1847,1,0,0:0:0:0:
192,192,2281,1,0,0:0:0:0:
320,192,2716,1,0,0:0:0:0:
448,192,3151,1,0,0:0:0:0:
64,192,3586,1,0,0:0:0:0:
192,192,4020,1,0,0:0:0:0:
448,192,4455,1,0,0:0:0:0:
320,192,4890,1,0,0:0:0:0:
192,192,5325,1,0,0:0:0:0:
320,192,5760,1,0,0:0:0:0:
64,192,6194,1,0,0:0:0:0:
448,192,6194,1,0,0:0:0:0:
192,192,6629,1,0,0:0:0:0:
320,192,7064,1,0,0:0:0:0:
64,192,7499,1,0,0:0:0:0:
448,192,7933,1,0,0:0:0:0:
320,192,8368,1,0,0:0:0:0:
192,192,8803,1,0,0:0:0:0:
448,192,9238,1,0,0:0:0:0:
64,192,9673,1,0,0:0:0:0:
320,192,10107,1,0,0:0:0:0:
192,192,10542,1,0,0:0:0:0:
320,192,10977,1,0,0:0:0:0:
64,192,11412,1,0,0:0:0:0:
320,192,11702,1,0,0:0:0:0:
448,192,11702,1,0,0:0:0:0:
192,192,11846,1,0,0:0:0:0:
448,192,12281,1,0,0:0:0:0:
320,192,12716,1,0,0:0:0:0:
192,192,13151,1,0,0:0:0:0:
64,192,13586,1,0,0:0:0:0:
192,192,14020,1,0,0:0:0:0:
320,192,14165,1,0,0:0:0:0:
448,192,14310,1,0,0:0:0:0:
64,192,14455,1,0,0:0:0:0:
320,192,14745,1,0,0:0:0:0:
320,192,15035,1,0,0:0:0:0:
192,192,15325,1,0,0:0:0:0:
320,192,15760,1,0,0:0:0:0:
448,192,15760,1,0,0:0:0:0:
192,192,16194,1,0,0:0:0:0:
448,192,16629,1,0,0:0:0:0:
320,192,17064,1,0,0:0:0:0:
64,192,17499,1,0,0:0:0:0:
192,192,17933,1,0,0:0:0:0:
448,192,18368,1,0,0:0:0:0:
64,192,18513,1,0,0:0:0:0:
192,192,18658,1,0,0:0:0:0:
320,192,18803,1,0,0:0:0:0:
448,192,19238,1,0,0:0:0:0:
192,192,19673,1,0,0:0:0:0:
64,192,20107,1,0,0:0:0:0:
448,192,20107,1,0,0:0:0:0:
320,192,20542,1,0,0:0:0:0:
192,192,20977,1,0,0:0:0:0:
448,192,21412,1,0,0:0:0:0:
64,192,21846,1,0,0:0:0:0:
320,192,22281,1,0,0:0:0:0:
64,192,22716,1,0,0:0:0:0:
448,192,22716,1,0,0:0:0:0:
320,192,23151,1,0,0:0:0:0:
192,192,23586,1,0,0:0:0:0:
448,192,24020,1,0,0:0:0:0:
64,192,24455,1,0,0:0:0:0:
320,192,24890,1,0,0:0:0:0:
192,192,25325,1,0,0:0:0:0:
64,192,25615,1,0,0:0:0:0:
448,192,25615,1,0,0:0:0:0:
320,192,25760,1,0,0:0:0:0:
192,192,26194,1,0,0:0:0:0:
448,192,26629,1,0,0:0:0:0:
64,192,27064,1,0,0:0:0:0:
320,192,27499,1,0,0:0:0:0:
192,192,27933,1,0,0:0:0:0:
448,192,28223,1,0,0:0:0:0:
64,192,28368,1,0,0:0:0:0:
320,192,28658,1,0,0:0:0:0:
64,192,28803,1,0,0:0:0:0:
448,192,29093,1,0,0:0:0:0:
192,192,29238,1,0,0:0:0:0:
320,192,29673,1,0,0:0:0:0:
448,192,29673,1,0,0:0:0:0:
320,192,30107,1,0,0:0:0:0:
448,192,30107,1,0,0:0:0:0:
64,192,30542,1,0,0:0:0:0:
192,192,30542,1,0,0:0:0:0:
320,192,30977,1,0,0:0:0:0:
448,192,30977,1,0,0:0:0:0:
192,192,31267,1,0,0:0:0:0:
320,192,31412,1,0,0:0:0:0:
448,192,31412,1,0,0:0:0:0:
320,192,31846,1,0,0:0:0:0:
448,192,31846,1,0,0:0:0:0:
64,192,32281,1,0,0:0:0:0:
192,192,32281,1,0,0:0:0:0:
320,192,32571,1,0,0:0:0:0:
64,192,32716,1,0,0:0:0:0:
448,192,32716,1,0,0:0:0:0:
64,192,33151,1,0,0:0:0:0:
192,192,33151,1,0,0:0:0:0:
64,192,33586,1,0,0:0:0:0:
192,192,33586,1,0,0:0:0:0:
320,192,34020,1,0,0:0:0:0:
448,192,34020,1,0,0:0:0:0:
64,192,34455,1,0,0:0:0:0:
192,192,34455,1,0,0:0:0:0:
320,192,34745,1,0,0:0:0:0:
64,192,34890,1,0,0:0:0:0:
192,192,34890,1,0,0:0:0:0:
64,192,35325,1,0,0:0:0:0:
192,192,35325,1,0,0:0:0:0:
320,192,35760,1,0,0:0:0:0:
448,192,35760,1,0,0:0:0:0:
192,192,36049,1,0,0:0:0:0:
64,192,36194,1,0,0:0:0:0:
448,192,36194,1,0,0:0:0:0:
320,192,36629,1,0,0:0:0:0:
448,192,36629,1,0,0:0:0:0:
320,192,37064,1,0,0:0:0:0:
448,192,37064,1,0,0:0:0:0:
64,192,37499,1,0,0:0:0:0:
192,192,37499,1,0,0:0:0:0:
320,192,37933,1,0,0:0:0:0:
448,192,37933,1,0,0:0:0:0:
192,192,38223,1,0,0:0:0:0:
320,192,38368,1,0,0:0:0:0:
448,192,38368,1,0,0:0:0:0:
320,192,38803,1,0,0:0:0:0:
448,192,38803,1,0,0:0:0:0:
64,192,39238,1,0,0:0:0:0:
192,192,39238,1,0,0:0:0:0:
320,192,39528,1,0,0:0:0:0:
64,192,39673,1,0,0:0:0:0:
448,192,39673,1,0,0:0:0:0:
64,192,40107,1,0,0:0:0:0:
192,192,40107,1,0,0:0:0:0:
64,192,40542,1,0,0:0:0:0:
192,192,40542,1,0,0:0:0:0:
320,192,40977,1,0,0:0:0:0:
448,192,40977,1,0,0:0:0:0:
64,192,41412,1,0,0:0:0:0:
192,192,41412,1,0,0:0:0:0:
320,192,41702,1,0,0:0:0:0:
64,192,41846,1,0,0:0:0:0:
192,192,41846,1,0,0:0:0:0:
448,192,41991,1,0,0:0:0:0:
64,192,42281,1,0,0:0:0:0:
192,192,42281,1,0,0:0:0:0:
64,192,42571,1,0,0:0:0:0:
320,192,42716,1,0,0:0:0:0:
448,192,42716,1,0,0:0:0:0:
64,192,43151,1,0,0:0:0:0:
448,192,43151,1,0,0:0:0:0:
320,192,43586,1,0,0:0:0:0:
448,192,43586,1,0,0:0:0:0:
64,192,44020,1,0,0:0:0:0:
192,192,44020,1,0,0:0:0:0:
320,192,44310,1,0,0:0:0:0:
64,192,44455,1,0,0:0:0:0:
448,192,44455,1,0,0:0:0:0:
192,192,44890,1,0,0:0:0:0:
320,192,44890,1,0,0:0:0:0:
64,192,45180,1,0,0:0:0:0:
320,192,45325,1,0,0:0:0:0:
448,192,45325,1,0,0:0:0:0:
192,192,45760,1,0,0:0:0:0:
320,192,45760,1,0,0:0:0:0:
448,192,46049,1,0,0:0:0:0:
64,192,46194,1,0,0:0:0:0:
192,192,46194,1,0,0:0:0:0:
320,192,46629,1,0,0:0:0:0:
448,192,46629,1,0,0:0:0:0:
64,192,47064,1,0,0:0:0:0:
192,192,47064,1,0,0:0:0:0:
320,192,47499,1,0,0:0:0:0:
448,192,47499,1,0,0:0:0:0:
192,192,47789,1,0,0:0:0:0:
64,192,47933,1,0,0:0:0:0:
448,192,47933,1,0,0:0:0:0:
192,192,48368,1,0,0:0:0:0:
320,192,48368,1,0,0:0:0:0:
448,192,48658,1,0,0:0:0:0:
64,192,48803,1,0,0:0:0:0:
192,192,48948,1,0,0:0:0:0:
448,192,49093,1,0,0:0:0:0:
192,192,49238,1,0,0:0:0:0:
64,192,49528,1,0,0:0:0:0:
320,192,49673,1,0,0:0:0:0:
448,192,49818,1,0,0:0:0:0:
192,192,49962,1,0,0:0:0:0:
64,192,50107,1,0,0:0:0:0:
448,192,50397,1,0,0:0:0:0:
64,192,50542,1,0,0:0:0:0:
192,192,50542,1,0,0:0:0:0:
320,192,50977,1,0,0:0:0:0:
448,192,50977,1,0,0:0:0:0:
192,192,51267,1,0,0:0:0:0:
64,192,51412,1,0,0:0:0:0:
448,192,51412,1,0,0:0:0:0:
192,192,51846,1,0,0:0:0:0:
320,192,51846,1,0,0:0:0:0:
448,192,52136,1,0,0:0:0:0:
64,192,52281,1,0,0:0:0:0:
192,192,52281,1,0,0:0:0:0:
192,192,52716,1,0,0:0:0:0:
320,192,52716,1,0,0:0:0:0:
64,192,53006,1,0,0:0:0:0:
320,192,53151,1,0,0:0:0:0:
448,192,53151,1,0,0:0:0:0:
64,192,53586,1,0,0:0:0:0:
192,192,53586,1,0,0:0:0:0:
320,192,54020,1,0,0:0:0:0:
448,192,54020,1,0,0:0:0:0:
64,192,54455,1,0,0:0:0:0:
192,192,54455,1,0,0:0:0:0:
320,192,54745,1,0,0:0:0:0:
64,192,54890,1,0,0:0:0:0:
448,192,54890,1,0,0:0:0:0:
192,192,55325,1,0,0:0:0:0:
320,192,55325,1,0,0:0:0:0:
64,192,55615,1,0,0:0:0:0:
448,192,55760,1,0,0:0:0:0:
320,192,55904,1,0,0:0:0:0:
64,192,56049,1,0,0:0:0:0:
320,192,56194,1,0,0:0:0:0:
448,192,56484,1,0,0:0:0:0:
192,192,56629,1,0,0:0:0:0:
64,192,56774,1,0,0:0:0:0:
320,192,56919,1,0,0:0:0:0:
448,192,57064,1,0,0:0:0:0:
64,192,57354,1,0,0:0:0:0:
320,192,57499,1,0,0:0:0:0:
448,192,57499,1,0,0:0:0:0:
64,192,57933,1,0,0:0:0:0:
192,192,57933,1,0,0:0:0:0:
320,192,58223,1,0,0:0:0:0:
64,192,58368,1,0,0:0:0:0:
448,192,58368,1,0,0:0:0:0:
192,192,58803,1,0,0:0:0:0:
320,192,58803,1,0,0:0:0:0:
64,192,59093,1,0,0:0:0:0:
320,192,59238,1,0,0:0:0:0:
448,192,59238,1,0,0:0:0:0:
192,192,59673,1,0,0:0:0:0:
320,192,59673,1,0,0:0:0:0:
448,192,59962,1,0,0:0:0:0:
64,192,60107,1,0,0:0:0:0:
192,192,60107,1,0,0:0:0:0:
320,192,60542,1,0,0:0:0:0:
448,192,60542,1,0,0:0:0:0:
64,192,60977,1,0,0:0:0:0:
192,192,60977,1,0,0:0:0:0:
320,192,61412,1,0,0:0:0:0:
448,192,61412,1,0,0:0:0:0:
192,192,61702,1,0,0:0:0:0:
64,192,61846,1,0,0:0:0:0:
448,192,61846,1,0,0:0:0:0:
192,192,62281,1,0,0:0:0:0:
320,192,62281,1,0,0:0:0:0:
448,192,62571,1,0,0:0:0:0:
64,192,62716,1,0,0:0:0:0:
192,192,62861,1,0,0:0:0:0:
448,192,63006,1,0,0:0:0:0:
192,192,63151,1,0,0:0:0:0:
64,192,63441,1,0,0:0:0:0:
320,192,63586,1,0,0:0:0:0:
448,192,63731,1,0,0:0:0:0:
192,192,63875,1,0,0:0:0:0:
64,192,64020,1,0,0:0:0:0:
448,192,64310,1,0,0:0:0:0:
64,192,64455,1,0,0:0:0:0:
192,192,64455,1,0,0:0:0:0:
320,192,64890,1,0,0:0:0:0:
448,192,64890,1,0,0:0:0:0:
192,192,65180,1,0,0:0:0:0:
64,192,65325,1,0,0:0:0:0:
448,192,65325,1,0,0:0:0:0:
192,192,65760,1,0,0:0:0:0:
320,192,65760,1,0,0:0:0:0:
448,192,66049,1,0,0:0:0:0:
64,192,66194,1,0,0:0:0:0:
192,192,66194,1,0,0:0:0:0:
192,192,66629,1,0,0:0:0:0:
320,192,66629,1,0,0:0:0:0:
64,192,66919,1,0,0:0:0:0:
320,192,67064,1,0,0:0:0:0:
448,192,67064,1,0,0:0:0:0:
64,192,67499,1,0,0:0:0:0:
192,192,67499,1,0,0:0:0:0:
320,192,67933,1,0,0:0:0:0:
448,192,67933,1,0,0:0:0:0:
64,192,68368,1,0,0:0:0:0:
192,192,68368,1,0,0:0:0:0:
320,192,68658,1,0,0:0:0:0:
64,192,68803,1,0,0:0:0:0:
448,192,68803,1,0,0:0:0:0:
192,192,69238,1,0,0:0:0:0:
320,192,69238,1,0,0:0:0:0:
64,192,69528,1,0,0:0:0:0:
448,192,69673,1,0,0:0:0:0:
320,192,69818,1,0,0:0:0:0:
64,192,69962,1,0,0:0:0:0:
320,192,70107,1,0,0:0:0:0:
448,192,70397,1,0,0:0:0:0:
192,192,70542,1,0,0:0:0:0:
64,192,70687,1,0,0:0:0:0:
320,192,70832,1,0,0:0:0:0:
448,192,70977,1,0,0:0:0:0:
64,192,71412,1,0,0:0:0:0:
192,192,71412,1,0,0:0:0:0:
448,192,74890,1,0,0:0:0:0:
448,192,75325,1,0,0:0:0:0:
192,192,75760,1,0,0:0:0:0:
192,192,76194,1,0,0:0:0:0:
320,192,76629,1,0,0:0:0:0:
64,192,77064,1,0,0:0:0:0:
64,192,77499,1,0,0:0:0:0:
448,192,77933,1,0,0:0:0:0:
192,192,78368,1,0,0:0:0:0:
320,192,78803,1,0,0:0:0:0:
320,192,79238,1,0,0:0:0:0:
64,192,79673,1,0,0:0:0:0:
448,192,80107,1,0,0:0:0:0:
192,192,80542,1,0,0:0:0:0:
192,192,80977,1,0,0:0:0:0:
320,192,81412,1,0,0:0:0:0:
64,192,81846,1,0,0:0:0:0:
448,192,82281,1,0,0:0:0:0:
448,192,82716,1,0,0:0:0:0:
192,192,83151,1,0,0:0:0:0:
320,192,83586,1,0,0:0:0:0:
64,192,84020,1,0,0:0:0:0:
64,192,84455,1,0,0:0:0:0:
448,192,84890,1,0,0:0:0:0:
192,192,85325,1,0,0:0:0:0:
320,192,85760,1,0,0:0:0:0:
320,192,86194,1,0,0:0:0:0:
64,192,86629,1,0,0:0:0:0:
448,192,87064,1,0,0:0:0:0:
448,192,87499,1,0,0:0:0:0:
192,192,87933,1,0,0:0:0:0:
192,192,88368,1,0,0:0:0:0:
64,192,88803,1,0,0:0:0:0:
448,192,88803,1,0,0:0:0:0:
320,192,89238,1,0,0:0:0:0:
192,192,89673,1,0,0:0:0:0:
448,192,90107,1,0,0:0:0:0:
64,192,90542,1,0,0:0:0:0:
320,192,90977,1,0,0:0:0:0:
192,192,91412,1,0,0:0:0:0:
320,192,91846,1,0,0:0:0:0:
64,192,92281,1,0,0:0:0:0:
192,192,92716,1,0,0:0:0:0:
320,192,93151,1,0,0:0:0:0:
448,192,93151,1,0,0:0:0:0:
192,192,93586,1,0,0:0:0:0:
448,192,94020,1,0,0:0:0:0:
320,192,94455,1,0,0:0:0:0:
192,192,94890,1,0,0:0:0:0:
64,192,95325,1,0,0:0:0:0:
320,192,95760,1,0,0:0:0:0:
192,192,96194,1,0,0:0:0:0:
448,192,96629,1,0,0:0:0:0:
64,192,97064,1,0,0:0:0:0:
320,192,97499,1,0,0:0:0:0:
192,192,97933,1,0,0:0:0:0:
320,192,98368,1,0,0:0:0:0:
64,192,98803,1,0,0:0:0:0:
448,192,99238,1,0,0:0:0:0:
320,192,99673,1,0,0:0:0:0:
192,192,100107,1,0,0:0:0:0:
448,192,100542,1,0,0:0:0:0:
64,192,100977,1,0,0:0:0:0:
64,192,101412,1,0,0:0:0:0:
320,192,101846,1,0,0:0:0:0:
320,192,102281,1,0,0:0:0:0:
64,192,102716,1,0,0:0:0:0:
448,192,102716,1,0,0:0:0:0:
192,192,103151,1,0,0:0:0:0:
448,192,103586,128,0,104020:0:0:0:0:
64,192,104020,1,0,0:0:0:0:
320,192,104455,1,0,0:0:0:0:
192,192,104890,1,0,0:0:0:0:
448,192,105325,1,0,0:0:0:0:
320,192,105470,1,0,0:0:0:0:
192,192,105615,1,0,0:0:0:0:
64,192,105760,1,0,0:0:0:0:
320,192,106194,1,0,0:0:0:0:
192,192,106629,1,0,0:0:0:0:
320,192,107064,1,0,0:0:0:0:
64,192,107499,1,0,0:0:0:0:
448,192,107933,1,0,0:0:0:0:
64,192,108368,1,0,0:0:0:0:
320,192,108803,1,0,0:0:0:0:
64,192,108948,1,0,0:0:0:0:
448,192,109093,1,0,0:0:0:0:
192,192,109238,1,0,0:0:0:0:
320,192,109673,1,0,0:0:0:0:
64,192,110107,1,0,0:0:0:0:
448,192,110542,128,0,110977:0:0:0:0:
192,192,110977,1,0,0:0:0:0:
320,192,111412,1,0,0:0:0:0:
64,192,111846,1,0,0:0:0:0:
448,192,112281,1,0,0:0:0:0:
192,192,112571,1,0,0:0:0:0:
448,192,112716,1,0,0:0:0:0:
320,192,113006,1,0,0:0:0:0:
64,192,113151,1,0,0:0:0:0:
192,192,113586,1,0,0:0:0:0:
448,192,114020,1,0,0:0:0:0:
320,192,114455,1,0,0:0:0:0:
192,192,114890,128,0,115325:0:0:0:0:
448,192,115325,128,0,115760:0:0:0:0:
64,192,115760,128,0,116194:0:0:0:0:
320,192,116194,128,0,116629:0:0:0:0:
192,192,116629,1,0,0:0:0:0:
448,192,116629,1,0,0:0:0:0:
192,192,118368,1,0,0:0:0:0:
448,192,118368,1,0,0:0:0:0:
192,192,120107,1,0,0:0:0:0:
448,192,120107,1,0,0:0:0:0:
64,192,120977,1,0,0:0:0:0:
320,192,120977,1,0,0:0:0:0:
64,192,121846,1,0,0:0:0:0:
192,192,121846,1,0,0:0:0:0:
320,192,122716,1,0,0:0:0:0:
448,192,122716,1,0,0:0:0:0:
192,192,123586,1,0,0:0:0:0:
192,192,124020,1,0,0:0:0:0:
320,192,124455,1,0,0:0:0:0:
320,192,124890,1,0,0:0:0:0:
64,192,125325,1,0,0:0:0:0:
64,192,125760,1,0,0:0:0:0:
448,192,126194,1,0,0:0:0:0:
448,192,126629,1,0,0:0:0:0:
192,192,127064,1,0,0:0:0:0:
320,192,130542,1,0,0:0:0:0:
448,192,130542,1,0,0:0:0:0:
320,192,130977,1,0,0:0:0:0:
448,192,130977,1,0,0:0:0:0:
64,192,131412,1,0,0:0:0:0:
192,192,131412,1,0,0:0:0:0:
320,192,131846,1,0,0:0:0:0:
448,192,131846,1,0,0:0:0:0:
192,192,132136,1,0,0:0:0:0:
320,192,132281,1,0,0:0:0:0:
448,192,132281,1,0,0:0:0:0:
320,192,132716,1,0,0:0:0:0:
448,192,132716,1,0,0:0:0:0:
64,192,133151,1,0,0:0:0:0:
192,192,133151,1,0,0:0:0:0:
320,192,133441,1,0,0:0:0:0:
64,192,133586,1,0,0:0:0:0:
448,192,133586,1,0,0:0:0:0:
64,192,134020,1,0,0:0:0:0:
192,192,134020,1,0,0:0:0:0:
64,192,134455,1,0,0:0:0:0:
192,192,134455,1,0,0:0:0:0:
320,192,134890,1,0,0:0:0:0:
448,192,134890,1,0,0:0:0:0:
64,192,135325,1,0,0:0:0:0:
192,192,135325,1,0,0:0:0:0:
320,192,135615,1,0,0:0:0:0:
64,192,135760,1,0,0:0:0:0:
192,192,135760,1,0,0:0:0:0:
64,192,136194,1,0,0:0:0:0:
192,192,136194,1,0,0:0:0:0:
320,192,136629,1,0,0:0:0:0:
448,192,136629,1,0,0:0:0:0:
192,192,136919,1,0,0:0:0:0:
64,192,137064,1,0,0:0:0:0:
448,192,137064,1,0,0:0:0:0:
320,192,137499,1,0,0:0:0:0:
448,192,137499,1,0,0:0:0:0:
320,192,137933,1,0,0:0:0:0:
448,192,137933,1,0,0:0:0:0:
64,192,138368,1,0,0:0:0:0:
192,192,138368,1,0,0:0:0:0:
320,192,138803,1,0,0:0:0:0:
448,192,138803,1,0,0:0:0:0:
192,192,139093,1,0,0:0:0:0:
320,192,139238,1,0,0:0:0:0:
448,192,139238,1,0,0:0:0:0:
320,192,139673,1,0,0:0:0:0:
448,192,139673,1,0,0:0:0:0:
64,192,140107,1,0,0:0:0:0:
192,192,140107,1,0,0:0:0:0:
320,192,140397,1,0,0:0:0:0:
64,192,140542,1,0,0:0:0:0:
448,192,140542,1,0,0:0:0:0:
64,192,140977,1,0,0:0:0:0:
192,192,140977,1,0,0:0:0:0:
64,192,141412,1,0,0:0:0:0:
192,192,141412,1,0,0:0:0:0:
320,192,141846,1,0,0:0:0:0:
448,192,141846,1,0,0:0:0:0:
64,192,142281,1,0,0:0:0:0:
192,192,142281,1,0,0:0:0:0:
320,192,142571,1,0,0:0:0:0:
64,192,142716,1,0,0:0:0:0:
192,192,142716,1,0,0:0:0:0:
64,192,143151,1,0,0:0:0:0:
192,192,143151,1,0,0:0:0:0:
320,192,143586,1,0,0:0:0:0:
448,192,143586,1,0,0:0:0:0:
64,192,144020,1,0,0:0:0:0:
448,192,144020,1,0,0:0:0:0:
192,192,144455,1,0,0:0:0:0:
320,192,144455,1,0,0:0:0:0:
64,192,144890,1,0,0:0:0:0:
448,192,144890,1,0,0:0:0:0:
64,192,145325,1,0,0:0:0:0:
192,192,145325,1,0,0:0:0:0:
320,192,145760,1,0,0:0:0:0:
448,192,145760,1,0,0:0:0:0:
64,192,146049,1,0,0:0:0:0:
320,192,146194,1,0,0:0:0:0:
448,192,146194,1,0,0:0:0:0:
64,192,146629,1,0,0:0:0:0:
192,192,146629,1,0,0:0:0:0:
320,192,147064,1,0,0:0:0:0:
448,192,147064,1,0,0:0:0:0:
64,192,147499,1,0,0:0:0:0:
448,192,147499,1,0,0:0:0:0:
192,192,147933,1,0,0:0:0:0:
320,192,147933,1,0,0:0:0:0:
64,192,148368,1,0,0:0:0:0:
192,192,148368,1,0,0:0:0:0:
320,192,148803,1,0,0:0:0:0:
448,192,148803,1,0,0:0:0:0:
64,192,149238,1,0,0:0:0:0:
192,192,149238,1,0,0:0:0:0:
320,192,149528,1,0,0:0:0:0:
64,192,149673,1,0,0:0:0:0:
448,192,149673,1,0,0:0:0:0:
192,192,150107,1,0,0:0:0:0:
320,192,150107,1,0,0:0:0:0:
192,192,150542,1,0,0:0:0:0:
448,192,150542,1,0,0:0:0:0:
64,192,150977,1,0,0:0:0:0:
320,192,150977,1,0,0:0:0:0:
192,192,151412,1,0,0:0:0:0:
320,192,151412,1,0,0:0:0:0:
64,192,151846,1,0,0:0:0:0:
448,192,151846,1,0,0:0:0:0:
320,192,152281,1,0,0:0:0:0:
448,192,152281,1,0,0:0:0:0:
64,192,152716,1,0,0:0:0:0:
192,192,152716,1,0,0:0:0:0:
448,192,153006,1,0,0:0:0:0:
64,192,153151,1,0,0:0:0:0:
192,192,153151,1,0,0:0:0:0:
320,192,153586,1,0,0:0:0:0:
448,192,153586,1,0,0:0:0:0:
64,192,154020,1,0,0:0:0:0:
192,192,154020,1,0,0:0:0:0:
64,192,154455,1,0,0:0:0:0:
448,192,154455,1,0,0:0:0:0:
192,192,154890,1,0,0:0:0:0:
320,192,154890,1,0,0:0:0:0:
320,192,155325,1,0,0:0:0:0:
448,192,155325,1,0,0:0:0:0:
64,192,155760,1,0,0:0:0:0:
192,192,155760,1,0,0:0:0:0:
320,192,156194,1,0,0:0:0:0:
448,192,156194,1,0,0:0:0:0:
192,192,156484,1,0,0:0:0:0:
64,192,156629,1,0,0:0:0:0:
448,192,156629,1,0,0:0:0:0:
192,192,157064,1,0,0:0:0:0:
320,192,157064,1,0,0:0:0:0:
64,192,157499,1,0,0:0:0:0:
320,192,157499,1,0,0:0:0:0:
192,192,157933,1,0,0:0:0:0:
448,192,157933,1,0,0:0:0:0:
64,192,158368,1,0,0:0:0:0:
320,192,158368,1,0,0:0:0:0:
192,192,158803,1,0,0:0:0:0:
448,192,158803,1,0,0:0:0:0:
320,192,159238,1,0,0:0:0:0:
448,192,159238,1,0,0:0:0:0:
64,192,159673,1,0,0:0:0:0:
192,192,159673,1,0,0:0:0:0:
448,192,159962,1,0,0:0:0:0:
64,192,160107,1,0,0:0:0:0:
192,192,160107,1,0,0:0:0:0:
320,192,160542,1,0,0:0:0:0:
448,192,160542,1,0,0:0:0:0:
192,192,160977,1,0,0:0:0:0:
320,192,160977,1,0,0:0:0:0:
64,192,161412,1,0,0:0:0:0:
448,192,161412,1,0,0:0:0:0:
192,192,161846,1,0,0:0:0:0:
320,192,161846,1,0,0:0:0:0:
64,192,162281,1,0,0:0:0:0:
192,192,162281,1,0,0:0:0:0:
320,192,162716,1,0,0:0:0:0:
448,192,162716,1,0,0:0:0:0:
64,192,163151,1,0,0:0:0:0:
192,192,163151,1,0,0:0:0:0:
320,192,163586,1,0,0:0:0:0:
192,192,163731,1,0,0:0:0:0:
64,192,163875,1,0,0:0:0:0:
448,192,164020,1,0,0:0:0:0:
192,192,164310,1,0,0:0:0:0:
320,192,164600,1,0,0:0:0:0:
448,192,164745,1,0,0:0:0:0:
64,192,164890,1,0,0:0:0:0:
192,192,165035,1,0,0:0:0:0:
320,192,165180,1,0,0:0:0:0:
64,192,165325,1,0,0:0:0:0:
