osu file format v14

[General]
AudioFilename: audio.mp3
AudioLeadIn: 0
PreviewTime: 87951
Countdown: 0
SampleSet: Soft
StackLeniency: 0.7
Mode: 0
LetterboxInBreaks: 0
WidescreenStoryboard: 1

[Editor]
Bookmarks: 51,12851,38451,51251,64051,76851,89651,102451
DistanceSpacing: 1.4
BeatDivisor: 4
GridSize: 4
TimelineZoom: 1.92

[Metadata]
Title:Sever The Ties (feat. Esther Sparkes) (Cut Ver.)
TitleUnicode:Sever The Ties (feat. Esther Sparkes) (Cut Ver.)
Artist:Arman Cekin
ArtistUnicode:Arman Cekin
Creator:Withdrown
Version:Nanachi's Hard
Source:
Tags:future bass piroshki smug nanachi integer tempest sliders cut ver English Electronic
BeatmapID:3127798
BeatmapSetID:1426466

[Difficulty]
HPDrainRate:5
CircleSize:4
OverallDifficulty:7
ApproachRate:8.2
SliderMultiplier:1.4
SliderTickRate:1

[Events]
//Background and Video events
0,0,"wallhaven-6od3px.jpg",0,0
//Break Periods
2,38651,50531
2,64251,69731
//Storyboard Layer 0 (Background)
//Storyboard Layer 1 (Fail)
//Storyboard Layer 2 (Pass)
//Storyboard Layer 3 (Foreground)
//Storyboard Layer 4 (Overlay)
//Storyboard Sound Samples

[TimingPoints]
51,400,4,2,1,40,1,0
14451,-100,4,2,1,10,0,0
14651,-100,4,2,1,40,0,0
15051,-100,4,2,1,10,0,0
15251,-100,4,2,1,40,0,0
17151,-100,4,2,1,10,0,0
17251,-100,4,2,1,40,0,0
17651,-100,4,2,1,10,0,0
17851,-100,4,2,1,40,0,0
18251,-100,4,2,1,10,0,0
18451,-100,4,2,1,40,0,0
20851,-100,4,2,1,10,0,0
21051,-100,4,2,1,40,0,0
21451,-100,4,2,1,10,0,0
21651,-100,4,2,1,40,0,0
23551,-100,4,2,1,10,0,0
23651,-100,4,2,1,40,0,0
24051,-100,4,2,1,10,0,0
24251,-100,4,2,1,40,0,0
27251,-100,4,2,1,10,0,0
27451,-100,4,2,1,40,0,0
27851,-100,4,2,1,10,0,0
28051,-100,4,2,1,40,0,0
28551,-100,4,2,1,10,0,0
28651,-100,4,2,1,40,0,0
29951,-100,4,2,1,10,0,0
30051,-100,4,2,1,40,0,0
30451,-100,4,2,1,10,0,0
30651,-100,4,2,1,40,0,0
31051,-100,4,2,1,10,0,0
31251,-100,4,2,1,40,0,0
32751,-100,4,2,1,10,0,0
32851,-100,4,2,1,40,0,0
33651,-100,4,2,1,10,0,0
33851,-100,4,2,1,40,0,0
34251,-100,4,2,1,10,0,0
34451,-100,4,2,1,40,0,0
34951,-100,4,2,1,10,0,0
35051,-100,4,2,1,40,0,0
36351,-100,4,2,1,10,0,0
36451,-100,4,2,1,40,0,0
36851,-100,4,2,1,10,0,0
37051,-100,4,2,1,40,0,0
38151,-100,4,2,1,10,0,0
38251,-100,4,2,1,40,0,0
38351,-100,4,2,1,10,0,0
38451,-100,4,2,1,40,0,0
51251,-100,4,2,1,50,0,0
52351,-100,4,2,1,10,0,0
52451,-100,4,2,1,50,0,0
54851,-100,4,2,1,50,0,0
55551,-100,4,2,1,10,0,0
55651,-100,4,2,1,50,0,0
57151,-100,4,2,1,10,0,0
57251,-100,4,2,1,50,0,0
58751,-100,4,2,1,10,0,0
58851,-100,4,2,1,50,0,0
60351,-100,4,2,1,10,0,0
60451,-100,4,2,1,50,0,0
61151,-100,4,2,1,10,0,0
61251,-100,4,2,1,50,0,0
61951,-100,4,2,1,10,0,0
62051,-100,4,2,1,50,0,0
63951,-100,4,2,1,10,0,0
64051,-100,4,2,1,35,0,0
76851,-83.3333333333333,4,2,1,70,0,0
77151,-83.3333333333333,4,2,1,10,0,0
77251,-83.3333333333333,4,2,1,70,0,0
77951,-83.3333333333333,4,2,1,10,0,0
78051,-83.3333333333333,4,2,1,70,0,0
79151,-83.3333333333333,4,2,1,10,0,0
79251,-83.3333333333333,4,2,1,70,0,0
79551,-83.3333333333333,4,2,1,10,0,0
79651,-83.3333333333333,4,2,1,70,0,0
80351,-83.3333333333333,4,2,1,10,0,0
80451,-83.3333333333333,4,2,1,70,0,0
81151,-83.3333333333333,4,2,1,10,0,0
81251,-83.3333333333333,4,2,1,70,0,0
81551,-83.3333333333333,4,2,1,10,0,0
81651,-83.3333333333333,4,2,1,70,0,0
82751,-83.3333333333333,4,2,1,10,0,0
82851,-83.3333333333333,4,2,1,70,0,0
83551,-83.3333333333333,4,2,1,10,0,0
83651,-83.3333333333333,4,2,1,70,0,0
84351,-83.3333333333333,4,2,1,10,0,0
84451,-83.3333333333333,4,2,1,70,0,0
85551,-83.3333333333333,4,2,1,10,0,0
85651,-83.3333333333333,4,2,1,70,0,0
85951,-83.3333333333333,4,2,1,10,0,0
86051,-83.3333333333333,4,2,1,70,0,0
86751,-83.3333333333333,4,2,1,10,0,0
86851,-83.3333333333333,4,2,1,70,0,0
87551,-83.3333333333333,4,2,1,10,0,0
87651,-83.3333333333333,4,2,1,70,0,0
89951,-83.3333333333333,4,2,1,10,0,0
90051,-83.3333333333333,4,2,1,70,0,0
90751,-83.3333333333333,4,2,1,10,0,0
90851,-83.3333333333333,4,2,1,70,0,0
92351,-83.3333333333333,4,2,1,10,0,0
92451,-83.3333333333333,4,2,1,70,0,0
93151,-83.3333333333333,4,2,1,10,0,0
93251,-83.3333333333333,4,2,1,70,0,0
93951,-83.3333333333333,4,2,1,10,0,0
94051,-83.3333333333333,4,2,1,70,0,0
94351,-83.3333333333333,4,2,1,10,0,0
94451,-83.3333333333333,4,2,1,70,0,0
95551,-83.3333333333333,4,2,1,10,0,0
95651,-83.3333333333333,4,2,1,70,0,0
96351,-83.3333333333333,4,2,1,10,0,0
96451,-83.3333333333333,4,2,1,70,0,0
97151,-83.3333333333333,4,2,1,10,0,0
97251,-83.3333333333333,4,2,1,70,0,0
98751,-83.3333333333333,4,2,1,10,0,0
98851,-83.3333333333333,4,2,1,70,0,0
99551,-83.3333333333333,4,2,1,10,0,0
99651,-83.3333333333333,4,2,1,70,0,0
100351,-83.3333333333333,4,2,1,10,0,0
100451,-83.3333333333333,4,2,1,70,0,0
101151,-83.3333333333333,4,2,1,10,0,0
101251,-83.3333333333333,4,2,1,70,0,0
101851,-133.333333333333,4,2,1,70,0,0

[Colours]
Combo1 : 255,117,51
Combo2 : 150,45,255
Combo3 : 255,51,255

[HitObjects]
51,69,51,6,0,B|88:73|112:104|102:108|122:147|179:151,1,140
237,207,651,2,0,B|283:202|301:167|293:169|307:128|367:125,1,140
426,65,1251,2,0,L|452:142,1,70
512,201,1651,6,0,P|493:248|385:263,1,140
340,340,2251,2,0,P|309:271|243:247,1,140
167,199,2851,2,0,P|126:226|82:229,1,70
20,182,3251,6,0,L|54:18,1,140
142,71,3851,2,0,L|297:38,1,140
343,115,4451,2,0,P|322:143|317:177,1,70
408,212,4851,6,0,P|442:268|405:324,1,140
309,304,5451,2,0,B|268:312|252:349|262:345|239:381|197:381,1,140
138,306,6051,2,0,P|89:293|46:279,1,70
37,194,6451,6,0,P|107:183|174:163,1,140
272,167,7051,2,0,P|251:233|241:303,1,140
329,348,7651,2,0,P|376:322|406:315,1,70
464,251,8051,6,0,B|446:192|446:192|421:173|421:173|396:101,1,140
392,31,8651,2,0,B|338:46|338:46|317:72|317:72|242:99,1,140
200,20,9251,2,0,P|155:29|104:23,1,70
44,75,9651,1,0,0:0:0:0:
256,192,9751,12,0,12451,0:0:0:0:
138,252,12851,6,0,B|124:209|146:180|146:192|176:163|157:95,2,140,0|0|8,1:2|0:0|0:0,0:0:0:0:
303,357,14051,5,0,1:2:0:0:
368,283,14251,2,0,P|423:273|447:260,1,70,0|0,3:2|1:0,0:0:0:0:
489,184,14651,1,0,1:2:0:0:
489,184,14851,1,0,1:2:0:0:
324,77,15251,6,0,P|256:94|187:105,1,140,8|0,0:0|0:0,0:0:0:0:
104,52,15851,1,0,3:2:0:0:
29,115,16051,1,0,1:2:0:0:
173,247,16451,6,0,P|148:296|143:342,1,70
210,383,16851,1,8,0:0:0:0:
356,252,17251,5,0,1:2:0:0:
316,162,17451,2,0,L|237:144,1,70,0|0,3:2|1:0,0:0:0:0:
184,70,17851,1,8,1:1:0:0:
184,70,18051,1,0,1:2:0:0:
373,19,18451,6,0,P|428:42|436:133,1,140,10|0,0:0|0:0,0:0:0:0:
507,190,19051,1,0,3:2:0:0:
430,251,19251,6,0,B|387:254|369:288|376:289|357:325|313:325,2,140,0|0|8,1:2|0:0|0:0,0:0:0:0:
299,104,20451,5,0,1:2:0:0:
222,165,20651,2,0,P|215:222|208:250,1,70,0|0,3:2|1:0,0:0:0:0:
139,299,21051,1,0,1:2:0:0:
139,299,21251,1,0,1:2:0:0:
20,143,21651,6,0,P|56:103|148:51,1,140,8|0,2:0|0:0,0:0:0:0:
218,102,22251,1,0,3:2:0:0:
278,25,22451,1,0,1:2:0:0:
461,93,22851,6,0,P|435:138|428:173,1,70
467,246,23251,1,8,0:0:0:0:
303,353,23651,5,0,1:2:0:0:
245,273,23851,2,0,P|204:270|154:256,1,70,0|0,3:2|1:0,0:0:0:0:
90,311,24251,1,0,1:2:0:0:
90,311,24451,1,0,1:2:0:0:
30,233,24651,1,0,3:2:0:0:
104,166,24851,2,0,P|92:113|91:69,1,70,8|0,0:0|3:2,0:0:0:0:
103,50,25151,1,0,3:2:0:0:
103,50,25251,2,0,P|160:29|191:28,1,70,0|0,3:2|3:2,0:0:0:0:
263,52,25651,6,0,B|268:91|238:121|237:112|207:138|209:181,2,140,0|0|8,1:2|0:0|0:0,0:0:0:0:
455,17,26851,5,0,1:2:0:0:
509,98,27051,2,0,P|484:122|451:132,1,70,0|0,3:2|1:0,0:0:0:0:
375,192,27451,1,0,1:2:0:0:
375,192,27651,2,0,L|361:280,1,70,0|0,1:2|1:0,0:0:0:0:
442,320,28051,6,0,P|389:375|327:369,1,140,8|0,0:0|0:0,0:0:0:0:
265,299,28651,1,0,3:2:0:0:
167,299,28851,2,0,B|181:248|181:248|203:228|203:228|221:165,2,140,0|0|8,1:2|0:0|0:0,0:0:0:0:
0,384,30051,5,0,1:2:0:0:
48,298,30251,2,0,P|36:264|23:232,1,70,0|0,3:2|1:0,0:0:0:0:
10,131,30651,1,8,1:1:0:0:
10,131,30851,1,0,1:2:0:0:
160,5,31251,6,0,P|142:92|132:168,1,140,8|0,0:0|0:0,0:0:0:0:
199,216,31851,1,0,3:2:0:0:
255,134,32051,6,0,B|300:124|326:142|317:147|351:169|404:150,2,140,0|0|8,1:2|0:0|0:0,0:0:0:0:
412,17,33251,1,0,1:2:0:0:
493,70,33451,2,0,P|484:105|481:139,1,70,0|0,3:2|1:0,0:0:0:0:
497,236,33851,1,8,1:1:0:0:
497,236,34051,2,0,P|450:251|425:271,1,70,0|0,1:2|1:0,0:0:0:0:
389,349,34451,2,0,P|324:330|298:267,1,140,8|0,0:0|0:0,0:0:0:0:
337,177,35051,1,0,3:2:0:0:
434,173,35251,6,0,P|437:109|469:9,2,140,0|0|8,1:2|0:0|0:0,0:0:0:0:
298,315,36451,1,0,1:2:0:0:
232,240,36651,2,0,B|225:206|225:206|246:177,1,70,0|0,3:2|1:0,0:0:0:0:
337,142,37051,1,0,1:2:0:0:
337,142,37251,1,0,1:2:0:0:
274,66,37451,1,0,3:2:0:0:
180,95,37651,2,0,P|145:91|111:82,1,70,8|0,0:0|3:2,0:0:0:0:
65,101,37951,1,0,3:2:0:0:
65,101,38051,2,0,P|61:135|52:169,1,70,0|0,3:2|3:2,0:0:0:0:
109,249,38451,5,0,1:2:0:0:
375,324,51251,6,0,P|354:252|350:204,1,105,2|0,1:2|0:0,0:0:0:0:
368,176,51651,2,0,P|418:161|457:141,1,70,2|0,0:0|0:0,0:0:0:0:
422,55,52051,2,0,P|314:37|281:29,1,140,10|2,0:0|1:2,0:0:0:0:
188,53,52651,6,0,P|192:108|209:145,1,70,0|2,3:2|0:0,0:0:0:0:
275,181,53051,1,0,1:2:0:0:
245,274,53251,2,0,P|282:280|323:289,2,70,2|0|10,1:2|0:0|2:2,0:0:0:0:
77,373,54051,5,2,0:0:0:0:
77,373,54251,1,0,3:2:0:0:
131,291,54451,6,0,B|133:260|117:238|116:245|91:225|97:187,1,105,2|0,1:2|0:0,0:0:0:0:
112,146,54851,2,0,P|171:136|200:122,1,70,2|0,0:0|0:0,0:0:0:0:
237,52,55251,2,0,P|305:41|371:103,1,140,10|2,0:0|1:2,0:0:0:0:
453,49,55851,6,0,P|465:113|482:136,1,70,0|2,3:2|0:0,0:0:0:0:
416,200,56251,1,0,1:2:0:0:
471,280,56451,2,0,B|432:284|406:317|416:316|391:347|347:344,1,140,2|10,1:2|0:0,0:0:0:0:
267,288,57051,2,0,P|248:340|247:378,2,70,0|2|2,0:0|0:0|3:2,0:0:0:0:
236,194,57651,5,2,1:2:0:0:
166,125,57851,2,0,P|68:142|43:260,1,210,0|10,0:0|0:0,0:0:0:0:
189,358,58851,5,2,1:2:0:0:
255,285,59051,2,0,P|311:273|405:236,1,140,0|0,3:2|1:2,0:0:0:0:
483,267,59651,2,0,P|476:232|471:197,1,70,2|0,1:2|0:0,0:0:0:0:
489,101,60051,2,0,P|454:94|423:79,1,70,10|0,0:0|0:0,0:0:0:0:
349,15,60451,2,0,P|314:21|283:36,1,70,2|0,0:0|3:2,0:0:0:0:
185,15,60851,6,0,B|137:98|205:163|213:152|247:208|207:277,1,280,2|10,1:2|0:0,0:0:0:0:
377,375,62051,2,0,P|424:352|456:345,1,70,2|0,1:2|3:2,0:0:0:0:
467,253,62451,5,2,0:0:0:0:
371,230,62651,1,0,1:2:0:0:
304,301,62851,1,2,1:2:0:0:
230,236,63051,5,0,3:2:0:0:
134,259,63251,1,10,0:0:0:0:
67,188,63451,1,0,0:0:0:0:
161,162,63651,5,2,0:0:0:0:
161,162,64051,5,2,2:3:0:0:
121,35,70451,6,0,L|93:148,1,105,6|0,2:3|0:0,0:0:0:0:
93,186,70851,2,0,L|15:220,2,70,2|2|6,2:3|2:3|2:3,0:0:0:0:
269,101,71651,2,0,P|353:122|394:182,1,140,2|6,2:3|2:3,0:0:0:0:
438,251,72251,1,2,2:3:0:0:
438,251,72451,2,0,L|354:275,1,70,2|0,2:3|2:3,0:0:0:0:
334,361,72851,2,0,L|250:337,1,70,6|0,2:3|2:3,0:0:0:0:
174,376,73251,2,0,L|130:310,1,70,2|0,2:3|2:3,0:0:0:0:
155,221,73651,6,0,B|171:193|163:169|161:173|155:138|169:116,1,105,6|0,2:3|0:0,0:0:0:0:
190,74,74051,2,0,P|235:62|263:45,2,70,2|2|6,2:3|2:3|2:3,0:0:0:0:
4,0,74851,2,0,L|20:89,1,70,2|0,2:3|2:3,0:0:0:0:
33,165,75251,5,0,2:3:0:0:
225,201,75651,1,0,2:3:0:0:
225,201,75851,1,0,2:3:0:0:
225,201,76051,1,0,2:3:0:0:
453,346,76851,6,0,B|451:363|451:363|431:296|371:285,1,125.999996154785,6|0,1:3|1:0,0:0:0:0:
369,237,77251,1,0,0:0:0:0:
278,281,77451,1,2,1:3:0:0:
209,206,77651,2,0,P|164:197|115:168,1,83.9999974365235,8|0,0:0|0:0,0:0:0:0:
0,243,78051,2,0,P|62:248|102:338,1,167.999994873047,2|0,1:3|0:0,0:0:0:0:
203,381,78651,5,2,3:3:0:0:
203,381,78751,1,0,0:0:0:0:
203,381,78851,2,0,P|212:304|226:261,1,83.9999974365235,2|0,1:3|0:0,0:0:0:0:
300,245,79251,2,0,P|291:203|289:161,1,83.9999974365235,8|0,0:0|0:0,0:0:0:0:
202,109,79651,1,2,1:3:0:0:
202,109,79851,1,2,3:3:0:0:
285,8,80051,6,0,B|340:26|340:26|358:45|358:45|397:58,1,125.999996154785,2|0,1:3|1:0,0:0:0:0:
445,40,80451,1,0,0:0:0:0:
490,129,80651,1,2,1:3:0:0:
424,205,80851,2,0,L|407:309,1,83.9999974365235,8|0,0:0|0:0,0:0:0:0:
348,367,81251,2,0,B|306:341|306:341|279:239,1,125.999996154785,2|0,1:3|0:0,0:0:0:0:
244,237,81651,2,0,B|259:180|259:180|253:147,1,83.9999974365235,0|2,0:0|3:3,0:0:0:0:
199,70,82051,5,2,1:3:0:0:
111,19,82251,1,0,0:0:0:0:
22,67,82451,2,0,P|30:123|71:157,1,83.9999974365235,8|0,0:0|0:0,0:0:0:0:
61,242,82851,2,0,P|117:234|151:193,1,83.9999974365235,0|2,0:0|3:3,0:0:0:0:
254,155,83251,6,0,B|292:157|316:184|304:183|330:214|376:209,1,125.999996154785,2|0,1:3|1:0,0:0:0:0:
398,173,83651,1,0,0:0:0:0:
478,233,83851,1,2,1:3:0:0:
442,327,84051,2,0,B|398:335|398:335|366:376,1,83.9999974365235,8|0,0:0|0:0,0:0:0:0:
269,379,84451,2,0,B|251:357|221:353|221:353|168:314|195:252,1,167.999994873047,2|0,1:3|0:0,0:0:0:0:
143,167,85051,5,2,3:3:0:0:
143,167,85151,1,0,0:0:0:0:
143,167,85251,2,0,P|176:132|225:133,1,83.9999974365235,2|0,1:3|0:0,0:0:0:0:
250,35,85651,2,0,P|290:42|316:73,1,83.9999974365235,8|0,0:0|0:0,0:0:0:0:
417,73,86051,1,2,1:3:0:0:
417,73,86251,1,2,3:3:0:0:
503,188,86451,6,0,P|452:199|362:245,1,125.999996154785,2|0,1:3|1:0,0:0:0:0:
341,202,86851,1,0,0:0:0:0:
254,253,87051,1,2,1:3:0:0:
169,197,87251,2,0,P|96:180|75:172,1,83.9999974365235,8|0,0:0|0:0,0:0:0:0:
30,93,87651,2,0,P|70:80|111:72,1,83.9999974365235,2|2,1:3|3:3,0:0:0:0:
223,40,88051,6,0,L|213:5,4,20.9999993591309,2|0|0|0|2,3:3|3:3|3:3|0:0|3:3,0:0:0:0:
303,100,88451,2,0,L|313:65,4,20.9999993591309,8|0|0|0|0,1:1|3:3|3:3|3:3|0:0,0:0:0:0:
390,187,88851,6,0,L|400:152,4,20.9999993591309,8|0|0|0|0,0:0|3:3|3:3|3:3|0:0,0:0:0:0:
310,247,89251,2,0,L|300:212,4,20.9999993591309,2|0|0|0|2,3:3|3:3|3:3|0:0|3:3,0:0:0:0:
457,384,89651,6,0,P|385:342|324:355,1,125.999996154785,6|0,1:3|1:0,0:0:0:0:
303,374,90051,1,0,0:0:0:0:
233,300,90251,1,2,1:3:0:0:
134,278,90451,2,0,P|108:335|106:376,1,83.9999974365235,12|0,0:0|0:0,0:0:0:0:
25,293,90851,2,0,P|4:195|32:107,1,167.999994873047,2|4,1:3|0:3,0:0:0:0:
99,67,91451,5,2,3:3:0:0:
99,67,91551,1,0,0:0:0:0:
99,67,91651,1,2,1:3:0:0:
181,125,91851,1,0,0:0:0:0:
256,58,92051,2,0,P|313:45|345:36,1,83.9999974365235,12|0,0:0|0:0,0:0:0:0:
411,107,92451,2,0,P|388:143|379:195,1,83.9999974365235,2|2,1:3|3:3,0:0:0:0:
358,324,92851,6,0,B|354:284|325:267|322:276|291:253|289:217,1,125.999996154785,6|0,1:3|1:0,0:0:0:0:
292,170,93251,1,0,0:0:0:0:
211,108,93451,1,2,1:3:0:0:
134,173,93651,2,0,P|84:206|49:209,1,83.9999974365235,12|0,0:0|0:0,0:0:0:0:
85,306,94051,2,0,P|167:318|219:363,1,125.999996154785,2|0,1:3|0:0,0:0:0:0:
238,376,94451,5,4,0:3:0:0:
323,322,94651,1,2,3:3:0:0:
323,322,94751,1,0,0:0:0:0:
323,322,94851,1,2,1:3:0:0:
280,230,95051,1,0,0:0:0:0:
378,251,95251,2,0,P|456:229|482:226,1,83.9999974365235,12|0,0:0|0:0,0:0:0:0:
497,135,95651,2,0,P|455:126|416:112,1,83.9999974365235
291,24,96051,6,0,P|244:42|220:128,1,125.999996154785,6|0,1:3|1:0,0:0:0:0:
236,154,96451,1,0,0:0:0:0:
294,236,96651,1,2,1:3:0:0:
223,307,96851,2,0,L|134:293,1,83.9999974365235,8|0,0:0|0:0,0:0:0:0:
39,302,97251,2,0,L|74:126,1,167.999994873047,2|4,1:3|0:3,0:0:0:0:
31,44,97851,5,2,3:3:0:0:
31,44,97951,1,0,0:0:0:0:
31,44,98051,1,2,1:3:0:0:
128,16,98251,1,0,0:0:0:0:
199,86,98451,2,0,B|209:125|209:125|167:164,1,83.9999974365235,12|0,0:0|0:0,0:0:0:0:
152,252,98851,2,0,B|141:291|141:291|184:330,1,83.9999974365235,2|2,1:3|3:3,0:0:0:0:
321,370,99251,6,0,P|359:323|332:270,1,125.999996154785,6|0,1:3|1:0,0:0:0:0:
289,243,99651,1,0,0:0:0:0:
235,157,99851,1,2,1:3:0:0:
299,79,100051,2,0,P|363:96|404:101,1,83.9999974365235,12|0,0:0|0:0,0:0:0:0:
467,47,100451,2,0,P|474:88|486:128,1,83.9999974365235,2|2,1:3|3:3,0:0:0:0:
474,270,100851,6,0,B|436:278|423:313|430:308|409:343|373:343,1,125.999996154785,4|0,0:3|0:0,0:0:0:0:
323,331,101251,1,2,1:3:0:0:
236,279,101451,1,0,0:0:0:0:
145,323,101651,1,12,0:0:0:0:
79,265,101851,6,0,L|87:209,2,52.5000020027161
145,323,102451,5,2,1:3:0:0:
