osu file format v14

[General]
AudioFilename: audio.mp3
AudioLeadIn: 0
PreviewTime: -1
Countdown: 1
SampleSet: None
StackLeniency: 0.7
Mode: 3
LetterboxInBreaks: 0
SpecialStyle: 0
WidescreenStoryboard: 0

[Editor]
DistanceSpacing: 0.9
BeatDivisor: 4
GridSize: 4
TimelineZoom: 1

[Metadata]
Title:Asal Kau Bahagia
TitleUnicode:Asal Kau Bahagia
Artist:Armada
ArtistUnicode:Armada
Creator:Fadly R
Version:Normal
Source:
Tags:
BeatmapID:1293803
BeatmapSetID:613177

[Difficulty]
HPDrainRate:5
CircleSize:4
OverallDifficulty:6
ApproachRate:6
SliderMultiplier:1.4
SliderTickRate:1

[Events]
//Background and Video events
0,0,"Cover-Armada.jpg",0,0
//Break Periods
//Storyboard Layer 0 (Background)
//Storyboard Layer 1 (Fail)
//Storyboard Layer 2 (Pass)
//Storyboard Layer 3 (Foreground)
//Storyboard Sound Samples

[TimingPoints]
1908.71856287425,359.281437125748,4,1,0,100,1,0

[HitObjects]
64,192,1010,5,0,0:0:0:0:
448,192,1010,1,0,0:0:0:0:
192,192,1459,1,0,0:0:0:0:
320,192,1639,1,0,0:0:0:0:
448,192,1729,1,0,0:0:0:0:
192,192,1908,1,0,0:0:0:0:
64,192,2806,1,0,0:0:0:0:
320,192,3615,1,0,0:0:0:0:
64,192,5052,1,0,0:0:0:0:
192,192,5411,1,0,0:0:0:0:
192,192,5860,1,0,0:0:0:0:
320,192,6309,1,0,0:0:0:0:
192,192,6489,1,0,0:0:0:0:
320,192,7028,1,0,0:0:0:0:
64,192,7208,1,0,0:0:0:0:
192,192,7297,1,0,0:0:0:0:
320,192,8106,1,0,0:0:0:0:
448,192,8555,1,0,0:0:0:0:
320,192,8735,1,0,0:0:0:0:
192,192,8824,1,0,0:0:0:0:
64,192,9094,1,0,0:0:0:0:
320,192,9094,1,0,0:0:0:0:
448,192,9812,1,0,0:0:0:0:
192,192,10800,1,0,0:0:0:0:
320,192,11699,1,0,0:0:0:0:
64,192,12507,1,0,0:0:0:0:
192,192,12507,1,0,0:0:0:0:
320,192,13405,1,0,0:0:0:0:
320,192,14303,1,0,0:0:0:0:
64,192,16190,1,0,0:0:0:0:
448,192,16190,1,0,0:0:0:0:
320,192,16190,1,0,0:0:0:0:
320,192,16908,1,0,0:0:0:0:
64,192,16908,1,0,0:0:0:0:
64,192,17717,1,0,0:0:0:0:
192,192,17717,1,0,0:0:0:0:
64,192,17896,1,0,0:0:0:0:
192,192,18076,1,0,0:0:0:0:
320,192,18256,1,0,0:0:0:0:
448,192,18525,1,0,0:0:0:0:
320,192,18974,1,0,0:0:0:0:
64,192,19513,1,0,0:0:0:0:
192,192,20321,1,0,0:0:0:0:
448,192,20321,1,0,0:0:0:0:
64,192,21040,1,0,0:0:0:0:
192,192,21040,1,0,0:0:0:0:
320,192,21040,1,0,0:0:0:0:
64,192,22208,1,0,0:0:0:0:
192,192,22567,1,0,0:0:0:0:
320,192,23106,1,0,0:0:0:0:
64,192,24094,1,0,0:0:0:0:
192,192,24453,1,0,0:0:0:0:
320,192,25800,1,0,0:0:0:0:
448,192,25890,1,0,0:0:0:0:
64,192,26250,128,0,27687:0:0:0:0:
320,192,26250,1,0,0:0:0:0:
448,192,26788,1,0,0:0:0:0:
192,192,27687,1,0,0:0:0:0:
448,192,27687,1,0,0:0:0:0:
320,192,28405,1,0,0:0:0:0:
192,192,28405,1,0,0:0:0:0:
320,192,29303,1,0,0:0:0:0:
448,192,29303,1,0,0:0:0:0:
192,192,30291,1,0,0:0:0:0:
64,192,30291,1,0,0:0:0:0:
64,192,31100,1,0,0:0:0:0:
448,192,31100,1,0,0:0:0:0:
320,192,31908,1,0,0:0:0:0:
192,192,31998,1,0,0:0:0:0:
64,192,32088,1,0,0:0:0:0:
320,192,32627,1,0,0:0:0:0:
448,192,32806,1,0,0:0:0:0:
320,192,33435,1,0,0:0:0:0:
192,192,33705,1,0,0:0:0:0:
320,192,34603,1,0,0:0:0:0:
64,192,35052,1,0,0:0:0:0:
192,192,35501,1,0,0:0:0:0:
64,192,35501,1,0,0:0:0:0:
448,192,35501,1,0,0:0:0:0:
320,192,36399,1,0,0:0:0:0:
192,192,36848,1,0,0:0:0:0:
64,192,37208,1,0,0:0:0:0:
64,192,38106,1,0,0:0:0:0:
192,192,38555,1,0,0:0:0:0:
320,192,39094,1,0,0:0:0:0:
448,192,39902,1,0,0:0:0:0:
320,192,40262,1,0,0:0:0:0:
64,192,40621,1,0,0:0:0:0:
192,192,40711,1,0,0:0:0:0:
320,192,40980,1,0,0:0:0:0:
448,192,40980,1,0,0:0:0:0:
320,192,41788,1,0,0:0:0:0:
448,192,41788,1,0,0:0:0:0:
320,192,42776,1,0,0:0:0:0:
448,192,42776,1,0,0:0:0:0:
320,192,43046,1,0,0:0:0:0:
192,192,43136,1,0,0:0:0:0:
64,192,43315,1,0,0:0:0:0:
64,192,43585,1,0,0:0:0:0:
448,192,43765,1,0,0:0:0:0:
192,192,44034,1,0,0:0:0:0:
320,192,44124,1,0,0:0:0:0:
448,192,44214,1,0,0:0:0:0:
64,192,44483,1,0,0:0:0:0:
64,192,44842,1,0,0:0:0:0:
192,192,45291,1,0,0:0:0:0:
320,192,45741,1,0,0:0:0:0:
448,192,46190,1,0,0:0:0:0:
320,192,46639,1,0,0:0:0:0:
192,192,46998,1,0,0:0:0:0:
64,192,47178,1,0,0:0:0:0:
192,192,47537,1,0,0:0:0:0:
192,192,47896,1,0,0:0:0:0:
320,192,47986,1,0,0:0:0:0:
448,192,48435,1,0,0:0:0:0:
320,192,48525,1,0,0:0:0:0:
64,192,48794,1,0,0:0:0:0:
64,192,49423,1,0,0:0:0:0:
192,192,49513,1,0,0:0:0:0:
320,192,49603,1,0,0:0:0:0:
320,192,49872,1,0,0:0:0:0:
448,192,50232,1,0,0:0:0:0:
320,192,50681,1,0,0:0:0:0:
192,192,50860,1,0,0:0:0:0:
320,192,51040,1,0,0:0:0:0:
448,192,51220,1,0,0:0:0:0:
64,192,51579,1,0,0:0:0:0:
64,192,51938,1,0,0:0:0:0:
192,192,52387,1,0,0:0:0:0:
192,192,52836,1,0,0:0:0:0:
192,192,53285,1,0,0:0:0:0:
192,192,53645,1,0,0:0:0:0:
320,192,54184,1,0,0:0:0:0:
320,192,54633,1,0,0:0:0:0:
320,192,55082,1,0,0:0:0:0:
64,192,55082,1,0,0:0:0:0:
320,192,55441,1,0,0:0:0:0:
448,192,55441,1,0,0:0:0:0:
320,192,55621,1,0,0:0:0:0:
448,192,55621,1,0,0:0:0:0:
64,192,55890,1,0,0:0:0:0:
192,192,55890,1,0,0:0:0:0:
64,192,56070,1,0,0:0:0:0:
192,192,56070,1,0,0:0:0:0:
192,192,56429,1,0,0:0:0:0:
448,192,56429,1,0,0:0:0:0:
320,192,56609,1,0,0:0:0:0:
64,192,57058,1,0,0:0:0:0:
192,192,57058,1,0,0:0:0:0:
192,192,57238,1,0,0:0:0:0:
320,192,57507,1,0,0:0:0:0:
448,192,57507,1,0,0:0:0:0:
64,192,57507,1,0,0:0:0:0:
320,192,57866,1,0,0:0:0:0:
448,192,57866,1,0,0:0:0:0:
192,192,58046,1,0,0:0:0:0:
64,192,58226,1,0,0:0:0:0:
320,192,58226,1,0,0:0:0:0:
448,192,58495,1,0,0:0:0:0:
320,192,58585,1,0,0:0:0:0:
192,192,58765,1,0,0:0:0:0:
64,192,59214,1,0,0:0:0:0:
192,192,59393,1,0,0:0:0:0:
448,192,60112,1,0,0:0:0:0:
192,192,60471,1,0,0:0:0:0:
64,192,60920,1,0,0:0:0:0:
192,192,61100,1,0,0:0:0:0:
320,192,61369,1,0,0:0:0:0:
448,192,61369,1,0,0:0:0:0:
64,192,61369,1,0,0:0:0:0:
64,192,61908,1,0,0:0:0:0:
192,192,62088,1,0,0:0:0:0:
320,192,62717,1,0,0:0:0:0:
448,192,62896,1,0,0:0:0:0:
192,192,63435,1,0,0:0:0:0:
64,192,63615,1,0,0:0:0:0:
192,192,63974,1,0,0:0:0:0:
64,192,64154,1,0,0:0:0:0:
64,192,64423,1,0,0:0:0:0:
192,192,64513,1,0,0:0:0:0:
320,192,64603,1,0,0:0:0:0:
448,192,64782,1,0,0:0:0:0:
64,192,65770,1,0,0:0:0:0:
448,192,65770,1,0,0:0:0:0:
192,192,66130,1,0,0:0:0:0:
320,192,66489,1,0,0:0:0:0:
448,192,66669,1,0,0:0:0:0:
64,192,67028,1,0,0:0:0:0:
192,192,67477,1,0,0:0:0:0:
320,192,67926,1,0,0:0:0:0:
448,192,68285,1,0,0:0:0:0:
320,192,68375,1,0,0:0:0:0:
64,192,68914,1,0,0:0:0:0:
192,192,69363,1,0,0:0:0:0:
320,192,69812,1,0,0:0:0:0:
448,192,70172,1,0,0:0:0:0:
320,192,70711,1,0,0:0:0:0:
448,192,70711,1,0,0:0:0:0:
320,192,71160,1,0,0:0:0:0:
64,192,71160,1,0,0:0:0:0:
192,192,71878,1,0,0:0:0:0:
320,192,72058,1,0,0:0:0:0:
448,192,72058,1,0,0:0:0:0:
192,192,72866,1,0,0:0:0:0:
320,192,72866,1,0,0:0:0:0:
64,192,73405,1,0,0:0:0:0:
448,192,73405,1,0,0:0:0:0:
192,192,73765,1,0,0:0:0:0:
192,192,74214,1,0,0:0:0:0:
64,192,74303,1,0,0:0:0:0:
320,192,74753,1,0,0:0:0:0:
448,192,74753,1,0,0:0:0:0:
64,192,74753,1,0,0:0:0:0:
320,192,75202,1,0,0:0:0:0:
192,192,75471,1,0,0:0:0:0:
64,192,76100,1,0,0:0:0:0:
192,192,76100,1,0,0:0:0:0:
448,192,76100,1,0,0:0:0:0:
320,192,76279,1,0,0:0:0:0:
64,192,76908,1,0,0:0:0:0:
320,192,76998,1,0,0:0:0:0:
448,192,77267,1,0,0:0:0:0:
448,192,77627,1,0,0:0:0:0:
448,192,78345,1,0,0:0:0:0:
320,192,78345,1,0,0:0:0:0:
64,192,78794,1,0,0:0:0:0:
192,192,78884,1,0,0:0:0:0:
320,192,79064,1,0,0:0:0:0:
448,192,79064,1,0,0:0:0:0:
64,192,80142,1,0,0:0:0:0:
320,192,80142,1,0,0:0:0:0:
320,192,80591,1,0,0:0:0:0:
448,192,80591,1,0,0:0:0:0:
192,192,80770,1,0,0:0:0:0:
64,192,80860,1,0,0:0:0:0:
192,192,81399,1,0,0:0:0:0:
448,192,81399,1,0,0:0:0:0:
192,192,81848,1,0,0:0:0:0:
64,192,81848,1,0,0:0:0:0:
192,192,82297,1,0,0:0:0:0:
448,192,82387,1,0,0:0:0:0:
320,192,82567,1,0,0:0:0:0:
448,192,82657,1,0,0:0:0:0:
64,192,83196,1,0,0:0:0:0:
320,192,83196,1,0,0:0:0:0:
320,192,83555,1,0,0:0:0:0:
448,192,83555,1,0,0:0:0:0:
320,192,84004,1,0,0:0:0:0:
192,192,84453,1,0,0:0:0:0:
320,192,84543,1,0,0:0:0:0:
64,192,84992,1,0,0:0:0:0:
320,192,85351,1,0,0:0:0:0:
448,192,85351,1,0,0:0:0:0:
64,192,85351,1,0,0:0:0:0:
64,192,85890,1,0,0:0:0:0:
192,192,85890,1,0,0:0:0:0:
320,192,86070,1,0,0:0:0:0:
448,192,86070,1,0,0:0:0:0:
448,192,86250,1,0,0:0:0:0:
192,192,86429,1,0,0:0:0:0:
64,192,86519,1,0,0:0:0:0:
64,192,86788,1,0,0:0:0:0:
192,192,86788,1,0,0:0:0:0:
320,192,86968,1,0,0:0:0:0:
448,192,87238,1,0,0:0:0:0:
64,192,87238,1,0,0:0:0:0:
192,192,88136,1,0,0:0:0:0:
320,192,88136,1,0,0:0:0:0:
64,192,88585,1,0,0:0:0:0:
320,192,88944,1,0,0:0:0:0:
192,192,89124,1,0,0:0:0:0:
64,192,89303,1,0,0:0:0:0:
320,192,89842,1,0,0:0:0:0:
448,192,89842,1,0,0:0:0:0:
64,192,90022,1,0,0:0:0:0:
192,192,90022,1,0,0:0:0:0:
320,192,90291,1,0,0:0:0:0:
64,192,90741,1,0,0:0:0:0:
192,192,90741,1,0,0:0:0:0:
448,192,90741,1,0,0:0:0:0:
448,192,91549,1,0,0:0:0:0:
64,192,91549,1,0,0:0:0:0:
192,192,92267,1,0,0:0:0:0:
448,192,92447,1,0,0:0:0:0:
320,192,92896,1,0,0:0:0:0:
192,192,93076,1,0,0:0:0:0:
64,192,93794,1,0,0:0:0:0:
192,192,93974,1,0,0:0:0:0:
320,192,94154,1,0,0:0:0:0:
448,192,94693,1,0,0:0:0:0:
320,192,94693,1,0,0:0:0:0:
192,192,95232,1,0,0:0:0:0:
64,192,95232,1,0,0:0:0:0:
448,192,95232,1,0,0:0:0:0:
320,192,95591,1,0,0:0:0:0:
192,192,95681,1,0,0:0:0:0:
64,192,96938,1,0,0:0:0:0:
192,192,96938,1,0,0:0:0:0:
320,192,97387,1,0,0:0:0:0:
192,192,97387,1,0,0:0:0:0:
448,192,97836,1,0,0:0:0:0:
448,192,98645,1,0,0:0:0:0:
64,192,98645,1,0,0:0:0:0:
192,192,98645,1,0,0:0:0:0:
320,192,99184,1,0,0:0:0:0:
448,192,99273,1,0,0:0:0:0:
64,192,100441,1,0,0:0:0:0:
192,192,100441,1,0,0:0:0:0:
448,192,100441,1,0,0:0:0:0:
320,192,100890,1,0,0:0:0:0:
448,192,100980,1,0,0:0:0:0:
64,192,101429,1,0,0:0:0:0:
64,192,102238,1,0,0:0:0:0:
192,192,102687,1,0,0:0:0:0:
448,192,103136,1,0,0:0:0:0:
320,192,103136,1,0,0:0:0:0:
64,192,103585,1,0,0:0:0:0:
192,192,103765,1,0,0:0:0:0:
320,192,104124,1,0,0:0:0:0:
448,192,104124,1,0,0:0:0:0:
64,192,104124,1,0,0:0:0:0:
64,192,104932,1,0,0:0:0:0:
192,192,105022,1,0,0:0:0:0:
320,192,105112,1,0,0:0:0:0:
448,192,105291,1,0,0:0:0:0:
64,192,105291,1,0,0:0:0:0:
320,192,105741,1,0,0:0:0:0:
64,192,106190,1,0,0:0:0:0:
192,192,106279,1,0,0:0:0:0:
320,192,106279,1,0,0:0:0:0:
448,192,106639,1,0,0:0:0:0:
320,192,106729,1,0,0:0:0:0:
64,192,107267,1,0,0:0:0:0:
320,192,107447,1,0,0:0:0:0:
64,192,108166,1,0,0:0:0:0:
320,192,108166,1,0,0:0:0:0:
448,192,108345,1,0,0:0:0:0:
192,192,108974,1,0,0:0:0:0:
320,192,108974,1,0,0:0:0:0:
64,192,108974,1,0,0:0:0:0:
448,192,109244,1,0,0:0:0:0:
320,192,109333,1,0,0:0:0:0:
64,192,109872,1,0,0:0:0:0:
192,192,109962,1,0,0:0:0:0:
320,192,110142,1,0,0:0:0:0:
448,192,110142,1,0,0:0:0:0:
64,192,110681,1,0,0:0:0:0:
192,192,111130,1,0,0:0:0:0:
320,192,111309,1,0,0:0:0:0:
448,192,111489,1,0,0:0:0:0:
448,192,112028,1,0,0:0:0:0:
320,192,113016,1,0,0:0:0:0:
320,192,113375,1,0,0:0:0:0:
192,192,113465,1,0,0:0:0:0:
448,192,113824,1,0,0:0:0:0:
192,192,114363,1,0,0:0:0:0:
192,192,114723,1,0,0:0:0:0:
320,192,114902,1,0,0:0:0:0:
448,192,114902,1,0,0:0:0:0:
448,192,115172,1,0,0:0:0:0:
192,192,115172,128,0,119214:0:0:0:0:
64,192,115621,1,0,0:0:0:0:
320,192,116160,1,0,0:0:0:0:
448,192,116339,1,0,0:0:0:0:
320,192,116519,1,0,0:0:0:0:
64,192,116968,1,0,0:0:0:0:
320,192,117238,1,0,0:0:0:0:
448,192,117417,1,0,0:0:0:0:
64,192,117776,1,0,0:0:0:0:
320,192,117956,1,0,0:0:0:0:
448,192,117956,1,0,0:0:0:0:
448,192,118226,1,0,0:0:0:0:
64,192,118405,1,0,0:0:0:0:
320,192,118585,1,0,0:0:0:0:
448,192,118854,1,0,0:0:0:0:
448,192,119214,1,0,0:0:0:0:
64,192,119214,1,0,0:0:0:0:
320,192,119573,1,0,0:0:0:0:
64,192,119932,1,0,0:0:0:0:
192,192,119932,1,0,0:0:0:0:
320,192,120112,1,0,0:0:0:0:
448,192,120561,1,0,0:0:0:0:
320,192,120651,1,0,0:0:0:0:
64,192,120830,1,0,0:0:0:0:
192,192,121369,1,0,0:0:0:0:
320,192,121639,1,0,0:0:0:0:
448,192,122357,1,0,0:0:0:0:
192,192,122357,1,0,0:0:0:0:
320,192,122627,1,0,0:0:0:0:
64,192,123166,1,0,0:0:0:0:
192,192,123435,1,0,0:0:0:0:
320,192,123884,1,0,0:0:0:0:
448,192,123974,1,0,0:0:0:0:
192,192,124423,1,0,0:0:0:0:
64,192,124513,1,0,0:0:0:0:
320,192,124962,1,0,0:0:0:0:
448,192,124962,1,0,0:0:0:0:
192,192,125321,1,0,0:0:0:0:
192,192,126309,1,0,0:0:0:0:
64,192,126309,1,0,0:0:0:0:
448,192,126309,1,0,0:0:0:0:
320,192,126759,1,0,0:0:0:0:
192,192,127028,1,0,0:0:0:0:
320,192,127657,1,0,0:0:0:0:
448,192,127657,1,0,0:0:0:0:
64,192,127657,1,0,0:0:0:0:
192,192,128196,1,0,0:0:0:0:
448,192,128555,1,0,0:0:0:0:
64,192,128824,1,0,0:0:0:0:
192,192,128824,1,0,0:0:0:0:
320,192,129453,1,0,0:0:0:0:
448,192,129812,1,0,0:0:0:0:
64,192,130262,1,0,0:0:0:0:
192,192,130621,1,0,0:0:0:0:
320,192,131250,1,0,0:0:0:0:
448,192,131609,1,0,0:0:0:0:
320,192,131699,1,0,0:0:0:0:
192,192,132148,1,0,0:0:0:0:
64,192,132238,1,0,0:0:0:0:
320,192,132417,1,0,0:0:0:0:
448,192,132597,1,0,0:0:0:0:
320,192,132776,1,0,0:0:0:0:
192,192,132956,1,0,0:0:0:0:
64,192,133136,1,0,0:0:0:0:
192,192,133405,1,0,0:0:0:0:
448,192,133405,1,0,0:0:0:0:
320,192,133854,1,0,0:0:0:0:
64,192,134214,1,0,0:0:0:0:
192,192,134303,1,0,0:0:0:0:
320,192,134842,1,0,0:0:0:0:
448,192,135291,1,0,0:0:0:0:
320,192,135381,1,0,0:0:0:0:
192,192,135651,1,0,0:0:0:0:
64,192,135830,1,0,0:0:0:0:
192,192,135920,1,0,0:0:0:0:
320,192,136549,1,0,0:0:0:0:
448,192,136818,1,0,0:0:0:0:
64,192,137357,1,0,0:0:0:0:
192,192,137447,1,0,0:0:0:0:
448,192,137717,1,0,0:0:0:0:
192,192,138166,1,0,0:0:0:0:
64,192,138166,1,0,0:0:0:0:
320,192,138345,1,0,0:0:0:0:
448,192,138794,1,0,0:0:0:0:
192,192,138794,1,0,0:0:0:0:
64,192,139154,1,0,0:0:0:0:
320,192,139154,1,0,0:0:0:0:
448,192,139154,1,0,0:0:0:0:
192,192,139423,1,0,0:0:0:0:
320,192,139603,1,0,0:0:0:0:
64,192,140501,1,0,0:0:0:0:
320,192,140501,1,0,0:0:0:0:
448,192,140950,1,0,0:0:0:0:
320,192,141130,1,0,0:0:0:0:
192,192,141220,1,0,0:0:0:0:
64,192,141938,1,0,0:0:0:0:
192,192,142297,1,0,0:0:0:0:
192,192,142747,1,0,0:0:0:0:
320,192,142926,1,0,0:0:0:0:
448,192,143016,1,0,0:0:0:0:
64,192,143285,1,0,0:0:0:0:
192,192,143285,1,0,0:0:0:0:
64,192,143645,1,0,0:0:0:0:
192,192,143735,1,0,0:0:0:0:
320,192,143914,1,0,0:0:0:0:
448,192,144004,1,0,0:0:0:0:
64,192,144543,1,0,0:0:0:0:
448,192,144543,1,0,0:0:0:0:
192,192,144992,1,0,0:0:0:0:
320,192,144992,1,0,0:0:0:0:
64,192,145531,1,0,0:0:0:0:
192,192,145711,1,0,0:0:0:0:
192,192,146250,1,0,0:0:0:0:
448,192,146429,1,0,0:0:0:0:
64,192,146788,1,0,0:0:0:0:
64,192,147058,1,0,0:0:0:0:
64,192,147327,1,0,0:0:0:0:
192,192,147417,1,0,0:0:0:0:
320,192,147507,1,0,0:0:0:0:
64,192,147687,1,0,0:0:0:0:
448,192,147687,1,0,0:0:0:0:
320,192,147956,1,0,0:0:0:0:
192,192,148226,1,0,0:0:0:0:
64,192,148495,1,0,0:0:0:0:
192,192,148854,1,0,0:0:0:0:
320,192,149393,1,0,0:0:0:0:
448,192,149483,1,0,0:0:0:0:
64,192,149932,1,0,0:0:0:0:
320,192,150291,1,0,0:0:0:0:
448,192,150291,1,0,0:0:0:0:
192,192,150741,1,0,0:0:0:0:
64,192,151190,1,0,0:0:0:0:
320,192,151190,1,0,0:0:0:0:
448,192,151639,1,0,0:0:0:0:
320,192,152088,1,0,0:0:0:0:
64,192,152447,1,0,0:0:0:0:
448,192,152447,1,0,0:0:0:0:
192,192,152986,1,0,0:0:0:0:
448,192,153435,1,0,0:0:0:0:
64,192,153884,1,0,0:0:0:0:
192,192,154244,1,0,0:0:0:0:
320,192,154782,1,0,0:0:0:0:
448,192,154782,1,0,0:0:0:0:
192,192,155142,1,0,0:0:0:0:
320,192,155321,1,0,0:0:0:0:
64,192,155591,1,0,0:0:0:0:
448,192,156040,1,0,0:0:0:0:
320,192,156040,1,0,0:0:0:0:
192,192,156489,1,0,0:0:0:0:
64,192,156938,1,0,0:0:0:0:
192,192,157028,1,0,0:0:0:0:
320,192,157387,1,0,0:0:0:0:
192,192,157567,1,0,0:0:0:0:
320,192,157836,1,0,0:0:0:0:
64,192,158285,1,0,0:0:0:0:
448,192,158285,1,0,0:0:0:0:
192,192,158735,1,0,0:0:0:0:
320,192,158824,1,0,0:0:0:0:
448,192,159184,1,0,0:0:0:0:
64,192,159633,1,0,0:0:0:0:
192,192,159723,1,0,0:0:0:0:
320,192,159992,1,0,0:0:0:0:
448,192,159992,1,0,0:0:0:0:
64,192,160531,1,0,0:0:0:0:
192,192,160621,1,0,0:0:0:0:
320,192,160711,1,0,0:0:0:0:
448,192,160890,1,0,0:0:0:0:
320,192,160980,1,0,0:0:0:0:
192,192,161070,1,0,0:0:0:0:
64,192,161250,1,0,0:0:0:0:
320,192,161429,1,0,0:0:0:0:
448,192,161429,1,0,0:0:0:0:
320,192,161699,1,0,0:0:0:0:
448,192,161699,1,0,0:0:0:0:
192,192,161968,1,0,0:0:0:0:
64,192,161968,1,0,0:0:0:0:
448,192,161968,1,0,0:0:0:0:
320,192,162238,1,0,0:0:0:0:
192,192,162687,1,0,0:0:0:0:
320,192,162776,1,0,0:0:0:0:
192,192,163226,1,0,0:0:0:0:
320,192,163226,1,0,0:0:0:0:
64,192,163585,1,0,0:0:0:0:
320,192,163944,1,0,0:0:0:0:
448,192,164393,1,0,0:0:0:0:
320,192,164753,1,0,0:0:0:0:
192,192,165202,1,0,0:0:0:0:
64,192,165651,1,0,0:0:0:0:
192,192,166100,1,0,0:0:0:0:
320,192,166639,1,0,0:0:0:0:
448,192,167088,1,0,0:0:0:0:
64,192,167537,1,0,0:0:0:0:
320,192,167806,1,0,0:0:0:0:
192,192,167896,1,0,0:0:0:0:
64,192,167986,1,0,0:0:0:0:
64,192,168345,1,0,0:0:0:0:
192,192,168794,1,0,0:0:0:0:
320,192,169244,1,0,0:0:0:0:
448,192,169782,1,0,0:0:0:0:
320,192,170142,1,0,0:0:0:0:
320,192,170591,1,0,0:0:0:0:
192,192,171040,1,0,0:0:0:0:
320,192,171579,1,0,0:0:0:0:
192,192,171938,1,0,0:0:0:0:
320,192,172387,1,0,0:0:0:0:
448,192,172657,1,0,0:0:0:0:
320,192,172747,1,0,0:0:0:0:
320,192,173285,1,0,0:0:0:0:
192,192,173735,1,0,0:0:0:0:
64,192,174184,1,0,0:0:0:0:
192,192,174633,1,0,0:0:0:0:
320,192,175082,1,0,0:0:0:0:
448,192,175441,1,0,0:0:0:0:
320,192,175980,1,0,0:0:0:0:
192,192,176429,1,0,0:0:0:0:
64,192,176788,1,0,0:0:0:0:
64,192,177058,1,0,0:0:0:0:
192,192,177148,1,0,0:0:0:0:
448,192,177327,1,0,0:0:0:0:
320,192,177417,1,0,0:0:0:0:
192,192,177507,1,0,0:0:0:0:
64,192,177687,1,0,0:0:0:0:
192,192,177776,1,0,0:0:0:0:
320,192,177956,1,0,0:0:0:0:
64,192,178136,1,0,0:0:0:0:
320,192,178315,1,0,0:0:0:0:
448,192,178405,1,0,0:0:0:0:
320,192,178675,1,0,0:0:0:0:
192,192,178854,1,0,0:0:0:0:
320,192,179124,1,0,0:0:0:0:
192,192,179124,1,0,0:0:0:0:
64,192,179303,1,0,0:0:0:0:
448,192,179303,1,0,0:0:0:0:
192,192,179573,1,0,0:0:0:0:
320,192,179573,1,0,0:0:0:0:
448,192,179573,1,0,0:0:0:0:
64,192,179573,1,0,0:0:0:0:
64,192,180022,1,0,0:0:0:0:
192,192,180112,1,0,0:0:0:0:
320,192,180381,1,0,0:0:0:0:
448,192,180471,1,0,0:0:0:0:
448,192,180920,1,0,0:0:0:0:
192,192,180920,1,0,0:0:0:0:
64,192,181459,1,0,0:0:0:0:
192,192,181818,1,0,0:0:0:0:
320,192,181908,1,0,0:0:0:0:
448,192,181998,1,0,0:0:0:0:
64,192,182717,1,0,0:0:0:0:
448,192,182717,1,0,0:0:0:0:
192,192,182806,1,0,0:0:0:0:
320,192,182806,1,0,0:0:0:0:
64,192,183076,1,0,0:0:0:0:
448,192,183076,1,0,0:0:0:0:
192,192,183615,1,0,0:0:0:0:
320,192,183615,1,0,0:0:0:0:
448,192,183615,1,0,0:0:0:0:
64,192,184333,1,0,0:0:0:0:
192,192,184333,1,0,0:0:0:0:
320,192,184962,1,0,0:0:0:0:
448,192,185052,1,0,0:0:0:0:
320,192,185411,1,0,0:0:0:0:
192,192,185501,1,0,0:0:0:0:
64,192,185591,1,0,0:0:0:0:
192,192,185770,1,0,0:0:0:0:
448,192,185950,1,0,0:0:0:0:
320,192,186220,1,0,0:0:0:0:
64,192,186759,1,0,0:0:0:0:
192,192,186848,1,0,0:0:0:0:
448,192,187118,1,0,0:0:0:0:
320,192,187208,1,0,0:0:0:0:
192,192,187297,1,0,0:0:0:0:
64,192,187387,1,0,0:0:0:0:
192,192,187567,1,0,0:0:0:0:
448,192,188106,1,0,0:0:0:0:
320,192,188106,1,0,0:0:0:0:
64,192,188555,1,0,0:0:0:0:
320,192,188555,1,0,0:0:0:0:
320,192,189004,1,0,0:0:0:0:
192,192,189004,1,0,0:0:0:0:
448,192,189184,1,0,0:0:0:0:
64,192,189184,1,0,0:0:0:0:
192,192,189902,1,0,0:0:0:0:
64,192,189902,1,0,0:0:0:0:
320,192,189902,1,0,0:0:0:0:
448,192,190172,1,0,0:0:0:0:
320,192,190262,1,0,0:0:0:0:
192,192,190351,1,0,0:0:0:0:
320,192,190800,1,0,0:0:0:0:
192,192,190980,1,0,0:0:0:0:
448,192,191160,1,0,0:0:0:0:
64,192,191609,1,0,0:0:0:0:
192,192,191609,1,0,0:0:0:0:
320,192,191968,1,0,0:0:0:0:
192,192,192058,1,0,0:0:0:0:
64,192,192148,1,0,0:0:0:0:
64,192,192507,1,0,0:0:0:0:
192,192,192956,1,0,0:0:0:0:
320,192,192956,1,0,0:0:0:0:
448,192,192956,1,0,0:0:0:0:
64,192,193136,1,0,0:0:0:0:
320,192,193226,1,0,0:0:0:0:
64,192,193405,1,0,0:0:0:0:
448,192,193495,1,0,0:0:0:0:
320,192,193675,1,0,0:0:0:0:
64,192,193854,1,0,0:0:0:0:
192,192,193854,1,0,0:0:0:0:
64,192,194303,1,0,0:0:0:0:
320,192,194303,1,0,0:0:0:0:
448,192,194303,1,0,0:0:0:0:
192,192,194573,1,0,0:0:0:0:
320,192,194663,1,0,0:0:0:0:
448,192,194753,1,0,0:0:0:0:
192,192,195291,1,0,0:0:0:0:
64,192,195291,1,0,0:0:0:0:
64,192,195830,1,0,0:0:0:0:
192,192,195920,1,0,0:0:0:0:
320,192,196010,1,0,0:0:0:0:
448,192,196279,1,0,0:0:0:0:
320,192,196369,1,0,0:0:0:0:
192,192,196459,1,0,0:0:0:0:
64,192,196549,1,0,0:0:0:0:
192,192,196639,1,0,0:0:0:0:
448,192,196998,1,0,0:0:0:0:
192,192,196998,1,0,0:0:0:0:
320,192,197267,1,0,0:0:0:0:
64,192,197357,1,0,0:0:0:0:
192,192,197806,1,0,0:0:0:0:
320,192,197806,1,0,0:0:0:0:
64,192,198256,1,0,0:0:0:0:
448,192,198256,1,0,0:0:0:0:
192,192,198615,1,0,0:0:0:0:
320,192,198615,1,0,0:0:0:0:
320,192,198884,1,0,0:0:0:0:
448,192,198884,1,0,0:0:0:0:
64,192,199154,1,0,0:0:0:0:
192,192,199154,1,0,0:0:0:0:
320,192,199603,1,0,0:0:0:0:
64,192,199603,1,0,0:0:0:0:
192,192,199962,1,0,0:0:0:0:
320,192,199962,1,0,0:0:0:0:
448,192,199962,1,0,0:0:0:0:
64,192,201040,1,0,0:0:0:0:
192,192,201130,1,0,0:0:0:0:
320,192,201399,1,0,0:0:0:0:
64,192,201669,1,0,0:0:0:0:
192,192,201759,1,0,0:0:0:0:
320,192,201848,1,0,0:0:0:0:
448,192,201848,1,0,0:0:0:0:
320,192,202387,1,0,0:0:0:0:
448,192,202387,1,0,0:0:0:0:
64,192,202387,1,0,0:0:0:0:
64,192,202836,1,0,0:0:0:0:
320,192,203106,1,0,0:0:0:0:
448,192,203106,1,0,0:0:0:0:
192,192,203285,1,0,0:0:0:0:
64,192,203375,1,0,0:0:0:0:
64,192,203645,1,0,0:0:0:0:
192,192,203735,1,0,0:0:0:0:
320,192,203824,1,0,0:0:0:0:
192,192,204184,1,0,0:0:0:0:
448,192,204184,1,0,0:0:0:0:
64,192,204184,1,0,0:0:0:0:
192,192,204543,1,0,0:0:0:0:
320,192,204543,1,0,0:0:0:0:
448,192,204543,1,0,0:0:0:0:
64,192,204992,1,0,0:0:0:0:
192,192,204992,1,0,0:0:0:0:
320,192,205441,1,0,0:0:0:0:
448,192,205441,1,0,0:0:0:0:
64,192,205980,1,0,0:0:0:0:
192,192,206070,1,0,0:0:0:0:
64,192,206160,1,0,0:0:0:0:
448,192,206429,1,0,0:0:0:0:
320,192,206429,1,0,0:0:0:0:
64,192,206609,1,0,0:0:0:0:
192,192,206609,1,0,0:0:0:0:
448,192,206788,1,0,0:0:0:0:
320,192,206788,1,0,0:0:0:0:
64,192,206968,1,0,0:0:0:0:
192,192,206968,1,0,0:0:0:0:
320,192,207148,1,0,0:0:0:0:
448,192,207148,1,0,0:0:0:0:
64,192,207148,1,0,0:0:0:0:
192,192,207597,1,0,0:0:0:0:
320,192,208046,1,0,0:0:0:0:
448,192,208046,1,0,0:0:0:0:
64,192,208046,128,0,214423:0:0:0:0:
192,192,208405,1,0,0:0:0:0:
320,192,208495,1,0,0:0:0:0:
448,192,208585,1,0,0:0:0:0:
320,192,208675,1,0,0:0:0:0:
192,192,208765,1,0,0:0:0:0:
192,192,209393,1,0,0:0:0:0:
320,192,209753,1,0,0:0:0:0:
448,192,210112,1,0,0:0:0:0:
320,192,210561,1,0,0:0:0:0:
192,192,211010,1,0,0:0:0:0:
192,192,211459,1,0,0:0:0:0:
320,192,211908,1,0,0:0:0:0:
448,192,212178,1,0,0:0:0:0:
320,192,212447,1,0,0:0:0:0:
192,192,212806,1,0,0:0:0:0:
320,192,213076,1,0,0:0:0:0:
448,192,213345,1,0,0:0:0:0:
320,192,213705,1,0,0:0:0:0:
192,192,214064,1,0,0:0:0:0:
448,192,214064,1,0,0:0:0:0:
320,192,214244,1,0,0:0:0:0:
192,192,214423,1,0,0:0:0:0:
448,192,214423,1,0,0:0:0:0:
64,192,214872,1,0,0:0:0:0:
192,192,214872,1,0,0:0:0:0:
320,192,214872,1,0,0:0:0:0:
448,192,214872,1,0,0:0:0:0:
64,192,215232,128,0,216130:0:0:0:0:
448,192,215232,1,0,0:0:0:0:
320,192,216130,1,0,0:0:0:0:
320,192,216848,1,0,0:0:0:0:
448,192,216848,128,0,218285:0:0:0:0:
64,192,217836,1,0,0:0:0:0:
192,192,217926,1,0,0:0:0:0:
320,192,218016,1,0,0:0:0:0:
320,192,218285,1,0,0:0:0:0:
64,192,218285,1,0,0:0:0:0:
192,192,218735,128,0,221250:0:0:0:0:
448,192,218735,128,0,221250:0:0:0:0:
64,192,221429,128,0,222417:0:0:0:0:
320,192,221429,1,0,0:0:0:0:
192,192,222417,1,0,0:0:0:0:
448,192,222687,1,0,0:0:0:0:
320,192,222776,1,0,0:0:0:0:
192,192,222866,1,0,0:0:0:0:
64,192,222956,1,0,0:0:0:0:
192,192,223046,1,0,0:0:0:0:
320,192,223495,1,0,0:0:0:0:
192,192,223944,1,0,0:0:0:0:
64,192,224393,1,0,0:0:0:0:
192,192,224842,1,0,0:0:0:0:
320,192,225202,1,0,0:0:0:0:
448,192,225741,1,0,0:0:0:0:
448,192,226100,1,0,0:0:0:0:
320,192,226549,1,0,0:0:0:0:
192,192,227088,1,0,0:0:0:0:
64,192,227537,1,0,0:0:0:0:
192,192,227986,1,0,0:0:0:0:
320,192,228345,1,0,0:0:0:0:
448,192,228794,1,0,0:0:0:0:
320,192,229244,1,0,0:0:0:0:
320,192,229693,1,0,0:0:0:0:
448,192,230142,1,0,0:0:0:0:
320,192,230591,1,0,0:0:0:0:
192,192,231040,1,0,0:0:0:0:
64,192,231489,1,0,0:0:0:0:
64,192,231938,1,0,0:0:0:0:
64,192,232387,1,0,0:0:0:0:
192,192,232836,1,0,0:0:0:0:
192,192,233285,1,0,0:0:0:0:
320,192,233735,1,0,0:0:0:0:
448,192,234184,1,0,0:0:0:0:
320,192,234633,1,0,0:0:0:0:
192,192,235082,1,0,0:0:0:0:
192,192,235351,128,0,240651:0:0:0:0:
64,192,235531,1,0,0:0:0:0:
64,192,235711,1,0,0:0:0:0:
448,192,235800,1,0,0:0:0:0:
448,192,235980,1,0,0:0:0:0:
64,192,236160,1,0,0:0:0:0:
64,192,236429,128,0,239932:0:0:0:0:
320,192,236429,128,0,241190:0:0:0:0:
448,192,236429,128,0,241729:0:0:0:0:
