osu file format v14

[General]
AudioFilename: audio.mp3
AudioLeadIn: 0
PreviewTime: 207459
Countdown: 0
SampleSet: Normal
StackLeniency: 0.7
Mode: 0
LetterboxInBreaks: 0
WidescreenStoryboard: 0

[Editor]
Bookmarks: 44997,59766,89305,118843,266536,296074
DistanceSpacing: 1.8
BeatDivisor: 4
GridSize: 4
TimelineZoom: 1.1

[Metadata]
Title:Pandemonium
TitleUnicode:Pandemonium
Artist:Arkasia
ArtistUnicode:Arkasia
Creator:Dementation
Version:Drowning
Source:
Tags:edm trance chill
BeatmapID:1586718
BeatmapSetID:753661

[Difficulty]
HPDrainRate:6
CircleSize:3.5
OverallDifficulty:8
ApproachRate:9
SliderMultiplier:1
SliderTickRate:1

[Events]
//Background and Video events
0,0,"wwwwww.jpg",0,0
//Break Periods
2,174428,176397
//Storyboard Layer 0 (Background)
//Storyboard Layer 1 (Fail)
//Storyboard Layer 2 (Pass)
//Storyboard Layer 3 (Foreground)
//Storyboard Sound Samples

[TimingPoints]
690,461.538461538462,4,2,0,5,1,0
8074,-500,4,2,0,10,0,0
9920,-500,4,2,0,5,0,0
10151,-500,4,2,0,10,0,0
11997,-500,4,2,0,5,0,0
12228,-500,4,2,0,10,0,0
15228,-500,4,2,0,5,0,0
15459,-333.333333333333,4,2,0,15,0,0
17190,-333.333333333333,4,2,0,5,0,0
17305,-333.333333333333,4,2,0,15,0,0
19036,-333.333333333333,4,2,0,5,0,0
19151,-333.333333333333,4,2,0,15,0,0
22728,-333.333333333333,4,2,0,5,0,0
22843,-250,4,2,0,20,0,0
24574,-250,4,2,0,5,0,0
24690,-250,4,2,0,20,0,0
26420,-250,4,2,0,5,0,0
26536,-250,4,2,0,20,0,0
30113,-250,4,2,0,5,0,0
30228,-250,4,2,0,20,0,0
31959,-250,4,2,0,5,0,0
32074,-250,4,2,0,20,0,0
33805,-250,4,2,0,5,0,0
33920,-250,4,2,0,20,0,0
37497,-250,4,2,0,5,0,0
37613,-200,4,2,0,25,0,0
39343,-200,4,2,0,5,0,0
39459,-200,4,2,0,25,0,0
41190,-200,4,2,0,5,0,0
41305,-200,4,2,0,25,0,0
44882,-200,4,2,0,5,0,0
44997,-142.857142857143,4,2,0,30,0,0
45228,-142.857142857143,4,2,0,5,0,0
45343,-142.857142857143,4,2,0,30,0,0
45574,-142.857142857143,4,2,0,5,0,0
45690,-142.857142857143,4,2,0,30,0,0
45920,-142.857142857143,4,2,0,5,0,0
46036,-142.857142857143,4,2,0,30,0,0
46266,-142.857142857143,4,2,0,5,0,0
46382,-142.857142857143,4,2,0,30,0,0
46613,-142.857142857143,4,2,0,5,0,0
46728,-142.857142857143,4,2,0,30,0,0
47074,-142.857142857143,4,2,0,5,0,0
47190,-142.857142857143,4,2,0,30,0,0
47420,-142.857142857143,4,2,0,5,0,0
47536,-142.857142857143,4,2,0,30,0,0
47766,-142.857142857143,4,2,0,5,0,0
47882,-142.857142857143,4,2,0,30,0,0
48113,-142.857142857143,4,2,0,5,0,0
48228,-142.857142857143,4,2,0,30,0,0
48459,-142.857142857143,4,2,0,5,0,0
48574,-142.857142857143,4,2,0,30,0,0
48920,-142.857142857143,4,2,0,5,0,0
49036,-142.857142857143,4,2,0,30,0,0
49266,-142.857142857143,4,2,0,5,0,0
49382,-142.857142857143,4,2,0,30,0,0
49613,-142.857142857143,4,2,0,5,0,0
49728,-142.857142857143,4,2,0,30,0,0
49959,-142.857142857143,4,2,0,5,0,0
50074,-142.857142857143,4,2,0,30,0,0
50305,-142.857142857143,4,2,0,5,0,0
50420,-142.857142857143,4,2,0,30,0,0
50651,-142.857142857143,4,2,0,5,0,0
50766,-142.857142857143,4,2,0,30,0,0
50997,-142.857142857143,4,2,0,5,0,0
51113,-142.857142857143,4,2,0,30,0,0
51343,-142.857142857143,4,2,0,5,0,0
51459,-142.857142857143,4,2,0,30,0,0
51690,-142.857142857143,4,2,0,5,0,0
51805,-142.857142857143,4,2,0,30,0,0
52151,-142.857142857143,4,2,0,5,0,0
52266,-142.857142857143,4,2,0,30,0,0
52613,-142.857142857143,4,2,0,5,0,0
52728,-142.857142857143,4,2,0,30,0,0
52959,-142.857142857143,4,2,0,5,0,0
53074,-142.857142857143,4,2,0,30,0,0
53305,-142.857142857143,4,2,0,5,0,0
53420,-142.857142857143,4,2,0,30,0,0
53651,-142.857142857143,4,2,0,5,0,0
53766,-142.857142857143,4,2,0,30,0,0
53997,-142.857142857143,4,2,0,5,0,0
54113,-142.857142857143,4,2,0,30,0,0
54459,-142.857142857143,4,2,0,5,0,0
54574,-142.857142857143,4,2,0,30,0,0
54805,-142.857142857143,4,2,0,5,0,0
54920,-142.857142857143,4,2,0,30,0,0
55151,-142.857142857143,4,2,0,5,0,0
55266,-142.857142857143,4,2,0,30,0,0
55497,-142.857142857143,4,2,0,5,0,0
55613,-142.857142857143,4,2,0,30,0,0
55843,-142.857142857143,4,2,0,5,0,0
55959,-142.857142857143,4,2,0,30,0,0
56305,-142.857142857143,4,2,0,5,0,0
56420,-142.857142857143,4,2,0,30,0,0
56651,-142.857142857143,4,2,0,5,0,0
56766,-142.857142857143,4,2,0,30,0,0
56997,-142.857142857143,4,2,0,5,0,0
57113,-142.857142857143,4,2,0,30,0,0
57343,-142.857142857143,4,2,0,5,0,0
57459,-142.857142857143,4,2,0,30,0,0
57690,-142.857142857143,4,2,0,5,0,0
57805,-142.857142857143,4,2,0,30,0,0
58036,-142.857142857143,4,2,0,5,0,0
59766,-100,4,2,0,50,0,0
62997,-83.3333333333333,4,2,0,50,0,0
63459,-100,4,2,0,50,0,0
67613,-83.3333333333333,4,2,0,50,0,0
68074,-100,4,2,0,50,0,0
69920,-83.3333333333333,4,2,0,50,0,0
70843,-100,4,2,0,50,0,0
74997,-83.3333333333333,4,2,0,50,0,0
75459,-100,4,2,0,50,0,0
77305,-83.3333333333333,4,2,0,50,0,0
78228,-100,4,2,0,50,0,0
82382,-83.3333333333333,4,2,0,50,0,0
82843,-100,4,2,0,50,0,0
84690,-83.3333333333333,4,2,0,50,0,0
85613,-100,4,2,0,50,0,0
87920,-58.8235294117647,4,2,0,50,0,0
89305,-50,4,1,0,70,0,0
89651,-50,4,1,0,5,0,0
89766,-33.3333333333333,4,1,0,70,0,0
90113,-50,4,1,0,5,0,0
90228,-50,4,1,0,70,0,0
90459,-50,4,1,0,5,0,0
90574,-50,4,1,0,70,0,0
90805,-50,4,1,0,5,0,0
90920,-50,4,1,0,70,0,0
91036,-50,4,1,0,5,0,0
91151,-50,4,1,0,70,0,0
91959,-50,4,1,0,5,0,0
92074,-50,4,1,0,70,0,0
92420,-50,4,1,0,60,0,0
92882,-50,4,1,0,5,0,0
92997,-50,4,1,0,70,0,0
93805,-50,4,1,0,5,0,0
93920,-50,4,1,0,70,0,0
94151,-50,4,1,0,5,0,0
94266,-50,4,1,0,70,0,0
94497,-50,4,1,0,5,0,0
94613,-50,4,1,0,70,0,0
94843,-50,4,1,0,5,0,0
94959,-50,4,1,0,70,0,0
95190,-50,4,1,0,5,0,0
95305,-50,4,1,0,50,0,0
95420,-50,4,1,0,30,0,0
95536,-50,4,1,0,50,0,0
95651,-50,4,1,0,30,0,0
95766,-50,4,1,0,50,0,0
95882,-50,4,1,0,30,0,0
95997,-50,4,1,0,50,0,0
96113,-50,4,1,0,30,0,0
96228,-50,4,1,0,50,0,0
96343,-50,4,1,0,30,0,0
96459,-50,4,1,0,50,0,0
96574,-50,4,1,0,30,0,0
96690,-50,4,1,0,70,0,0
97036,-50,4,1,0,5,0,0
97151,-33.3333333333333,4,1,0,70,0,0
97497,-50,4,1,0,5,0,0
97613,-50,4,1,0,70,0,0
97843,-50,4,1,0,5,0,0
97959,-50,4,1,0,70,0,0
98190,-50,4,1,0,5,0,0
98305,-50,4,1,0,70,0,0
98420,-50,4,1,0,5,0,0
98536,-50,4,1,0,70,0,0
99343,-50,4,1,0,5,0,0
99459,-50,4,1,0,70,0,0
99805,-50,4,1,0,60,0,0
100266,-50,4,1,0,5,0,0
100382,-50,4,1,0,70,0,0
101190,-50,4,1,0,5,0,0
101305,-50,4,1,0,70,0,0
101536,-50,4,1,0,5,0,0
101651,-50,4,1,0,70,0,0
101882,-50,4,1,0,5,0,0
101997,-50,4,1,0,70,0,0
102228,-50,4,1,0,5,0,0
102343,-50,4,1,0,70,0,0
102574,-50,4,1,0,5,0,0
102690,-50,4,1,0,50,0,0
102805,-50,4,1,0,30,0,0
102920,-50,4,1,0,50,0,0
103036,-50,4,1,0,30,0,0
103151,-50,4,1,0,50,0,0
103266,-50,4,1,0,30,0,0
103382,-50,4,1,0,50,0,0
103497,-50,4,1,0,30,0,0
103613,-50,4,1,0,50,0,0
103728,-50,4,1,0,30,0,0
103843,-50,4,1,0,50,0,0
103959,-50,4,1,0,30,0,0
104074,-50,4,1,0,70,0,0
104420,-50,4,1,0,5,0,0
104536,-33.3333333333333,4,1,0,70,0,0
104882,-50,4,1,0,5,0,0
104997,-50,4,1,0,70,0,0
105228,-50,4,1,0,5,0,0
105343,-50,4,1,0,70,0,0
105574,-50,4,1,0,5,0,0
105690,-50,4,1,0,70,0,0
105805,-50,4,1,0,5,0,0
105920,-50,4,1,0,70,0,0
106728,-50,4,1,0,5,0,0
106843,-50,4,1,0,70,0,0
107190,-50,4,1,0,60,0,0
107651,-50,4,1,0,5,0,0
107766,-50,4,1,0,70,0,0
108574,-50,4,1,0,5,0,0
108690,-50,4,1,0,70,0,0
108920,-50,4,1,0,5,0,0
109036,-50,4,1,0,70,0,0
109266,-50,4,1,0,5,0,0
109382,-50,4,1,0,70,0,0
109613,-50,4,1,0,5,0,0
109728,-50,4,1,0,70,0,0
109959,-50,4,1,0,5,0,0
110074,-50,4,1,0,50,0,0
110190,-50,4,1,0,30,0,0
110305,-50,4,1,0,50,0,0
110420,-50,4,1,0,30,0,0
110536,-50,4,1,0,50,0,0
110651,-50,4,1,0,30,0,0
110766,-50,4,1,0,50,0,0
110882,-50,4,1,0,30,0,0
110997,-50,4,1,0,50,0,0
111113,-50,4,1,0,30,0,0
111228,-50,4,1,0,50,0,0
111343,-50,4,1,0,30,0,0
111459,-50,4,1,0,70,0,0
111805,-50,4,1,0,5,0,0
111920,-33.3333333333333,4,1,0,70,0,0
112266,-50,4,1,0,5,0,0
112382,-50,4,1,0,70,0,0
112613,-50,4,1,0,5,0,0
112728,-50,4,1,0,70,0,0
112959,-50,4,1,0,5,0,0
113074,-50,4,1,0,70,0,0
113190,-50,4,1,0,5,0,0
113305,-50,4,1,0,70,0,0
114113,-50,4,1,0,5,0,0
114228,-50,4,1,0,70,0,0
114574,-50,4,1,0,60,0,0
115151,-50,4,1,0,70,0,0
115959,-50,4,1,0,5,0,0
116074,-50,4,1,0,70,0,0
116305,-50,4,1,0,5,0,0
116420,-50,4,1,0,70,0,0
116651,-50,4,1,0,5,0,0
116766,-50,4,1,0,70,0,0
116997,-50,4,1,0,5,0,0
117113,-50,4,1,0,70,0,0
117343,-50,4,1,0,5,0,0
117459,-50,4,1,0,50,0,0
117574,-50,4,1,0,30,0,0
117690,-50,4,1,0,50,0,0
117805,-50,4,1,0,30,0,0
117920,-50,4,1,0,50,0,0
118036,-50,4,1,0,30,0,0
118151,-50,4,1,0,50,0,0
118266,-50,4,1,0,30,0,0
118382,-50,4,1,0,50,0,0
118497,-50,4,1,0,30,0,0
118613,-50,4,1,0,50,0,0
118728,-50,4,1,0,30,0,0
118843,-142.857142857143,4,2,0,30,0,0
119074,-142.857142857143,4,2,0,5,0,0
119190,-142.857142857143,4,2,0,30,0,0
119420,-142.857142857143,4,2,0,5,0,0
119536,-142.857142857143,4,2,0,30,0,0
119766,-142.857142857143,4,2,0,5,0,0
119882,-142.857142857143,4,2,0,30,0,0
120113,-142.857142857143,4,2,0,5,0,0
120228,-142.857142857143,4,2,0,30,0,0
120459,-142.857142857143,4,2,0,5,0,0
120574,-142.857142857143,4,2,0,30,0,0
120920,-142.857142857143,4,2,0,5,0,0
121036,-142.857142857143,4,2,0,30,0,0
121266,-142.857142857143,4,2,0,5,0,0
121382,-142.857142857143,4,2,0,30,0,0
121613,-142.857142857143,4,2,0,5,0,0
121728,-142.857142857143,4,2,0,30,0,0
121959,-142.857142857143,4,2,0,5,0,0
122074,-142.857142857143,4,2,0,30,0,0
122305,-142.857142857143,4,2,0,5,0,0
122420,-142.857142857143,4,2,0,30,0,0
126459,-142.857142857143,4,2,0,5,0,0
126574,-142.857142857143,4,2,0,30,0,0
126805,-142.857142857143,4,2,0,5,0,0
126920,-142.857142857143,4,2,0,30,0,0
127151,-142.857142857143,4,2,0,5,0,0
127266,-142.857142857143,4,2,0,30,0,0
127497,-142.857142857143,4,2,0,5,0,0
127613,-142.857142857143,4,2,0,30,0,0
127843,-142.857142857143,4,2,0,5,0,0
127959,-142.857142857143,4,2,0,30,0,0
130151,-142.857142857143,4,2,0,5,0,0
130266,-142.857142857143,4,2,0,30,0,0
130497,-142.857142857143,4,2,0,5,0,0
130613,-142.857142857143,4,2,0,30,0,0
130843,-142.857142857143,4,2,0,5,0,0
130959,-142.857142857143,4,2,0,30,0,0
131190,-142.857142857143,4,2,0,5,0,0
131305,-142.857142857143,4,2,0,30,0,0
131536,-142.857142857143,4,2,0,5,0,0
131651,-142.857142857143,4,2,0,30,0,0
131882,-142.857142857143,4,2,0,5,0,0
131997,-142.857142857143,4,2,0,30,0,0
132228,-142.857142857143,4,2,0,5,0,0
132343,-142.857142857143,4,2,0,30,0,0
132574,-142.857142857143,4,2,0,5,0,0
132690,-142.857142857143,4,2,0,30,0,0
132920,-142.857142857143,4,2,0,5,0,0
133036,-142.857142857143,4,2,0,30,0,0
133382,-142.857142857143,4,2,0,25,0,0
133843,-142.857142857143,4,2,0,5,0,0
133959,-142.857142857143,4,2,0,25,0,0
134190,-142.857142857143,4,2,0,5,0,0
134305,-142.857142857143,4,2,0,25,0,0
134536,-142.857142857143,4,2,0,5,0,0
134651,-142.857142857143,4,2,0,25,0,0
134882,-142.857142857143,4,2,0,5,0,0
134997,-142.857142857143,4,2,0,25,0,0
135228,-142.857142857143,4,2,0,5,0,0
135343,-142.857142857143,4,2,0,25,0,0
135690,-142.857142857143,4,2,0,5,0,0
135805,-142.857142857143,4,2,0,25,0,0
136036,-142.857142857143,4,2,0,5,0,0
136151,-142.857142857143,4,2,0,25,0,0
136382,-142.857142857143,4,2,0,5,0,0
136497,-142.857142857143,4,2,0,25,0,0
136728,-142.857142857143,4,2,0,5,0,0
136843,-142.857142857143,4,2,0,25,0,0
137074,-142.857142857143,4,2,0,5,0,0
137190,-142.857142857143,4,2,0,25,0,0
140305,-142.857142857143,4,2,0,5,0,0
140420,-142.857142857143,4,2,0,25,0,0
140766,-142.857142857143,4,2,0,5,0,0
140882,-142.857142857143,4,2,0,30,0,0
141228,-142.857142857143,4,2,0,5,0,0
141343,-142.857142857143,4,2,0,30,0,0
144920,-142.857142857143,4,2,0,5,0,0
145036,-142.857142857143,4,2,0,30,0,0
148382,-111.111111111111,4,2,0,40,0,0
148613,-111.111111111111,4,2,0,5,0,0
148728,-111.111111111111,4,2,0,40,0,0
148959,-111.111111111111,4,2,0,5,0,0
149074,-111.111111111111,4,2,0,40,0,0
149305,-111.111111111111,4,2,0,5,0,0
149420,-111.111111111111,4,2,0,40,0,0
149651,-111.111111111111,4,2,0,5,0,0
149766,-111.111111111111,4,2,0,40,0,0
149997,-111.111111111111,4,2,0,5,0,0
150113,-111.111111111111,4,2,0,40,0,0
150459,-111.111111111111,4,2,0,5,0,0
150574,-111.111111111111,4,2,0,40,0,0
150805,-111.111111111111,4,2,0,5,0,0
150920,-111.111111111111,4,2,0,40,0,0
151151,-111.111111111111,4,2,0,5,0,0
151266,-111.111111111111,4,2,0,40,0,0
151497,-111.111111111111,4,2,0,5,0,0
151613,-111.111111111111,4,2,0,40,0,0
151843,-111.111111111111,4,2,0,5,0,0
151959,-111.111111111111,4,2,0,40,0,0
155997,-111.111111111111,4,2,0,5,0,0
156113,-111.111111111111,4,2,0,40,0,0
156343,-111.111111111111,4,2,0,5,0,0
156459,-111.111111111111,4,2,0,40,0,0
156690,-111.111111111111,4,2,0,5,0,0
156805,-111.111111111111,4,2,0,40,0,0
157036,-111.111111111111,4,2,0,5,0,0
157151,-111.111111111111,4,2,0,40,0,0
157382,-111.111111111111,4,2,0,5,0,0
157497,-111.111111111111,4,2,0,40,0,0
159690,-111.111111111111,4,2,0,5,0,0
159805,-111.111111111111,4,2,0,40,0,0
160036,-111.111111111111,4,2,0,5,0,0
160151,-111.111111111111,4,2,0,40,0,0
160382,-111.111111111111,4,2,0,5,0,0
160497,-111.111111111111,4,2,0,40,0,0
160728,-111.111111111111,4,2,0,5,0,0
160843,-111.111111111111,4,2,0,40,0,0
161074,-111.111111111111,4,2,0,5,0,0
161190,-111.111111111111,4,2,0,40,0,0
161420,-111.111111111111,4,2,0,5,0,0
161536,-111.111111111111,4,2,0,40,0,0
161766,-111.111111111111,4,2,0,5,0,0
161882,-111.111111111111,4,2,0,40,0,0
162113,-111.111111111111,4,2,0,5,0,0
162228,-111.111111111111,4,2,0,40,0,0
176997,-50,4,1,0,70,0,0
177920,-50,4,1,0,70,0,0
178728,-50,4,1,0,5,0,0
178843,-50,4,1,0,70,0,0
179074,-50,4,1,0,5,0,0
179190,-50,4,1,0,70,0,0
179420,-50,4,1,0,5,0,0
179536,-50,4,1,0,70,0,0
179651,-50,4,1,0,5,0,0
179766,-50,4,1,0,70,0,0
180574,-50,4,1,0,5,0,0
180690,-50,4,1,0,70,0,0
180920,-50,4,1,0,5,0,0
181036,-50,4,1,0,70,0,0
181266,-50,4,1,0,5,0,0
181382,-50,4,1,0,70,0,0
181497,-50,4,1,0,5,0,0
181613,-50,4,1,0,70,0,0
182420,-50,4,1,0,5,0,0
182536,-50,4,1,0,70,0,0
182766,-50,4,1,0,5,0,0
182882,-50,4,1,0,70,0,0
183113,-50,4,1,0,5,0,0
183228,-50,4,1,0,70,0,0
183459,-50,4,1,0,5,0,0
183574,-50,4,1,0,70,0,0
183805,-50,4,1,0,5,0,0
183920,-50,4,1,0,50,0,0
184036,-50,4,1,0,30,0,0
184151,-50,4,1,0,50,0,0
184266,-50,4,1,0,30,0,0
184382,-50,4,1,0,50,0,0
184497,-50,4,1,0,30,0,0
184613,-50,4,1,0,50,0,0
184728,-50,4,1,0,30,0,0
184843,-50,4,1,0,50,0,0
184959,-50,4,1,0,30,0,0
185074,-50,4,1,0,50,0,0
185190,-50,4,1,0,30,0,0
185305,-50,4,1,0,70,0,0
186113,-50,4,1,0,5,0,0
186228,-50,4,1,0,70,0,0
186459,-50,4,1,0,5,0,0
186574,-50,4,1,0,70,0,0
186805,-50,4,1,0,5,0,0
186920,-50,4,1,0,70,0,0
187036,-50,4,1,0,5,0,0
187151,-50,4,1,0,70,0,0
187959,-50,4,1,0,5,0,0
188074,-50,4,1,0,70,0,0
188305,-50,4,1,0,5,0,0
188420,-50,4,1,0,70,0,0
188651,-50,4,1,0,5,0,0
188766,-50,4,1,0,70,0,0
188882,-50,4,1,0,5,0,0
188997,-50,4,1,0,70,0,0
189805,-50,4,1,0,5,0,0
189920,-50,4,1,0,70,0,0
190151,-50,4,1,0,5,0,0
190266,-50,4,1,0,70,0,0
190497,-50,4,1,0,5,0,0
190613,-50,4,1,0,70,0,0
190843,-50,4,1,0,5,0,0
190959,-50,4,1,0,70,0,0
191190,-50,4,1,0,5,0,0
191305,-50,4,1,0,50,0,0
191420,-50,4,1,0,30,0,0
191536,-50,4,1,0,50,0,0
191651,-50,4,1,0,30,0,0
191766,-50,4,1,0,50,0,0
191882,-50,4,1,0,30,0,0
191997,-50,4,1,0,50,0,0
192113,-50,4,1,0,30,0,0
192228,-50,4,1,0,50,0,0
192343,-50,4,1,0,30,0,0
192459,-50,4,1,0,50,0,0
192574,-50,4,1,0,30,0,0
192690,-50,4,1,0,70,0,0
193497,-50,4,1,0,5,0,0
193613,-50,4,1,0,70,0,0
193843,-50,4,1,0,5,0,0
193959,-50,4,1,0,70,0,0
194190,-50,4,1,0,5,0,0
194305,-50,4,1,0,70,0,0
194420,-50,4,1,0,5,0,0
194536,-50,4,1,0,70,0,0
195343,-50,4,1,0,5,0,0
195459,-50,4,1,0,70,0,0
195690,-50,4,1,0,5,0,0
195805,-50,4,1,0,70,0,0
196036,-50,4,1,0,5,0,0
196151,-50,4,1,0,70,0,0
196266,-50,4,1,0,5,0,0
196382,-50,4,1,0,70,0,0
197190,-50,4,1,0,5,0,0
197305,-50,4,1,0,70,0,0
197536,-50,4,1,0,5,0,0
197651,-50,4,1,0,70,0,0
197882,-50,4,1,0,5,0,0
197997,-50,4,1,0,70,0,0
198228,-50,4,1,0,5,0,0
198343,-50,4,1,0,70,0,0
198574,-50,4,1,0,5,0,0
198690,-50,4,1,0,50,0,0
198805,-50,4,1,0,30,0,0
198920,-50,4,1,0,50,0,0
199036,-50,4,1,0,30,0,0
199151,-50,4,1,0,50,0,0
199266,-50,4,1,0,30,0,0
199382,-50,4,1,0,50,0,0
199497,-50,4,1,0,30,0,0
199613,-50,4,1,0,50,0,0
199728,-50,4,1,0,30,0,0
199843,-50,4,1,0,50,0,0
199959,-50,4,1,0,30,0,0
200074,-50,4,1,0,70,0,0
200882,-50,4,1,0,5,0,0
200997,-50,4,1,0,70,0,0
201228,-50,4,1,0,5,0,0
201343,-50,4,1,0,70,0,0
201574,-50,4,1,0,5,0,0
201690,-50,4,1,0,70,0,0
201805,-50,4,1,0,5,0,0
201920,-50,4,1,0,70,0,0
202728,-50,4,1,0,5,0,0
202843,-50,4,1,0,70,0,0
203074,-50,4,1,0,5,0,0
203190,-50,4,1,0,70,0,0
203420,-50,4,1,0,5,0,0
203536,-50,4,1,0,70,0,0
203651,-50,4,1,0,5,0,0
203766,-50,4,1,0,70,0,0
204574,-50,4,1,0,5,0,0
204690,-50,4,1,0,70,0,0
204920,-50,4,1,0,5,0,0
205036,-50,4,1,0,70,0,0
205266,-50,4,1,0,5,0,0
205382,-50,4,1,0,70,0,0
205497,-50,4,1,0,5,0,0
205613,-50,4,1,0,70,0,0
207459,-40,4,1,0,80,0,1
208266,-40,4,1,0,5,0,1
208382,-40,4,1,0,80,0,1
208613,-40,4,1,0,5,0,1
208728,-40,4,1,0,80,0,1
208959,-40,4,1,0,5,0,1
209074,-40,4,1,0,80,0,1
209190,-40,4,1,0,5,0,1
209305,-40,4,1,0,80,0,1
210113,-40,4,1,0,5,0,1
210228,-40,4,1,0,80,0,1
210459,-40,4,1,0,5,0,1
210574,-40,4,1,0,80,0,1
210805,-40,4,1,0,5,0,1
210920,-40,4,1,0,80,0,1
211036,-40,4,1,0,5,0,1
211151,-40,4,1,0,80,0,1
211959,-40,4,1,0,5,0,1
212074,-40,4,1,0,80,0,1
212305,-40,4,1,0,5,0,1
212420,-40,4,1,0,80,0,1
212651,-40,4,1,0,5,0,1
212766,-40,4,1,0,80,0,1
213343,-40,4,1,0,5,0,1
213459,-40,4,1,0,80,0,1
213805,-40,4,1,0,5,0,1
213920,-40,4,1,0,80,0,1
214266,-40,4,1,0,5,0,1
214382,-40,4,1,0,80,0,1
214728,-40,4,1,0,5,0,1
214843,-40,4,1,0,80,0,1
215651,-40,4,1,0,5,0,1
215766,-40,4,1,0,80,0,1
215997,-40,4,1,0,5,0,1
216113,-40,4,1,0,80,0,1
216343,-40,4,1,0,5,0,1
216459,-40,4,1,0,80,0,1
216574,-40,4,1,0,5,0,1
216690,-40,4,1,0,80,0,1
217497,-40,4,1,0,5,0,1
217613,-40,4,1,0,80,0,1
217843,-40,4,1,0,5,0,1
217959,-40,4,1,0,80,0,1
218190,-40,4,1,0,5,0,1
218305,-40,4,1,0,80,0,1
218420,-40,4,1,0,5,0,1
218536,-40,4,1,0,80,0,1
219343,-40,4,1,0,5,0,1
219459,-40,4,1,0,80,0,1
220728,-40,4,1,0,5,0,1
220843,-40,4,1,0,80,0,1
221190,-40,4,1,0,5,0,1
221305,-40,4,1,0,80,0,1
221536,-40,4,1,0,5,0,1
221651,-40,4,1,0,80,0,1
221882,-40,4,1,0,5,0,1
221997,-40,4,1,0,80,0,1
222113,-40,4,1,0,5,0,1
222228,-40,4,1,0,80,0,1
223036,-40,4,1,0,5,0,1
223151,-40,4,1,0,80,0,1
223382,-40,4,1,0,5,0,1
223497,-40,4,1,0,80,0,1
223728,-40,4,1,0,5,0,1
223843,-40,4,1,0,80,0,1
223959,-40,4,1,0,5,0,1
224074,-40,4,1,0,80,0,1
224882,-40,4,1,0,5,0,1
224997,-40,4,1,0,80,0,1
225228,-40,4,1,0,5,0,1
225343,-40,4,1,0,80,0,1
225574,-40,4,1,0,5,0,1
225690,-40,4,1,0,80,0,1
225805,-40,4,1,0,5,0,1
225920,-40,4,1,0,80,0,1
226728,-40,4,1,0,5,0,1
226843,-40,4,1,0,80,0,1
227074,-40,4,1,0,5,0,1
227190,-40,4,1,0,80,0,1
227420,-40,4,1,0,5,0,1
227536,-40,4,1,0,80,0,1
228113,-40,4,1,0,5,0,1
228228,-40,4,1,0,80,0,1
228574,-40,4,1,0,5,0,1
228690,-40,4,1,0,80,0,1
229036,-40,4,1,0,5,0,1
229151,-40,4,1,0,80,0,1
229497,-40,4,1,0,5,0,1
229613,-40,4,1,0,80,0,1
230420,-40,4,1,0,5,0,1
230536,-40,4,1,0,80,0,1
230766,-40,4,1,0,5,0,1
230882,-40,4,1,0,80,0,1
231113,-40,4,1,0,5,0,1
231228,-40,4,1,0,80,0,1
231343,-40,4,1,0,5,0,1
231459,-40,4,1,0,80,0,1
232266,-40,4,1,0,5,0,1
232382,-40,4,1,0,80,0,1
232613,-40,4,1,0,5,0,1
232728,-40,4,1,0,80,0,1
232959,-40,4,1,0,5,0,1
233074,-40,4,1,0,80,0,1
233190,-40,4,1,0,5,0,1
233305,-40,4,1,0,80,0,1
234113,-40,4,1,0,5,0,1
234228,-40,4,1,0,80,0,1
235497,-40,4,1,0,5,0,1
235613,-40,4,1,0,80,0,1
237805,-40,4,1,0,5,0,1
237920,-40,4,1,0,80,0,1
238151,-40,4,1,0,5,0,1
238266,-40,4,1,0,80,0,1
238497,-40,4,1,0,5,0,1
238613,-40,4,1,0,80,0,1
238728,-40,4,1,0,5,0,1
238843,-40,4,1,0,80,0,1
239190,-40,4,1,0,5,0,1
239305,-40,4,1,0,80,0,1
239651,-40,4,1,0,5,0,1
239766,-40,4,1,0,80,0,1
240805,-40,4,1,0,5,0,1
240920,-40,4,1,0,80,0,1
241497,-40,4,1,0,5,0,1
241613,-40,4,1,0,80,0,1
241843,-40,4,1,0,5,0,1
241959,-40,4,1,0,80,0,1
242190,-40,4,1,0,5,0,1
242305,-40,4,1,0,80,0,1
242651,-40,4,1,0,5,0,1
242766,-40,4,1,0,80,0,1
245190,-40,4,1,0,5,0,1
245305,-40,4,1,0,80,0,1
245536,-40,4,1,0,5,0,1
245651,-40,4,1,0,80,0,1
245882,-40,4,1,0,5,0,1
245997,-40,4,1,0,80,0,1
246113,-40,4,1,0,5,0,1
246228,-40,4,1,0,80,0,1
247036,-40,4,1,0,5,0,1
247151,-40,4,1,0,80,0,1
248882,-40,4,1,0,5,0,1
248997,-40,4,1,0,80,0,1
250266,-40,4,1,0,5,0,1
250382,-40,4,1,0,80,0,1
252574,-40,4,1,0,5,0,1
252690,-40,4,1,0,80,0,1
252920,-40,4,1,0,5,0,1
253036,-40,4,1,0,80,0,1
253266,-40,4,1,0,5,0,1
253382,-40,4,1,0,80,0,1
253497,-40,4,1,0,5,0,1
253613,-40,4,1,0,80,0,1
254420,-40,4,1,0,5,0,1
254536,-40,4,1,0,80,0,1
256266,-40,4,1,0,5,0,1
256382,-40,4,1,0,80,0,1
256613,-40,4,1,0,5,0,1
256728,-40,4,1,0,80,0,1
256959,-40,4,1,0,5,0,1
257074,-40,4,1,0,80,0,1
257190,-40,4,1,0,5,0,1
257305,-40,4,1,0,80,0,1
259959,-40,4,1,0,5,0,1
260074,-40,4,1,0,80,0,1
261805,-40,4,1,0,5,0,1
261920,-40,4,1,0,80,0,1
263651,-40,4,1,0,5,0,1
263766,-40,4,1,0,80,0,1
265036,-40,4,1,0,5,0,1
265151,-40,4,1,0,80,0,1
266536,-111.111111111111,4,2,0,40,0,0
269190,-111.111111111111,4,2,0,5,0,0
269305,-111.111111111111,4,2,0,40,0,0
271036,-111.111111111111,4,2,0,5,0,0
271151,-111.111111111111,4,2,0,40,0,0
271959,-111.111111111111,4,2,0,5,0,0
272074,-111.111111111111,4,2,0,40,0,0
274266,-111.111111111111,4,2,0,5,0,0
274382,-90.9090909090908,4,2,0,40,0,0
274728,-111.111111111111,4,2,0,5,0,0
274843,-111.111111111111,4,2,0,40,0,0
276574,-111.111111111111,4,2,0,5,0,0
276690,-111.111111111111,4,2,0,40,0,0
277036,-111.111111111111,4,2,0,5,0,0
277151,-111.111111111111,4,2,0,40,0,0
277959,-111.111111111111,4,2,0,5,0,0
278074,-111.111111111111,4,2,0,40,0,0
278420,-111.111111111111,4,2,0,5,0,0
278536,-111.111111111111,4,2,0,40,0,0
279343,-111.111111111111,4,2,0,5,0,0
279459,-111.111111111111,4,2,0,40,0,0
281651,-111.111111111111,4,2,0,5,0,0
281766,-90.9090909090908,4,2,0,40,0,0
282113,-111.111111111111,4,2,0,5,0,0
282228,-111.111111111111,4,2,0,40,0,0
282459,-111.111111111111,4,2,0,40,0,0
283959,-111.111111111111,4,2,0,5,0,0
284074,-111.111111111111,4,2,0,40,0,0
284536,-111.111111111111,4,2,0,40,0,0
285343,-111.111111111111,4,2,0,5,0,0
285459,-111.111111111111,4,2,0,40,0,0
285805,-111.111111111111,4,2,0,5,0,0
285920,-111.111111111111,4,2,0,40,0,0
286266,-111.111111111111,4,2,0,5,0,0
286382,-111.111111111111,4,2,0,40,0,0
286728,-111.111111111111,4,2,0,5,0,0
286843,-111.111111111111,4,2,0,40,0,0
289036,-111.111111111111,4,2,0,5,0,0
289151,-90.9090909090908,4,2,0,40,0,0
289497,-111.111111111111,4,2,0,5,0,0
289613,-111.111111111111,4,2,0,40,0,0
296074,-200,4,2,0,25,0,0
303459,-250,4,2,0,20,0,0
310843,-333.333333333333,4,2,0,15,0,0
318228,-500,4,2,0,10,0,0
330004,-25,4,2,0,10,0,0

[Colours]
Combo1 : 128,152,198
Combo2 : 43,99,202

[HitObjects]
223,251,8074,6,2,P|263:262|300:249,1,80
327,234,10151,2,2,P|375:220|405:231,1,80
414,257,12228,2,2,P|381:313|319:324,1,130
300,296,15459,6,2,B|299:264|323:241|275:228|298:214|298:186,1,112.499996566773
326,150,17305,2,2,P|381:190|381:230,1,112.499996566773
352,257,19151,2,2,B|322:277|298:278|298:278|274:225|274:225|236:260|166:251,1,232.499992904663
119,236,22843,6,2,P|108:172|176:147,1,150
214,185,24690,2,2,P|297:211|354:183,1,150
388,152,26536,2,2,B|443:120|443:120|443:310|443:310|392:288|392:288,1,310
338,266,30228,6,2,P|263:255|217:314,1,150
178,339,32074,2,2,B|131:339|131:339|130:281|130:281|86:281,1,150
48,242,33920,2,2,B|85:193|62:141|62:141|129:164|176:139|176:139|187:188|219:212,1,310
265,271,37613,6,2,P|348:329|428:299,1,187.5
356,242,39459,2,2,P|395:148|474:139,1,187.5
444,225,41305,2,2,P|440:317|265:229,1,387.5
278,145,44997,6,2,L|282:94,1,34.9999989318848
171,181,45343,2,2,L|175:130,1,34.9999989318848
70,218,45690,2,2,L|74:167,1,34.9999989318848
111,341,46036,2,2,L|115:290,1,34.9999989318848
209,312,46382,2,2,L|213:261,1,34.9999989318848
220,183,46728,5,2,0:0:0:0:
220,183,46843,2,2,L|267:187,1,34.9999989318848
313,296,47190,2,2,L|360:300,1,34.9999989318848
429,222,47536,2,2,L|476:226,1,34.9999989318848
357,109,47882,2,2,L|404:113,1,34.9999989318848
238,191,48228,2,2,L|285:195,1,34.9999989318848
357,278,48574,5,2,0:0:0:0:
357,278,48690,2,2,L|352:328,1,34.9999989318848
251,274,49036,2,2,L|246:324,1,34.9999989318848
147,265,49382,2,2,L|142:315,1,34.9999989318848
72,172,49728,2,2,L|67:222,1,34.9999989318848
165,95,50074,2,2,L|160:145,1,34.9999989318848
265,62,50420,2,2,L|260:112,1,34.9999989318848
359,104,50766,2,2,L|354:154,1,34.9999989318848
442,163,51113,2,2,L|437:213,1,34.9999989318848
463,300,51459,6,2,L|420:296,1,34.9999989318848
327,288,51805,1,2,0:0:0:0:
327,288,51920,2,2,L|284:284,1,34.9999989318848
193,275,52266,1,2,0:0:0:0:
212,169,52382,6,2,L|216:118,1,34.9999989318848
320,140,52728,2,2,L|324:89,1,34.9999989318848
406,183,53075,2,2,L|410:132,1,34.9999989318848
485,241,53421,2,2,L|489:190,1,34.9999989318848
405,312,53766,2,2,L|409:261,1,34.9999989318848
406,183,54113,5,2,0:0:0:0:
406,182,54228,2,2,L|359:177,1,34.9999989318848
329,258,54574,2,2,L|282:254,1,34.9999989318848
278,348,54920,2,2,L|231:344,1,34.9999989318848
203,272,55266,2,2,L|156:268,1,34.9999989318848
174,183,55613,2,2,L|127:178,1,34.9999989318848
45,171,55959,5,2,0:0:0:0:
45,171,56075,2,2,L|40:221,1,34.9999989318848
123,241,56421,2,2,L|118:291,1,34.9999989318848
203,272,56767,2,2,L|198:322,1,34.9999989318848
306,237,57113,2,2,L|301:287,1,34.9999989318848
200,121,57459,2,2,L|195:171,1,34.9999989318848
353,66,57805,2,2,L|348:116,1,34.9999989318848
124,239,59766,6,0,P|164:253|199:247,2,75
11,177,60690,2,0,L|17:89,1,75,0|0,3:3|3:3,3:3:0:0:
16,102,61151,2,0,P|61:90|95:103,1,75
121,269,61613,6,0,L|112:360,2,75
138,99,62536,2,0,P|176:85|201:87,1,50,0|0,3:3|3:3,3:3:0:0:
185,84,62882,1,0,3:3:0:0:
185,84,62997,2,0,L|184:155,1,59.9999981689454,0|0,3:3|3:3,3:3:0:0:
185,276,63459,6,0,P|235:287|277:274,2,75
46,190,64382,2,0,L|54:98,1,75,0|0,3:0|3:0,3:0:0:0:
57,79,64843,1,0,0:0:0:0:
251,179,65074,1,0,0:0:0:0:
46,190,65305,1,0,0:0:0:0:
214,60,65536,1,0,0:0:0:0:
145,194,65766,5,0,0:0:0:0:
150,236,65882,1,0,0:0:0:0:
168,274,65997,1,0,0:0:0:0:
205,294,66113,1,0,3:0:0:0:
247,294,66228,2,0,L|296:289,1,50,0|0,3:0|3:0,3:0:0:0:
406,274,66574,1,0,3:0:0:0:
448,270,66690,2,0,L|499:266,1,50,0|0,3:0|3:0,3:0:0:0:
367,168,67036,1,0,3:0:0:0:
325,173,67151,6,0,L|250:179,1,75
452,329,67613,2,0,L|445:243,1,59.9999981689454
408,82,68075,2,0,L|320:76,1,75,0|0,3:0|3:0,3:0:0:0:
334,77,68536,2,0,P|328:113|340:156,1,75
389,298,68998,6,0,L|480:307,2,75
166,233,69920,2,0,P|204:219|233:221,1,59.9999981689454,0|0,3:0|3:0,3:0:0:0:
223,219,70267,1,0,0:0:0:0:
223,219,70382,2,0,L|222:290,1,59.9999981689454
78,340,70844,6,0,L|86:246,2,75
102,121,71766,2,0,P|144:108|193:117,1,75,0|0,3:0|3:0,3:0:0:0:
174,110,72228,2,0,L|169:175,1,50
363,251,72574,2,0,L|316:246,1,25
212,155,72921,1,0,3:0:0:0:
170,159,73036,1,0,3:0:0:0:
193,273,73266,1,0,3:0:0:0:
154,251,73382,1,0,3:0:0:0:
112,252,73497,5,0,3:0:0:0:
72,268,73613,1,0,3:0:0:0:
50,304,73728,1,0,3:0:0:0:
57,345,73843,1,0,3:0:0:0:
94,366,73959,1,0,3:0:0:0:
133,371,74074,2,0,L|200:376,1,50,0|0,3:0|3:0,3:0:0:0:
300,371,74420,1,0,3:0:0:0:
342,366,74536,6,0,L|335:289,1,75,0|0,3:0|3:0,3:0:0:0:
329,98,74998,2,0,L|243:105,1,59.9999981689454
163,236,75460,2,0,L|75:230,1,75,0|0,3:0|3:0,3:0:0:0:
88,230,75920,2,0,P|82:246|81:269,1,25
34,318,76151,2,0,P|50:329|67:337,1,25
275,342,76383,6,0,L|366:335,2,75
140,110,77306,2,0,P|178:96|207:98,1,59.9999981689454,0|0,3:0|3:0,3:0:0:0:
197,96,77652,1,0,0:0:0:0:
197,96,77767,2,0,L|196:167,1,59.9999981689454
40,205,78229,6,0,L|31:111,2,75
54,360,79151,2,0,P|86:351|111:311,1,75,0|0,3:0|3:0,3:0:0:0:
118,277,79613,1,0,3:0:0:0:
118,277,79843,2,0,L|143:279,1,25,0|0,3:0|3:0,3:0:0:0:
212,351,80074,6,0,L|270:351,1,50,0|0,3:0|3:0,3:0:0:0:
300,355,80420,1,0,3:0:0:0:
346,354,80536,1,0,3:0:0:0:
378,234,80766,1,0,3:0:0:0:
382,191,80882,1,0,3:0:0:0:
386,147,80997,2,0,L|389:109,1,25,0|0,3:0|3:0,3:0:0:0:
128,235,81343,1,0,3:0:0:0:
169,238,81459,2,0,L|236:243,1,50,0|0,3:0|3:0,3:0:0:0:
261,243,81805,1,0,3:0:0:0:
303,240,81920,6,0,L|380:233,1,75,0|0,3:0|3:0,3:0:0:0:
156,129,82382,2,0,L|149:42,1,59.9999981689454
195,259,82843,2,0,L|107:253,1,75,0|0,3:0|3:0,3:0:0:0:
71,266,83305,1,0,0:0:0:0:
33,299,83420,1,0,0:0:0:0:
41,348,83536,1,0,0:0:0:0:
88,363,83651,1,0,0:0:0:0:
137,358,83766,6,0,L|200:352,1,50,0|0,3:0|3:0,3:0:0:0:
279,280,84113,2,0,L|350:273,1,50,0|0,3:0|3:0,3:0:0:0:
432,251,84459,1,0,3:0:0:0:
228,56,84690,2,0,P|266:42|295:44,1,59.9999981689454,0|0,3:0|3:0,3:0:0:0:
285,42,85036,1,0,0:0:0:0:
285,42,85151,2,0,L|284:113,1,59.9999981689454
101,265,85613,6,0,P|88:236|89:207,1,50,0|0,3:0|3:0,3:0:0:0:
116,94,85959,2,0,P|129:65|128:36,1,50,0|0,3:0|3:0,3:0:0:0:
28,161,86305,1,0,3:0:0:0:
210,298,86536,1,0,3:0:0:0:
512,25,86997,1,0,3:0:0:0:
301,72,87228,1,0,3:0:0:0:
472,270,87459,1,0,3:0:0:0:
464,220,87574,1,0,3:0:0:0:
457,160,87690,1,0,3:0:0:0:
218,203,87920,6,8,L|222:249,2,42.5000008106232
205,85,88266,1,8,0:0:0:0:
127,272,88382,2,8,L|131:318,1,42.5000008106232
352,119,88613,2,8,L|348:76,2,42.5000008106232
373,282,88959,1,8,0:0:0:0:
218,203,89074,2,8,L|214:160,1,42.5000008106232
373,282,89305,6,4,P|423:204|399:141,1,150
0,90,89766,2,14,B|70:75|70:75|149:88|149:88|230:70,1,225.000008583069
108,359,90228,2,4,P|60:373|13:361,1,100
220,72,90574,2,4,P|270:98|291:136,1,100
136,247,90920,2,4,P|118:227|113:206,1,50
414,323,91151,6,4,P|491:180|374:67,1,350
94,371,92074,2,4,P|147:383|190:368,1,100
393,223,92420,1,0,0:0:0:0:
393,223,92536,2,0,L|388:173,1,50
243,243,92766,2,0,L|248:309,1,50
512,105,92997,6,4,P|343:34|255:156,1,350
474,384,93920,2,4,P|504:337|505:291,1,100
168,110,94266,2,4,P|207:141|256:144,1,100
505,293,94613,2,4,P|466:262|417:259,1,100
168,110,94959,2,4,P|138:157|137:203,1,100
417,258,95305,6,8,L|410:187,1,50
321,293,95536,2,8,L|325:342,1,50
512,187,95766,2,8,L|505:116,1,50
212,299,95997,2,8,L|216:348,1,50
305,202,96228,2,8,L|298:131,1,50
115,305,96459,2,8,L|119:354,1,50
408,382,96690,6,4,P|484:342|500:273,1,150
134,91,97151,2,6,B|151:161|151:161|196:227|196:227|214:308,1,225.000008583069
455,22,97613,2,4,P|473:89|449:137,1,100
298,336,97959,2,4,P|230:318|201:273,1,100
259,58,98305,2,4,P|242:92|246:117,1,50
10,284,98536,6,4,P|158:319|296:172,1,350
35,52,99459,2,4,P|17:119|41:167,1,100
291,193,99805,1,0,0:0:0:0:
291,193,99920,2,0,L|286:129,1,50
137,182,100151,2,0,L|141:237,1,50
445,339,100382,6,4,P|480:191|338:48,1,350
115,298,101305,2,4,P|152:330|201:336,1,100
366,147,101651,2,4,P|375:98|356:52,1,100
197,148,101997,2,4,P|182:192|207:247,1,100
442,271,102343,2,4,P|378:242|326:256,1,100
200,240,102690,6,8,L|207:311,1,50
350,245,102921,2,8,L|346:196,1,50
60,223,103151,2,8,L|67:294,1,50
362,384,103382,2,8,L|358:335,1,50
206,332,103613,2,8,L|213:403,1,50
318,132,103844,2,8,L|314:83,1,50
436,323,104074,6,4,P|486:245|462:182,1,150
122,32,104536,2,14,B|139:102|139:102|184:168|184:168|203:257,1,225.000008583069
472,195,104997,2,4,P|484:141|469:98,1,100
204,334,105343,2,4,P|187:282|199:238,1,100
435,323,105690,2,4,P|438:298|432:273,1,50
120,384,105920,6,4,P|2:271|78:127,1,350
341,310,106843,2,4,P|353:257|338:214,1,100
221,71,107189,1,0,0:0:0:0:
221,71,107305,2,0,L|226:137,1,50
338,215,107535,2,0,L|333:165,1,50
78,0,107766,6,4,P|7:169|129:257,1,350
409,353,108689,2,4,P|439:306|440:260,1,100
204,102,109036,2,4,P|253:105|294:133,1,100
165,369,109382,2,4,P|195:322|196:276,1,100
81,100,109728,2,4,P|43:141|34:186,1,100
196,278,110074,6,8,L|125:285,1,50
0,297,110305,2,8,L|49:293,1,50
339,269,110535,2,8,L|268:276,1,50
81,100,110766,2,8,L|130:96,1,50
282,82,110997,2,8,L|211:89,1,50
196,278,111228,2,8,L|245:274,1,50
419,372,111459,6,4,P|495:332|511:263,1,150
167,66,111920,2,6,B|184:136|184:136|229:202|229:202|247:283,1,225.000008583069
378,0,112382,2,4,P|396:67|372:115,1,100
244,273,112728,2,4,P|176:255|147:210,1,100
276,54,113074,2,4,P|259:88|263:113,1,50
105,341,113305,6,4,P|266:379|396:234,1,350
50,65,114228,2,4,P|32:132|56:180,1,100
256,76,114574,1,0,0:0:0:0:
256,76,114689,2,0,L|251:12,1,50
40,159,114920,2,0,L|44:214,1,50
337,367,115151,6,4,P|458:276|442:75,1,350
154,218,116074,2,4,P|161:266|195:302,1,100
454,91,116420,2,4,P|447:43|413:7,1,100
435,308,116766,2,4,P|469:272|476:223,1,100
196,30,117113,2,4,P|161:65|154:114,1,100
166,314,117459,6,8,L|173:385,1,50
274,291,117690,2,8,L|270:242,1,50
52,264,117920,2,8,L|59:335,1,50
365,211,118151,2,8,L|361:162,1,50
247,96,118382,2,8,L|254:167,1,50
378,354,118613,2,8,L|374:305,1,50
251,145,118843,6,2,L|296:140,1,34.9999989318848
258,264,119190,2,2,L|303:259,1,34.9999989318848
128,334,119536,2,2,L|173:329,1,34.9999989318848
108,220,119882,2,2,L|153:215,1,34.9999989318848
93,97,120228,2,2,L|138:92,1,34.9999989318848
243,112,120574,6,2,L|243:120,1,8.7499997329712
243,112,120690,2,2,L|247:159,1,34.9999989318848
350,154,121036,2,2,L|354:200,1,34.9999989318848
434,86,121382,2,2,L|438:132,1,34.9999989318848
450,234,121728,2,2,L|454:280,1,34.9999989318848
340,288,122074,2,2,L|344:334,1,34.9999989318848
214,327,122420,5,2,0:0:0:0:
213,327,122536,2,2,L|259:322,1,34.9999989318848
168,234,122882,2,2,L|214:229,1,34.9999989318848
126,124,123228,2,2,L|172:119,1,34.9999989318848
261,39,123574,2,2,L|307:34,1,34.9999989318848
343,174,123920,2,2,L|389:169,1,34.9999989318848
296,316,124266,2,2,L|342:311,1,34.9999989318848
130,248,124613,2,2,L|176:243,1,34.9999989318848
153,100,124959,2,2,L|199:95,1,34.9999989318848
405,80,125305,5,2,0:0:0:0:
381,277,125651,1,2,0:0:0:0:
381,277,125766,1,2,0:0:0:0:
215,185,126113,1,2,0:0:0:0:
215,185,126228,6,2,L|218:229,1,34.9999989318848
114,151,126574,2,2,L|117:195,1,34.9999989318848
181,57,126920,2,2,L|184:101,1,34.9999989318848
272,16,127266,2,2,L|275:60,1,34.9999989318848
371,55,127613,2,2,L|374:99,1,34.9999989318848
387,191,127959,5,2,0:0:0:0:
387,191,128074,2,2,L|342:193,1,34.9999989318848
329,289,128420,2,2,L|284:291,1,34.9999989318848
188,296,128766,2,2,L|143:298,1,34.9999989318848
225,194,129113,2,2,L|180:196,1,34.9999989318848
266,96,129459,2,2,L|221:98,1,34.9999989318848
127,105,129805,5,2,0:0:0:0:
126,105,129920,2,2,L|130:151,1,34.9999989318848
30,157,130266,2,2,L|33:203,1,34.9999989318848
45,276,130613,2,2,L|48:322,1,34.9999989318848
124,232,130959,2,2,L|127:278,1,34.9999989318848
205,197,131305,2,2,L|208:243,1,34.9999989318848
293,198,131651,2,2,L|296:244,1,34.9999989318848
389,235,131997,2,2,L|392:281,1,34.9999989318848
393,97,132343,2,2,L|396:143,1,34.9999989318848
290,163,132690,6,2,L|293:209,1,34.9999989318848
301,333,133036,1,2,0:0:0:0:
301,333,133151,1,2,0:0:0:0:
406,197,133382,1,2,0:0:0:0:
406,197,133497,1,2,0:0:0:0:
406,197,133613,6,2,L|362:193,1,34.9999989318848
361,84,133959,2,2,L|317:80,1,34.9999989318848
215,67,134305,2,2,L|171:63,1,34.9999989318848
251,172,134651,2,2,L|207:168,1,34.9999989318848
273,281,134997,2,2,L|229:277,1,34.9999989318848
112,266,135343,6,2,B|113:255,1,8.7499997329712
112,266,135459,2,2,L|116:222,1,34.9999989318848
201,205,135805,2,2,L|205:161,1,34.9999989318848
294,154,136151,2,2,L|298:110,1,34.9999989318848
396,111,136497,2,2,L|400:67,1,34.9999989318848
373,248,136843,2,2,L|377:204,1,34.9999989318848
396,111,137190,5,2,0:0:0:0:
396,111,137305,2,2,L|437:114,1,34.9999989318848
456,204,137651,2,2,L|497:207,1,34.9999989318848
394,304,137997,2,2,L|435:307,1,34.9999989318848
257,329,138343,2,2,L|298:332,1,34.9999989318848
240,217,138690,2,2,L|281:220,1,34.9999989318848
213,113,139036,2,2,L|254:116,1,34.9999989318848
274,25,139382,2,2,L|315:28,1,34.9999989318848
363,105,139728,2,2,L|404:108,1,34.9999989318848
404,205,140074,6,2,L|445:208,1,34.9999989318848
287,198,140420,1,2,0:0:0:0:
287,198,140536,2,2,L|252:194,1,34.9999989318848
146,183,140882,1,2,0:0:0:0:
146,183,140997,6,2,L|149:225,1,34.9999989318848
162,352,141343,2,2,P|196:354|221:348,2,52.4999983978272
51,319,142151,2,2,L|53:298,1,17.4999994659424
137,227,142382,2,2,L|134:249,2,17.4999994659424
47,137,142728,1,2,0:0:0:0:
47,137,142843,6,2,L|93:132,1,34.9999989318848
148,46,143190,2,2,L|194:41,1,34.9999989318848
256,116,143536,2,2,L|302:111,1,34.9999989318848
318,220,143882,1,2,0:0:0:0:
318,220,143997,1,2,0:0:0:0:
318,220,144113,2,2,L|348:217,1,17.4999994659424
291,333,144343,1,2,0:0:0:0:
291,333,144459,2,2,L|273:334,1,17.4999994659424
181,327,144690,6,2,L|185:277,1,34.9999989318848
93,275,145036,2,2,L|95:250,2,17.4999994659424
115,170,145382,2,2,L|117:145,2,17.4999994659424
149,62,145728,2,2,L|151:31,1,17.4999994659424
288,87,145959,2,2,L|290:62,2,17.4999994659424
357,178,146305,2,2,L|359:153,2,17.4999994659424
398,285,146651,2,2,L|400:255,2,17.4999994659424
289,306,146997,2,2,L|292:273,2,17.4999994659424
186,328,147343,6,2,L|188:300,2,17.4999994659424
212,189,147690,1,2,0:0:0:0:
212,189,147805,1,2,0:0:0:0:
212,189,147920,2,2,L|214:157,1,17.4999994659424
232,73,148151,1,2,0:0:0:0:
232,73,148266,1,2,0:0:0:0:
232,73,148382,6,2,L|280:77,1,44.999998626709
305,217,148728,2,2,L|353:221,1,44.999998626709
109,250,149074,2,2,L|157:254,1,44.999998626709
329,333,149420,2,2,L|377:337,1,44.999998626709
167,168,149766,2,2,L|215:172,1,44.999998626709
393,173,150113,6,2,L|390:188,1,11.2499996566773
393,173,150228,2,2,L|389:233,1,44.999998626709
242,258,150574,2,2,L|237:318,1,44.999998626709
261,90,150920,2,2,L|256:150,1,44.999998626709
104,186,151266,2,2,L|99:246,1,44.999998626709
331,237,151613,2,2,L|326:297,1,44.999998626709
167,101,151959,5,2,0:0:0:0:
167,101,152074,2,2,L|214:105,1,44.999998626709
167,234,152420,2,2,L|214:238,1,44.999998626709
355,145,152766,2,2,L|402:149,1,44.999998626709
378,329,153113,2,2,L|425:333,1,44.999998626709
163,321,153459,2,2,L|210:325,1,44.999998626709
174,166,153805,2,2,L|221:170,1,44.999998626709
342,238,154151,2,2,L|389:242,1,44.999998626709
419,109,154497,2,2,L|466:113,1,44.999998626709
180,104,154843,5,2,0:0:0:0:
105,264,155190,1,2,0:0:0:0:
105,264,155305,1,2,0:0:0:0:
314,340,155651,1,2,0:0:0:0:
314,340,155766,6,2,L|309:288,1,44.999998626709
105,264,156113,2,2,L|100:212,1,44.999998626709
259,178,156459,2,2,L|254:126,1,44.999998626709
103,101,156805,2,2,L|96:51,1,44.999998626709
213,295,157151,2,2,L|208:243,1,44.999998626709
257,59,157497,5,2,0:0:0:0:
257,59,157613,2,2,L|311:63,1,44.999998626709
321,223,157959,2,2,L|375:227,1,44.999998626709
85,148,158305,2,2,L|139:152,1,44.999998626709
122,315,158651,2,2,L|176:319,1,44.999998626709
345,333,158997,2,2,L|399:337,1,44.999998626709
255,187,159343,5,2,0:0:0:0:
255,187,159459,2,2,L|259:237,1,44.999998626709
410,70,159805,2,2,L|414:120,1,44.999998626709
430,274,160151,2,2,L|434:324,1,44.999998626709
200,325,160497,2,2,L|204:375,1,44.999998626709
336,132,160843,2,2,L|340:182,1,44.999998626709
363,339,161190,2,2,L|367:389,1,44.999998626709
154,182,161536,2,2,L|158:232,1,44.999998626709
332,87,161882,2,2,L|336:137,1,44.999998626709
363,339,162228,5,2,0:0:0:0:
252,161,162574,1,2,0:0:0:0:
252,161,162690,1,2,0:0:0:0:
494,230,163036,1,0,0:0:0:0:
494,230,163151,6,0,L|438:234,1,44.999998626709,0|0,3:0|3:0,3:0:0:0:
281,305,163497,1,0,3:0:0:0:
281,305,163613,2,0,L|225:309,1,44.999998626709,0|0,3:0|3:0,3:0:0:0:
350,109,163959,1,0,3:0:0:0:
350,109,164074,2,0,L|294:113,1,44.999998626709,0|0,3:0|3:0,3:0:0:0:
96,130,164420,1,0,3:0:0:0:
96,130,164536,2,0,L|40:134,1,44.999998626709,0|0,3:0|3:0,3:0:0:0:
261,257,164882,1,0,3:0:0:0:
261,257,164997,6,0,L|256:201,1,44.999998626709,0|0,3:0|3:0,3:0:0:0:
82,311,165344,1,0,3:0:0:0:
82,311,165459,2,0,L|77:260,1,44.999998626709,0|0,3:0|3:0,3:0:0:0:
188,153,165805,1,0,3:0:0:0:
188,153,165920,2,0,L|183:102,1,44.999998626709,0|0,3:0|3:0,3:0:0:0:
350,240,166266,1,0,3:0:0:0:
350,240,166382,2,0,L|345:189,1,44.999998626709,0|0,3:0|3:0,3:0:0:0:
144,324,166728,1,0,3:0:0:0:
144,324,166843,6,0,L|194:319,1,44.999998626709,0|0,3:0|3:0,3:0:0:0:
68,129,167190,1,0,3:0:0:0:
68,129,167305,2,0,L|117:124,1,44.999998626709,0|0,3:0|3:0,3:0:0:0:
271,172,167651,1,0,3:0:0:0:
271,172,167766,2,0,L|320:167,1,44.999998626709,0|0,3:0|3:0,3:0:0:0:
104,304,168113,1,0,3:0:0:0:
104,304,168228,2,0,L|153:299,1,44.999998626709,0|0,3:0|3:0,3:0:0:0:
30,81,168574,1,0,3:0:0:0:
30,81,168690,2,0,L|79:76,1,44.999998626709,0|0,3:0|3:0,3:0:0:0:
325,97,169036,1,0,3:0:0:0:
325,97,169151,6,8,L|328:136,1,22.4999993133545
231,203,169382,2,8,L|229:180,1,22.4999993133545
396,25,169613,2,8,L|399:64,1,22.4999993133545
440,353,169843,2,8,L|438:330,1,22.4999993133545
151,272,170074,2,8,L|154:311,1,22.4999993133545
303,333,170305,2,8,L|301:310,1,22.4999993133545
281,126,170536,5,8,3:0:0:0:
135,182,170690,1,8,3:0:0:0:
251,245,170843,1,8,3:0:0:0:
185,90,170997,1,8,3:0:0:0:
151,272,171151,1,8,3:0:0:0:
355,214,171305,1,8,3:0:0:0:
37,204,171459,5,8,3:0:0:0:
251,245,171613,1,8,3:0:0:0:
185,90,171766,1,8,3:0:0:0:
151,272,171920,1,8,3:0:0:0:
355,214,172074,1,8,3:0:0:0:
80,101,172228,1,8,3:0:0:0:
36,303,172382,5,8,3:0:0:0:
251,245,172536,1,8,3:0:0:0:
37,204,172690,1,8,3:0:0:0:
172,368,172843,1,8,3:0:0:0:
185,90,172997,1,8,3:0:0:0:
37,204,173151,1,8,3:0:0:0:
251,245,173305,5,8,3:0:0:0:
80,101,173459,1,8,3:0:0:0:
151,272,173613,1,8,3:0:0:0:
185,90,173766,1,8,3:0:0:0:
37,204,173920,1,8,3:0:0:0:
251,245,174074,1,8,3:0:0:0:
185,90,174228,5,8,3:0:0:0:
152,246,176997,5,8,0:0:0:0:
161,196,177113,1,8,0:0:0:0:
169,146,177228,1,8,0:0:0:0:
427,358,177459,1,8,0:0:0:0:
434,291,177574,1,8,0:0:0:0:
444,223,177690,1,8,0:0:0:0:
456,156,177805,1,8,0:0:0:0:
464,88,177920,6,4,P|302:42|165:156,1,350
451,358,178843,2,4,P|463:304|448:261,1,100
169,146,179190,2,4,P|156:193|170:241,1,100
343,252,179536,2,4,P|315:261|284:256,1,50
13,93,179766,6,4,P|156:16|269:133,1,350
497,338,180689,2,4,P|454:371|408:375,1,100
186,180,181036,2,4,P|225:143|270:134,1,100
329,319,181382,2,0,P|303:305|294:285,1,50
92,48,181612,6,4,P|21:217|143:305,1,350
436,360,182535,2,4,P|466:313|467:267,1,100
300,43,182882,2,4,P|270:90|269:136,1,100
512,180,183228,2,4,P|472:140|406:141,1,100
79,218,183574,2,4,P|119:258|185:257,1,100
288,252,183920,6,8,L|281:181,1,50
156,214,184151,2,8,L|160:263,1,50
407,244,184381,2,8,L|400:173,1,50
136,81,184612,2,8,L|140:130,1,50
294,252,184843,2,8,L|287:181,1,50
276,64,185074,2,8,L|280:113,1,50
0,311,185305,6,4,P|162:357|299:243,1,350
83,32,186228,2,4,P|30:48|0:83,1,100
313,275,186574,2,4,P|307:225|275:187,1,100
105,320,186920,2,4,P|117:298|139:286,1,50
339,29,187151,6,4,P|489:89|472:250,1,350
99,196,188074,2,4,P|135:156|180:144,1,100
470,252,188420,2,4,P|434:292|389:304,1,100
255,205,188767,2,0,P|284:204|303:210,1,50
68,24,188997,6,4,P|-3:193|119:281,1,350
440,341,189920,2,4,P|470:294|471:248,1,100
107,280,190266,2,4,P|156:274|195:245,1,100
91,62,190613,2,4,P|94:119|136:152,1,100
363,96,190959,2,4,P|294:80|244:97,1,100
123,147,191305,6,8,L|127:196,1,50
235,246,191536,2,8,L|231:197,1,50
262,36,191766,2,8,L|266:85,1,50
140,353,191997,2,8,L|136:304,1,50
359,185,192228,2,8,L|363:234,1,50
308,384,192459,2,8,L|304:335,1,50
294,60,192690,6,4,P|132:14|-5:128,1,350
375,240,193613,2,4,P|387:186|372:143,1,100
127,124,193959,2,4,P|115:178|130:221,1,100
275,225,194305,2,4,P|248:229|226:225,1,50
388,0,194536,6,4,P|509:108|437:254,1,350
124,61,195459,2,4,P|177:68|213:97,1,100
437,254,195805,2,4,P|383:252|345:227,1,100
414,34,196152,2,0,P|419:61|414:82,1,50
256,294,196382,6,4,P|87:365|-1:243,1,350
216,20,197305,2,4,P|265:25|304:54,1,100
386,346,197651,2,4,P|416:299|417:253,1,100
95,192,197998,2,4,P|140:167|199:173,1,100
106,289,198343,2,4,P|148:313|198:312,1,100
187,168,198690,6,8,L|180:97,1,50
330,58,198921,2,8,L|334:107,1,50
297,280,199151,2,8,L|290:209,1,50
60,48,199382,2,8,L|64:97,1,50
334,107,199613,2,8,L|327:36,1,50
182,118,199844,2,8,L|186:167,1,50
87,334,200075,6,4,P|249:380|386:266,1,350
133,15,200998,2,4,P|80:31|50:66,1,100
381,275,201344,2,4,P|375:225|343:187,1,100
174,287,201690,2,4,P|190:265|208:253,1,50
356,17,201921,6,4,P|466:134|383:273,1,350,4|4,2:0|0:0,0:0:0:0:
85,79,202844,2,4,P|134:57|180:66,1,100
379,274,203190,2,4,P|330:296|284:287,1,100
187,155,203537,2,0,P|201:179|201:206,1,50
506,143,203767,6,4,P|371:18|247:103,1,350
60,361,204690,2,4,P|30:314|29:268,1,100
383,236,205036,2,4,P|343:265|294:271,1,100
281,16,205383,2,4,P|278:40|267:63,1,50
267,64,206074,6,8,L|271:113,1,50
139,220,206305,2,8,L|135:171,1,50
276,164,206536,1,8,0:0:0:0:
283,228,206652,1,8,0:0:0:0:
290,292,206767,1,8,0:0:0:0:
299,356,206882,1,8,0:0:0:0:
191,315,206997,1,8,0:0:0:0:
183,250,207113,1,8,0:0:0:0:
176,185,207228,1,8,0:0:0:0:
166,120,207343,1,8,0:0:0:0:
159,57,207459,6,4,P|383:90|451:276,1,437.5
60,99,208382,2,4,P|44:165|66:224,1,125
452,267,208728,2,4,P|389:239|325:258,1,125
72,336,209074,2,4,P|110:337|142:318,1,62.5
236,41,209305,6,4,P|404:138|322:340,1,437.5
39,59,210228,2,4,P|47:126|111:164,1,125
448,144,210574,2,4,P|440:77|376:39,1,125
272,228,210921,2,4,P|309:224|336:208,1,62.5
0,302,211151,6,4,P|169:373|332:208,1,437.5
23,9,212074,2,4,P|11:80|33:130,1,125
439,256,212420,2,4,P|393:217|317:217,1,125
97,328,212766,2,4,P|224:345|330:213,1,312.5
422,227,213459,6,4,P|388:137|284:142,1,187.5
191,147,213920,2,4,B|116:205|116:205|202:251,1,187.5
272,290,214382,2,4,P|374:289|424:217,1,187.5
0,241,214843,6,4,P|124:51|321:68,1,437.5
95,383,215766,2,4,P|77:323|93:264,1,125
508,301,216112,2,4,P|452:273|392:284,1,125
190,371,216458,2,4,P|228:372|260:353,1,62.5
0,103,216689,6,4,P|175:21|294:204,1,437.5
0,313,217612,2,4,P|32:356|104:385,1,125
482,242,217959,2,4,P|431:216|352:218,1,125
258,368,218305,2,4,P|298:357|316:338,1,62.5
0,76,218535,6,4,P|169:5|332:170,1,437.5
54,351,219459,2,4,P|333:159|100:12,1,687.5
341,281,220843,6,4,P|423:320|512:296,1,187.5
311,0,221305,2,4,P|325:59|304:117,1,125
30,370,221651,2,4,P|16:311|37:253,1,125
341,281,221997,2,4,P|314:298|285:299,1,62.5
0,82,222228,6,4,P|217:16|357:155,1,437.5
28,384,223151,2,4,P|10:324|26:265,1,125
451,137,223497,2,4,P|469:197|453:256,1,125
265,237,223843,2,4,P|299:227|330:229,1,62.5
28,384,224074,6,4,P|27:190|243:160,1,437.5
497,384,224997,2,4,P|500:330|463:261,1,125
85,278,225344,2,4,P|46:320|28:397,1,125
309,347,225690,2,4,P|273:336|242:339,1,62.5
0,76,225920,6,4,P|169:5|332:170,1,437.5
27,379,226843,2,4,P|18:314|53:250,1,125
460,99,227190,2,4,P|405:156|353:155,1,125
137,89,227536,2,4,P|226:106|244:303,1,312.5
239,379,228228,6,4,P|323:351|361:256,1,187.5
330,178,228690,2,4,B|272:103|272:103|226:189,1,187.5
208,270,229151,2,4,P|148:338|58:333,1,187.5
264,25,229613,6,4,P|454:148|437:346,1,437.5
41,140,230536,2,4,P|94:107|155:107,1,125
441,338,230882,2,4,P|385:366|325:355,1,125
335,98,231228,2,4,P|334:136|353:168,1,62.5
0,330,231459,6,4,P|200:353|258:160,1,437.5
45,21,232382,2,4,P|19:72|21:151,1,125
376,187,232729,2,4,P|325:161|246:163,1,125
205,365,233075,2,4,P|232:339|245:311,1,62.5
418,29,233305,6,4,P|489:198|324:361,1,437.5
303,36,234229,2,4,P|24:228|257:375,1,687.5
459,346,235613,1,8,0:0:0:0:
457,283,235728,1,8,0:0:0:0:
455,220,235843,1,8,0:0:0:0:
453,157,235959,1,8,0:0:0:0:
452,94,236074,2,8,P|393:80|335:101,1,125
58,270,236420,1,8,0:0:0:0:
121,268,236535,1,8,0:0:0:0:
184,266,236650,1,8,0:0:0:0:
247,264,236766,2,8,L|310:260,1,62.5
16,49,236997,6,4,P|240:82|308:268,1,437.5
0,136,237920,2,4,P|66:152|125:130,1,125
502,33,238266,2,4,P|439:5|375:24,1,125
315,267,238612,2,4,P|346:246|362:212,1,62.5
106,28,238843,6,4,P|31:122|57:185,1,187.5
131,268,239305,2,4,B|196:277|196:277|251:259|251:259|326:268,1,187.5
350,23,239766,1,4,0:0:0:0:
350,23,239882,2,4,L|344:85,1,62.5
429,377,240113,2,4,L|434:315,2,62.5
285,69,240459,2,4,P|322:73|349:89,1,62.5
0,302,240689,6,4,P|42:334|73:335,1,62.5
244,333,240920,1,4,0:0:0:0:
244,333,241036,1,4,0:0:0:0:
244,333,241151,2,4,B|260:251|260:251|236:190|236:190|245:132,1,187.5
23,9,241612,2,4,P|11:80|33:130,1,125
439,256,241959,2,4,P|393:217|317:217,1,125
97,328,242304,2,4,P|208:348|276:299,1,187.5
321,202,242766,5,8,0:0:0:0:
321,202,242882,1,8,0:0:0:0:
321,202,242997,2,12,P|287:112|183:117,1,187.5
232,183,243459,1,8,0:0:0:0:
230,245,243574,1,8,0:0:0:0:
228,307,243690,1,8,0:0:0:0:
228,369,243805,1,8,0:0:0:0:
312,357,243920,1,8,0:0:0:0:
312,295,244036,1,8,0:0:0:0:
314,233,244151,1,8,0:0:0:0:
316,171,244266,1,8,0:0:0:0:
316,108,244382,6,4,P|100:178|65:373,1,437.5,4|4,1:0|1:0,1:0:0:0:
437,223,245305,2,4,P|455:163|439:104,1,125
179,339,245651,2,4,P|239:349|294:321,1,125
190,82,245997,2,4,P|189:120|208:152,1,62.5
425,346,246228,6,4,P|499:158|328:52,1,437.5
43,312,247151,1,4,0:0:0:0:
43,312,247266,2,4,L|148:302,1,62.5
415,194,247497,2,4,L|351:199,2,62.5
197,356,247843,2,4,P|228:322|232:297,1,62.5
0,76,248074,6,4,P|169:5|363:156,1,437.5
0,76,248997,2,4,P|243:328|353:118,1,687.5
56,248,250381,6,8,P|71:206|104:179,1,62.5
200,95,250613,2,8,L|271:88,1,62.5
315,81,250843,1,8,0:0:0:0:
377,75,250959,1,8,0:0:0:0:
439,72,251074,1,8,0:0:0:0:
501,69,251190,1,8,0:0:0:0:
448,172,251305,1,8,0:0:0:0:
386,175,251420,1,8,0:0:0:0:
324,178,251536,1,8,0:0:0:0:
263,184,251651,1,8,0:0:0:0:
201,191,251766,6,4,P|108:167|271:56,1,437.5
432,326,252689,2,4,P|450:266|434:207,1,125
201,191,253036,2,4,P|183:251|199:310,1,125
350,247,253381,2,4,P|321:258|290:256,1,62.5
3,141,253612,6,4,P|161:28|309:188,1,437.5
63,338,254536,1,4,0:0:0:0:
63,338,254651,2,4,L|131:332,1,62.5
371,170,254882,2,4,L|303:175,2,62.5
91,243,255228,2,4,P|76:212|79:175,1,62.5
391,30,255458,6,4,P|462:199|297:362,1,437.5
31,92,256382,2,4,P|79:47|151:39,1,125
265,328,256728,2,4,P|217:373|145:381,1,125
232,56,257074,2,4,P|268:91|270:119,1,62.5
269,142,257305,5,8,0:0:0:0:
267,204,257420,1,8,0:0:0:0:
265,266,257536,1,8,0:0:0:0:
265,328,257651,1,8,0:0:0:0:
164,357,257766,1,8,0:0:0:0:
164,295,257882,1,8,0:0:0:0:
166,233,257997,1,8,0:0:0:0:
168,171,258112,1,8,0:0:0:0:
170,65,258228,5,8,0:0:0:0:
232,59,258344,1,8,0:0:0:0:
294,56,258459,1,8,0:0:0:0:
356,53,258574,1,8,0:0:0:0:
395,140,258690,1,8,0:0:0:0:
333,143,258805,1,8,0:0:0:0:
271,146,258921,1,8,0:0:0:0:
210,152,259036,1,8,0:0:0:0:
494,316,259151,6,4,P|301:364|137:192,1,437.5,4|4,1:0|1:0,1:0:0:0:
434,37,260074,2,4,P|451:81|446:112,1,62.5
369,285,260305,2,4,L|291:278,1,62.5
43,128,260536,2,4,L|110:133,1,62.5
355,368,260766,2,4,L|267:360,1,62.5
40,43,260997,6,4,P|235:89|224:290,1,437.5
40,43,261920,1,4,0:0:0:0:
40,43,262036,2,4,L|45:104,1,62.5
224,291,262267,2,4,L|218:211,2,62.5
179,76,262613,2,4,P|228:69|263:84,1,62.5
390,296,262843,6,4,P|221:367|58:202,1,437.5
390,296,263767,2,4,P|198:21|57:215,1,687.5
301,362,265151,5,8,0:0:0:0:
299,299,265266,1,8,0:0:0:0:
297,236,265381,1,8,0:0:0:0:
295,173,265497,1,8,0:0:0:0:
294,110,265612,2,8,P|235:96|174:122,1,125
47,308,265958,1,8,0:0:0:0:
110,306,266073,1,8,0:0:0:0:
173,304,266190,1,8,0:0:0:0:
236,302,266304,2,8,L|299:298,1,62.5
429,282,266536,6,2,L|424:241,3,22.4999993133545
331,190,266997,2,2,L|326:149,3,22.4999993133545
198,126,267459,2,2,L|193:85,3,22.4999993133545
63,66,267920,2,2,L|58:25,3,22.4999993133545
85,225,268382,6,2,P|123:299|202:313,1,157.499995193482
411,301,269305,2,0,L|405:239,1,44.999998626709,0|0,3:0|3:0,3:0:0:0:
387,99,269651,1,0,3:0:0:0:
387,99,269766,2,2,L|344:102,1,22.4999993133545
148,204,269997,2,2,L|170:202,1,22.4999993133545
411,301,270228,6,2,P|453:227|417:157,1,157.499995193482
186,102,271151,2,0,B|199:160|199:160|178:209|178:209|190:257,1,157.499995193482,0|0,3:0|3:0,3:0:0:0:
188,252,272074,1,2,0:0:0:0:
291,205,272536,1,2,0:0:0:0:
44,91,272997,2,0,L|48:141,1,44.999998626709,0|0,3:0|3:0,3:0:0:0:
53,173,273343,1,0,3:0:0:0:
57,211,273459,2,0,P|84:216|109:211,1,44.999998626709,0|0,3:0|3:0,3:0:0:0:
373,45,273920,6,2,P|393:84|390:121,1,67.4999979400635
347,288,274382,2,2,B|308:282|308:282|295:265|295:265|253:261,1,82.5000025177003
89,249,274843,1,0,3:0:0:0:
89,249,275074,2,2,L|91:208,1,22.4999993133545
94,188,275305,1,2,0:0:0:0:
96,149,275420,1,2,0:0:0:0:
101,111,275536,1,2,0:0:0:0:
105,73,275651,1,2,0:0:0:0:
110,35,275766,6,0,P|198:46|241:105,1,157.499995193482,0|0,3:0|3:0,3:0:0:0:
254,281,276690,2,0,L|172:273,1,67.4999979400635,0|0,3:0|3:0,3:0:0:0:
23,121,277151,2,2,L|51:123,1,22.4999993133545
308,178,277382,2,2,L|285:176,1,22.4999993133545
129,212,277613,2,0,P|129:162|143:133,1,67.4999979400635,0|0,3:0|3:0,3:0:0:0:
202,83,278074,2,2,L|286:90,1,67.4999979400635
426,103,278536,2,0,L|414:265,1,157.499995193482,0|0,3:0|3:0,3:0:0:0:
414,298,279459,6,0,L|378:301,1,22.4999993133545,0|0,3:0|3:0,3:0:0:0:
353,303,279690,1,0,3:0:0:0:
315,307,279805,1,0,3:0:0:0:
277,311,279920,2,0,L|274:273,1,22.4999993133545,0|0,3:0|3:0,3:0:0:0:
270,250,280151,1,0,3:0:0:0:
265,212,280266,1,0,3:0:0:0:
261,173,280382,5,0,3:0:0:0:
258,134,280497,1,0,3:0:0:0:
255,95,280613,1,0,3:0:0:0:
252,56,280728,1,0,3:0:0:0:
175,95,280843,1,0,3:0:0:0:
177,133,280959,1,0,3:0:0:0:
180,170,281074,1,0,3:0:0:0:
184,207,281189,1,0,3:0:0:0:
188,245,281305,6,2,P|198:287|222:318,1,67.4999979400635
438,196,281766,2,2,B|401:205|401:205|377:199|377:199|336:202,1,82.5000025177003
184,207,282228,1,0,3:0:0:0:
148,314,282459,2,2,L|184:317,1,22.4999993133545
208,317,282690,1,0,0:0:0:0:
246,318,282805,1,0,0:0:0:0:
284,320,282920,1,0,0:0:0:0:
322,322,283036,1,0,0:0:0:0:
360,322,283151,6,0,P|398:246|371:182,1,157.499995193482,0|0,3:0|3:0,3:0:0:0:
157,74,284074,2,0,B|141:114|150:150,1,67.4999979400635,0|0,3:0|3:0,3:0:0:0:
309,247,284536,2,2,L|279:249,1,22.4999993133545
94,310,284766,2,2,L|122:307,1,22.4999993133545
227,365,284997,6,0,P|218:312|204:293,1,67.4999979400635,0|0,3:0|3:0,3:0:0:0:
112,212,285459,2,2,L|32:218,1,67.4999979400635
0,384,285920,2,0,B|7:303,1,67.4999979400635,0|0,3:0|3:0,3:0:0:0:
43,128,286382,2,0,P|90:121|123:137,1,67.4999979400635,0|0,3:0|3:0,3:0:0:0:
219,201,286843,6,0,L|216:232,1,22.4999993133545,0|0,3:0|3:0,3:0:0:0:
198,347,287074,2,0,L|258:353,2,44.999998626709,0|0|0,3:0|3:0|3:0,3:0:0:0:
39,348,287766,2,0,P|31:294|44:269,1,67.4999979400635,0|0,3:0|3:0,3:0:0:0:
107,206,288228,2,0,L|168:211,1,44.999998626709,0|0,3:0|3:0,3:0:0:0:
317,215,288690,6,2,P|317:261|296:290,1,67.4999979400635
153,125,289151,2,2,B|189:125|189:125|208:111|208:111|233:111,1,82.5000025177003
365,113,289613,2,0,P|376:153|372:171,1,44.999998626709,0|0,3:0|3:0,3:0:0:0:
322,263,290074,1,0,3:0:0:0:
292,265,290190,1,0,3:0:0:0:
263,270,290305,1,0,3:0:0:0:
234,273,290420,1,0,3:0:0:0:
204,276,290536,6,0,L|166:279,1,22.4999993133545,0|0,3:0|3:0,3:0:0:0:
56,291,290766,2,0,L|53:261,2,22.4999993133545,0|0|0,3:0|3:0|3:0,3:0:0:0:
49,161,291113,2,0,L|80:158,2,22.4999993133545,0|0|0,3:0|3:0|3:0,3:0:0:0:
280,147,291459,1,0,3:0:0:0:
280,147,291690,1,0,3:0:0:0:
280,147,291920,2,2,L|284:196,1,44.999998626709
290,315,292382,5,0,3:0:0:0:
129,235,292613,1,0,3:0:0:0:
285,195,292843,2,0,L|311:192,2,22.4999993133545,0|0|0,3:0|3:0|3:0,3:0:0:0:
129,235,293305,1,0,3:0:0:0:
129,235,293766,5,0,3:0:0:0:
231,117,293997,2,0,L|263:117,4,22.4999993133545,0|0|0|0|0,3:0|3:0|3:0|3:0|3:0,3:0:0:0:
80,120,294690,1,0,3:0:0:0:
80,120,295151,1,0,3:0:0:0:
129,238,295382,1,0,3:0:0:0:
193,131,295613,1,0,3:0:0:0:
232,212,295843,1,0,3:0:0:0:
288,133,296074,6,2,B|335:134|348:113|348:113|361:149|391:163|391:163|351:198|381:233|381:233|334:245|321:296|321:296|281:288|250:305,1,375
256,192,299766,12,2,303228,0:0:0:0:
175,271,303459,6,2,P|262:168|330:276,1,300
256,192,307151,12,2,310613,0:0:0:0:
109,156,310843,6,2,B|159:132|202:209|202:209|227:132|275:145,1,224.999993133545
256,192,314536,12,2,317998,0:0:0:0:
213,273,318228,6,2,B|220:253|217:227|217:227|251:234|274:225|274:225|271:251|279:270|279:270,1,150
256,192,321920,12,2,326536,0:0:0:0:
