osu file format v14

[General]
AudioFilename: audio.mp3
AudioLeadIn: 0
PreviewTime: -1
Countdown: 0
SampleSet: Normal
StackLeniency: 0.7
Mode: 0
LetterboxInBreaks: 0
WidescreenStoryboard: 1

[Editor]
DistanceSpacing: 1.1
BeatDivisor: 4
GridSize: 4
TimelineZoom: 1.4

[Metadata]
Title:Telekinesis
TitleUnicode:Telekinesis
Artist:Arkana
ArtistUnicode:Arkana
Creator:Feezly
Version:Feesane
Source:
Tags:Telekinesis,Arkana
BeatmapID:1070707
BeatmapSetID:503172

[Difficulty]
HPDrainRate:6
CircleSize:4
OverallDifficulty:8
ApproachRate:9
SliderMultiplier:1.4
SliderTickRate:1

[Events]
//Background and Video events
0,0,"AHHNQKDsPW0.jpg",0,0
//Break Periods
//Storyboard Layer 0 (Background)
//Storyboard Layer 1 (Fail)
//Storyboard Layer 2 (Pass)
//Storyboard Layer 3 (Foreground)
//Storyboard Sound Samples

[TimingPoints]
85,375,4,1,0,100,1,0
85,-100,4,1,0,15,0,0
24085,-100,4,1,0,40,0,1
41335,-50,4,1,0,40,0,1
42272,-100,4,1,0,40,0,1
46585,-50,4,1,0,30,0,0
47710,-100,4,1,0,25,0,0
47991,-100,4,1,0,15,0,0
94585,-66.6666666666667,4,1,0,15,0,0
95897,-100,4,1,0,15,0,0
96085,-100,4,1,0,5,0,0
98900,-100,4,1,0,20,0,0
99085,-50,4,1,0,15,0,0

[Colours]
Combo1 : 255,0,255
Combo2 : 0,255,168
Combo3 : 244,250,37
Combo4 : 0,191,255
Combo5 : 255,255,255

[HitObjects]
60,104,85,6,0,P|140:100|160:104,1,70
240,96,460,1,0,0:0:0:0:
152,40,647,1,0,0:0:0:0:
248,96,835,2,0,P|281:104|315:98,1,70
392,156,1210,2,0,P|364:184|324:224,1,70
268,264,1585,2,0,P|212:276|176:264,1,70
84,244,1960,1,0,0:0:0:0:
160,148,2147,1,0,0:0:0:0:
168,148,2241,5,0,0:0:0:0:
176,148,2335,2,0,P|220:168|236:204,1,70
236,272,2710,2,0,P|292:264|316:240,1,70
372,216,3085,5,0,0:0:0:0:
432,140,3272,1,0,0:0:0:0:
308,184,3460,5,0,0:0:0:0:
308,92,3647,1,0,0:0:0:0:
240,208,3835,5,0,0:0:0:0:
188,136,4022,1,0,0:0:0:0:
304,152,4210,5,0,0:0:0:0:
316,56,4397,1,0,0:0:0:0:
232,120,4585,2,0,B|192:108|172:72,1,70
168,204,4960,5,0,0:0:0:0:
288,244,5147,1,0,0:0:0:0:
288,244,5241,1,0,0:0:0:0:
292,244,5335,2,0,P|344:248|380:268,1,70
312,172,5710,1,0,0:0:0:0:
336,292,5897,1,0,0:0:0:0:
208,308,6085,6,0,P|198:274|176:248,1,70
88,216,6460,1,0,0:0:0:0:
184,192,6647,1,0,0:0:0:0:
96,92,6835,2,0,P|107:125|133:149,1,70
224,216,7210,2,0,P|264:204|308:172,1,70
152,280,7585,2,0,P|121:267|92:236,1,70
240,280,7960,1,0,0:0:0:0:
316,216,8147,1,0,0:0:0:0:
316,216,8241,1,0,0:0:0:0:
316,216,8335,2,0,P|364:208|384:184,1,70
416,92,8710,2,0,L|340:120,1,70
168,116,9085,5,0,0:0:0:0:
264,76,9272,1,0,0:0:0:0:
156,120,9460,2,0,P|140:144|116:184,1,70
208,236,9835,2,0,P|208:272|208:308,1,70
208,200,10210,1,0,0:0:0:0:
256,304,10397,1,0,0:0:0:0:
152,200,10585,2,0,P|120:187|86:190,1,70
180,124,10960,2,0,P|214:130|248:122,1,70
280,108,11241,1,0,0:0:0:0:
308,88,11335,1,0,0:0:0:0:
320,180,11522,1,0,0:0:0:0:
388,92,11710,2,0,P|422:89|450:68,1,70
388,176,12085,5,0,0:0:0:0:
240,196,12272,1,0,0:0:0:0:
364,292,12460,1,0,0:0:0:0:
316,204,12647,2,0,P|304:240|256:264,1,70
284,128,13022,5,0,0:0:0:0:
216,256,13210,1,0,0:0:0:0:
352,192,13397,1,0,0:0:0:0:
224,104,13585,1,0,0:0:0:0:
352,192,13772,1,0,0:0:0:0:
208,236,13960,1,0,0:0:0:0:
304,136,14147,1,0,0:0:0:0:
304,136,14241,1,0,0:0:0:0:
304,136,14335,1,0,0:0:0:0:
216,220,14522,2,0,P|260:260|296:260,1,70
160,152,14897,1,0,0:0:0:0:
240,220,15085,6,0,P|209:235|175:235,1,70
68,232,15460,2,0,L|68:160,1,70
108,64,15835,1,0,0:0:0:0:
212,44,16022,1,0,0:0:0:0:
316,48,16210,2,0,P|351:46|385:55,1,70
392,160,16585,1,0,0:0:0:0:
292,128,16772,1,0,0:0:0:0:
236,216,16960,2,0,P|264:242|295:257,1,70
344,160,17335,2,0,L|268:152,1,70
172,132,17710,2,0,P|138:125|111:104,1,70
236,104,18085,5,0,0:0:0:0:
360,216,18272,1,0,0:0:0:0:
352,216,18460,2,0,P|318:220|289:240,1,70
220,212,18835,2,0,P|177:195|156:168,1,70
112,100,19210,2,0,P|120:68|164:80,1,70
232,104,19585,2,0,L|292:145,1,70
176,176,19960,1,0,0:0:0:0:
176,276,20147,1,0,0:0:0:0:
288,284,20335,2,0,P|259:265|250:233,1,70
340,196,20710,2,0,P|388:180|408:152,1,70
336,120,21085,6,0,P|305:105|271:106,1,70
168,140,21460,2,0,L|124:204,1,70
80,268,21835,1,0,0:0:0:0:
192,284,22022,1,0,0:0:0:0:
204,288,22210,2,0,P|239:290|273:282,1,70
361,217,22585,2,0,P|336:193|328:160,3,70
232,208,23335,2,0,P|199:196|164:199,3,70
104,68,24085,5,0,0:0:0:0:
344,208,24272,2,0,P|302:212|258:228,1,70
92,284,24647,1,0,0:0:0:0:
216,124,24835,1,0,0:0:0:0:
436,160,25022,2,0,L|348:208,1,70
196,244,25397,1,0,0:0:0:0:
140,36,25585,5,0,0:0:0:0:
196,164,25772,1,0,0:0:0:0:
304,76,25960,1,0,0:0:0:0:
172,184,26147,1,0,0:0:0:0:
408,80,26335,1,0,0:0:0:0:
176,248,26522,2,0,L|252:180,1,70
340,104,26897,1,0,0:0:0:0:
124,128,27085,6,0,P|112:156|128:192,1,70
256,280,27460,1,0,0:0:0:0:
416,200,27647,1,0,0:0:0:0:
328,76,27835,2,0,P|268:56|236:72,1,70
328,192,28210,1,0,0:0:0:0:
144,236,28397,1,0,0:0:0:0:
62,66,28585,2,0,L|116:112,1,70
208,188,28960,6,0,L|276:244,1,70
280,44,29335,2,0,P|228:44|192:72,2,70
112,100,29897,1,0,0:0:0:0:
100,212,30085,2,0,P|124:240|172:248,1,70
288,264,30460,1,0,0:0:0:0:
168,176,30647,1,0,0:0:0:0:
296,128,30835,1,0,0:0:0:0:
180,284,31022,5,0,0:0:0:0:
192,60,31210,1,0,0:0:0:0:
392,208,31397,1,0,0:0:0:0:
100,140,31585,2,0,P|88:176|108:220,1,70
296,276,31960,1,0,0:3:0:0:
332,64,32147,1,0,0:0:0:0:
192,120,32335,2,0,P|176:164|196:192,1,70
368,220,32710,1,0,0:0:0:0:
480,52,32897,1,0,0:0:0:0:
296,88,33085,2,0,P|272:116|284:156,1,70
148,276,33460,5,0,0:0:0:0:
124,88,33647,1,0,0:0:0:0:
320,172,33835,1,0,0:0:0:0:
192,36,34022,1,0,0:0:0:0:
216,192,34210,1,0,0:0:0:0:
272,64,34397,1,0,0:0:0:0:
120,184,34585,2,0,P|116:220|144:268,1,70
324,156,34960,1,0,0:0:0:0:
128,56,35147,1,0,0:0:0:0:
124,60,35335,2,0,P|96:96|88:120,1,70
304,264,35710,5,0,0:0:0:0:
92,260,35897,1,0,0:0:0:0:
96,264,36085,2,0,P|152:284|184:268,1,70
60,172,36460,1,0,0:0:0:0:
228,244,36647,1,0,0:0:0:0:
76,100,36835,1,0,0:0:0:0:
272,180,37022,1,0,0:0:0:0:
44,240,37210,1,0,0:0:0:0:
300,152,37397,1,0,0:0:0:0:
172,296,37585,2,0,P|200:316|256:312,1,70
436,132,37960,5,0,0:0:0:0:
360,296,38147,1,0,0:0:0:0:
248,164,38335,1,0,0:0:0:0:
436,224,38522,1,0,0:0:0:0:
264,264,38710,1,0,0:0:0:0:
352,120,38897,1,0,0:0:0:0:
424,320,39085,2,0,P|372:332|328:316,1,70
56,304,39460,5,0,0:0:0:0:
116,244,39647,1,0,0:0:0:0:
200,228,39835,1,0,0:0:0:0:
168,312,40022,5,0,0:0:0:0:
288,328,40210,1,0,0:0:0:0:
392,252,40397,1,0,0:0:0:0:
268,184,40585,5,0,0:0:0:0:
320,52,40772,1,0,0:0:0:0:
472,40,40960,1,0,0:0:0:0:
432,192,41147,5,0,0:0:0:0:
300,304,41335,2,0,L|156:296,2,140
88,212,41897,1,0,0:0:0:0:
236,216,42085,2,0,L|348:108,1,140
172,64,42460,5,0,0:0:0:0:
56,188,42647,1,0,0:0:0:0:
184,52,42835,1,0,0:0:0:0:
40,204,43022,1,0,0:0:0:0:
256,128,43210,6,0,L|256:208,1,70
172,328,43585,1,0,0:0:0:0:
196,120,43772,1,0,0:0:0:0:
104,280,43960,5,0,0:0:0:0:
292,168,44147,1,0,0:0:0:0:
260,328,44335,2,0,P|220:288|220:268,1,70
384,180,44710,1,0,0:0:0:0:
216,168,44897,1,0,0:0:0:0:
332,332,45085,2,0,P|368:300|376:264,1,70
416,160,45460,5,0,0:0:0:0:
276,104,45647,1,0,0:0:0:0:
428,164,45835,1,0,0:0:0:0:
264,100,46022,1,0,0:0:0:0:
440,168,46210,1,0,0:0:0:0:
204,200,46397,1,0,0:0:0:0:
56,88,46585,6,0,P|68:164|156:244,1,140
200,288,46960,1,0,0:0:0:0:
324,320,47147,1,0,0:0:0:0:
472,200,47335,2,0,P|424:132|360:96,1,140
264,60,47710,1,0,0:0:0:0:
136,68,47897,1,0,0:0:0:0:
108,188,48085,6,0,L|56:136,1,70
192,216,48460,2,0,P|224:192|276:184,1,70
360,192,48835,1,0,0:0:0:0:
200,256,49022,1,0,0:0:0:0:
268,116,49210,1,0,0:0:0:0:
112,176,49397,1,0,0:0:0:0:
112,176,49491,1,0,0:0:0:0:
112,176,49584,1,0,0:0:0:0:
168,288,49772,5,0,0:0:0:0:
312,320,49960,1,0,0:0:0:0:
112,252,50147,1,0,0:0:0:0:
268,224,50335,1,0,0:0:0:0:
132,256,50522,1,0,0:0:0:0:
340,236,50710,2,0,B|348:276|348:276|320:296,1,70
112,88,51085,5,0,0:0:0:0:
216,160,51272,1,0,0:0:0:0:
104,180,51460,1,0,0:0:0:0:
228,44,51647,1,0,0:0:0:0:
308,148,51835,2,0,P|296:204|308:228,1,70
368,280,52210,1,0,0:0:0:0:
396,172,52397,1,0,0:0:0:0:
396,172,52491,1,0,0:0:0:0:
396,172,52585,1,0,0:0:0:0:
296,284,52772,5,0,0:0:0:0:
256,196,52960,2,0,P|244:152|260:132,1,70
128,216,53335,1,0,0:0:0:0:
276,192,53522,1,0,0:0:0:0:
120,216,53710,6,0,B|100:196|100:196|104:188|104:188|96:180|96:180|108:180|108:180|100:172|100:172|112:172|112:172|104:156|104:156|116:144|116:144|124:124,1,140
204,60,54272,1,0,0:0:0:0:
312,168,54460,1,0,0:0:0:0:
188,148,54647,1,0,0:0:0:0:
332,80,54835,1,0,0:0:0:0:
456,176,55022,1,0,0:0:0:0:
332,168,55210,1,0,0:0:0:0:
468,80,55397,1,0,0:0:0:0:
468,80,55491,1,0,0:0:0:0:
468,80,55585,1,0,0:0:0:0:
440,184,55772,5,0,0:0:0:0:
360,256,55960,1,0,0:0:0:0:
280,212,56147,5,0,0:0:0:0:
200,284,56335,1,0,0:0:0:0:
128,208,56522,5,0,0:0:0:0:
244,124,56710,2,0,B|208:104|208:104|208:76,1,70
160,240,57085,5,0,0:0:0:0:
272,140,57272,1,0,0:0:0:0:
232,236,57460,1,0,0:0:0:0:
228,80,57647,1,0,0:0:0:0:
300,208,57835,1,0,0:0:0:0:
156,72,58022,1,0,0:0:0:0:
296,112,58210,1,0,0:0:0:0:
256,208,58397,2,0,L|232:164,6,35
256,240,59053,5,0,0:0:0:0:
249,274,59146,1,0,0:0:0:0:
233,305,59240,1,0,0:0:0:0:
212,332,59335,2,0,L|172:328,3,35
144,312,59710,2,0,B|132:276|132:276|92:280,1,70
172,216,60085,5,0,0:0:0:0:
84,168,60272,1,0,0:0:0:0:
112,80,60460,1,0,0:0:0:0:
196,128,60647,1,0,0:0:0:0:
196,216,60834,1,0,0:0:0:0:
116,176,61022,2,0,P|88:216|92:240,1,70
132,316,61397,1,0,0:0:0:0:
165,323,61490,1,0,0:0:0:0:
200,319,61584,1,0,0:0:0:0:
288,288,61772,5,0,0:0:0:0:
388,312,61960,1,0,0:0:0:0:
304,256,62147,1,0,0:0:0:0:
216,192,62335,1,0,0:0:0:0:
328,216,62522,1,0,0:0:0:0:
472,292,62710,2,0,B|456:312|456:312|408:300,1,70
324,260,63085,5,0,0:0:0:0:
224,172,63272,1,0,0:0:0:0:
272,320,63460,2,0,P|249:288|217:280,1,70
124,264,63835,1,0,0:0:0:0:
188,336,64022,2,0,P|216:308|224:264,1,70
236,188,64397,1,0,3:3:0:0:
212,140,64491,1,0,3:3:0:0:
228,88,64584,1,0,3:3:0:0:
332,64,64772,5,0,0:0:0:0:
416,132,64960,1,0,0:0:0:0:
396,236,65147,2,0,P|352:272|316:264,1,70
236,252,65522,1,0,0:0:0:0:
180,156,65710,2,0,B|208:144|208:144|208:104,1,70
280,184,66085,5,0,0:0:0:0:
384,124,66272,1,0,0:0:0:0:
224,168,66460,1,0,0:0:0:0:
260,56,66647,1,0,0:0:0:0:
308,184,66835,1,0,0:0:0:0:
184,80,67022,1,0,0:0:0:0:
240,180,67210,1,0,0:0:0:0:
324,72,67397,1,0,0:0:0:0:
324,72,67491,1,0,0:0:0:0:
324,72,67585,1,0,0:0:0:0:
180,136,67772,5,0,0:0:0:0:
272,224,67960,1,0,0:0:0:0:
152,296,68147,1,0,0:0:0:0:
100,176,68335,1,0,0:0:0:0:
272,132,68522,1,0,0:0:0:0:
240,220,68710,2,0,B|232:256|232:256|276:248,1,70
376,140,69085,5,0,0:0:0:0:
224,100,69272,1,0,0:0:0:0:
388,144,69460,1,0,0:0:0:0:
204,168,69647,1,0,0:0:0:0:
396,144,69835,1,0,0:0:0:0:
232,240,70022,1,0,0:0:0:0:
400,144,70210,1,0,0:0:0:0:
216,96,70397,2,0,L|180:88,6,35
208,140,71053,5,0,0:0:0:0:
196,176,71147,1,0,0:0:0:0:
188,208,71240,1,0,0:0:0:0:
176,244,71335,2,0,L|212:256,3,35
240,268,71710,2,0,B|232:300|232:300|184:320,1,70
296,168,72085,5,0,0:0:0:0:
168,128,72272,1,0,0:0:0:0:
224,244,72460,1,0,0:0:0:0:
212,72,72647,1,0,0:0:0:0:
304,248,72835,1,0,0:0:0:0:
104,168,73022,1,0,0:0:0:0:
284,48,73210,1,0,0:0:0:0:
200,188,73397,1,0,0:0:0:0:
200,188,73491,1,0,0:0:0:0:
200,188,73585,1,0,0:0:0:0:
288,292,73772,5,0,0:0:0:0:
268,172,73960,1,0,0:0:0:0:
184,320,74147,1,0,0:0:0:0:
384,240,74335,1,0,0:0:0:0:
168,132,74522,1,0,0:0:0:0:
276,272,74710,2,0,B|312:296|312:296|288:336,1,70
296,136,75085,5,0,0:0:0:0:
392,68,75272,1,0,0:0:0:0:
224,84,75460,1,0,0:0:0:0:
376,188,75647,1,0,0:0:0:0:
160,148,75835,1,0,0:0:0:0:
312,108,76022,1,0,0:0:0:0:
224,236,76210,1,0,0:0:0:0:
212,48,76397,1,0,0:0:0:0:
212,48,76491,1,0,0:0:0:0:
212,48,76585,1,0,0:0:0:0:
128,200,76772,5,0,0:0:0:0:
56,92,76960,1,0,0:0:0:0:
136,268,77147,1,0,0:0:0:0:
264,184,77335,1,0,0:0:0:0:
76,304,77522,1,0,0:0:0:0:
232,320,77710,2,0,B|272:320|272:320|296:296,1,70
144,208,78085,5,0,0:0:0:0:
284,184,78272,1,0,0:0:0:0:
164,112,78460,1,0,0:0:0:0:
248,236,78647,1,0,0:0:0:0:
280,104,78835,2,0,P|328:116|348:132,1,70
268,200,79210,1,0,0:0:0:0:
360,72,79397,1,0,0:0:0:0:
360,72,79491,1,0,0:0:0:0:
360,72,79585,1,0,0:0:0:0:
348,180,79772,5,0,0:0:0:0:
428,292,79960,1,0,0:0:0:0:
272,264,80147,1,0,0:0:0:0:
372,336,80335,1,0,0:0:0:0:
252,204,80522,1,0,0:0:0:0:
284,348,80710,2,0,B|272:320|272:320|292:284,1,70
392,184,81085,1,0,0:0:0:0:
208,272,81272,1,0,0:0:0:0:
412,296,81460,5,0,0:0:0:0:
244,152,81647,1,0,0:0:0:0:
312,292,81835,1,0,0:0:0:0:
292,96,82022,1,0,0:0:0:0:
112,140,82210,1,0,0:0:0:0:
244,192,82397,2,0,L|216:160,8,35
260,104,83335,2,0,L|292:140,3,35
240,80,83710,2,0,B|216:72|212:52|212:52|160:84,1,70
88,176,84085,5,0,0:0:0:0:
236,200,84272,1,0,0:0:0:0:
156,120,84460,1,0,0:0:0:0:
148,244,84647,1,0,0:0:0:0:
284,96,84835,1,0,0:0:0:0:
276,268,85022,1,0,0:0:0:0:
180,96,85210,1,0,0:0:0:0:
360,224,85397,1,0,0:0:0:0:
360,224,85491,1,0,0:0:0:0:
360,224,85585,1,0,0:0:0:0:
136,216,85772,5,0,0:0:0:0:
312,104,85960,1,0,0:0:0:0:
216,236,86147,1,0,0:0:0:0:
156,124,86335,1,0,0:0:0:0:
376,136,86522,1,0,0:0:0:0:
224,216,86710,2,0,B|240:172|240:172|212:144,1,70
120,268,87085,5,0,0:0:0:0:
312,320,87272,1,0,0:0:0:0:
188,264,87460,1,0,0:0:0:0:
384,256,87647,1,0,0:0:0:0:
172,324,87835,1,0,0:0:0:0:
368,172,88022,1,0,0:0:0:0:
284,336,88210,1,0,0:0:0:0:
184,192,88397,1,0,0:0:0:0:
184,192,88491,1,0,0:0:0:0:
184,192,88585,1,0,0:0:0:0:
356,264,88772,5,0,0:0:0:0:
408,160,88960,1,0,0:0:0:0:
236,276,89147,1,0,0:0:0:0:
432,244,89335,1,0,0:0:0:0:
292,108,89522,1,0,0:0:0:0:
376,316,89710,2,0,B|336:320|336:320|304:288,1,70
268,204,90085,5,0,0:0:0:0:
124,216,90272,1,0,0:0:0:0:
112,216,90460,2,0,P|64:180|56:152,1,70
144,136,90835,5,0,0:0:0:0:
288,148,91022,1,0,0:0:0:0:
299,151,91210,2,0,P|332:143|351:115,1,70
204,128,91585,5,0,0:0:0:0:
192,264,91772,1,0,0:0:0:0:
172,120,91960,2,0,L|172:50,1,70
236,188,92335,5,0,0:0:0:0:
224,52,92522,1,0,0:0:0:0:
204,196,92710,2,0,L|204:266,1,70
284,316,93085,5,0,0:0:0:0:
368,260,93272,1,0,0:0:0:0:
416,184,93460,2,0,P|412:136|380:120,1,70
272,100,93835,5,0,0:0:0:0:
408,88,94022,1,0,0:0:0:0:
244,104,94210,2,0,P|200:132|180:160,1,70
144,240,94585,2,0,P|187:267|238:263,3,105.000004005432
312,208,95335,2,0,P|351:175|403:177,3,105.000004005432
256,192,96085,12,0,98897,0:0:0:0:
300,144,99085,6,0,P|344:120|328:20,1,140
284,72,99460,6,0,P|240:96|244:196,1,140
288,224,99835,6,0,L|440:224,1,140
428,296,100210,6,0,L|272:296,1,140
216,296,100585,6,0,P|132:296|100:244,1,140
176,236,100960,6,0,P|228:180|320:180,1,140
332,100,101335,6,0,L|180:100,1,140
124,104,101710,2,0,B|120:92|120:92|116:104|116:104|112:92|112:92|104:104|104:104|104:92|104:92|96:104|96:104|72:100|72:100|24:48|24:48,1,140
96,20,102085,6,0,B|184:24|184:24|224:104,1,140
236,144,102460,6,0,B|268:216|268:216|344:256,1,140
384,288,102835,6,0,B|364:332|364:332|256:332,1,140
184,328,103210,2,0,B|180:340|180:340|176:328|176:328|172:340|172:340|168:328|168:328|164:340|164:340|160:328|160:328|156:340|156:340|72:288,1,140
32,220,103585,6,0,B|80:244|80:244|172:228,1,140
256,192,103960,2,0,L|404:108,1,140
476,232,104335,6,0,B|472:244|472:244|468:232|468:232|464:244|464:244|460:232|460:232|456:244|456:244|452:232|452:232|348:188,1,140
316,264,104710,2,0,B|320:252|320:252|324:264|324:264|328:252|328:252|332:264|332:264|336:252|336:252|340:264|340:264|400:292,1,140
76,312,105085,5,0,0:0:0:0:
248,164,105272,1,0,0:0:0:0:
264,336,105460,1,0,0:0:0:0:
172,276,105647,1,0,0:0:0:0:
188,260,105835,2,0,B|220:232|220:232|284:252|320:188,1,140
404,144,106209,5,0,0:0:0:0:
116,144,106397,1,0,0:0:0:0:
136,140,106585,2,0,B|224:124|224:124|256:180,1,140
300,288,106960,5,0,0:0:0:0:
452,228,107147,1,0,0:0:0:0:
448,212,107335,2,0,P|396:144|332:156,1,140
220,188,107710,5,0,0:0:0:0:
88,120,107897,1,0,0:0:0:0:
100,112,108085,2,0,P|144:88|236:124,1,140
360,232,108460,5,0,0:0:0:0:
124,224,108647,1,0,0:0:0:0:
136,236,108835,2,0,P|220:252|256:188,1,140
356,96,109210,1,0,0:0:0:0:
188,180,109397,1,0,0:0:0:0:
364,108,109585,6,0,L|464:260,1,140
168,288,109960,2,0,L|92:164,1,140
332,120,110335,6,0,L|432:272,1,140
144,312,110710,2,0,L|68:188,1,140
176,100,111085,2,0,P|180:168|280:200,1,140
