osu file format v14

[General]
AudioFilename: audio.mp3
AudioLeadIn: 0
PreviewTime: 32745
Countdown: 0
SampleSet: None
StackLeniency: 0.2
Mode: 0
LetterboxInBreaks: 0
WidescreenStoryboard: 0

[Editor]
Bookmarks: 64745,65745,66745,67745,68245,68745,69745,70245,70745,71245,71745,73745,78745,82745,83745,84745,86745
DistanceSpacing: 1.2
BeatDivisor: 4
GridSize: 8
TimelineZoom: 0.3999999

[Metadata]
Title:Main Theme ft. Penelopa Willmann-Szynalik
TitleUnicode:Main Theme ft. Penelopa Willmann-Szynalik
Artist:Arkadiusz Reikowski
ArtistUnicode:Arkadiusz Reikowski
Creator:Namo
Version:Sadness
Source:Layers of Fear
Tags:
BeatmapID:1979340
BeatmapSetID:947714

[Difficulty]
HPDrainRate:0
CircleSize:6
OverallDifficulty:8
ApproachRate:8
SliderMultiplier:1.6
SliderTickRate:1

[Events]
//Background and Video events
0,0,"image.jpg",0,0
//Break Periods
2,1944,5745
2,22945,31745
2,92695,99745
2,101967,105767
//Storyboard Layer 0 (Background)
//Storyboard Layer 1 (Fail)
//Storyboard Layer 2 (Pass)
//Storyboard Layer 3 (Foreground)
//Storyboard Sound Samples

[TimingPoints]
745,1000,4,2,0,30,1,0
52745,-117.647058823529,4,2,0,30,0,0
54745,-100,4,2,0,30,0,0
62745,-100,4,2,0,30,0,1
64745,4000,4,2,0,30,1,1
64745,-25,4,2,0,30,0,1
65745,-28.5714285714286,4,2,0,30,0,1
66745,-33.3333333333333,4,2,0,30,0,1
67745,-25,4,2,0,30,0,1
69745,-28.5714285714286,4,2,0,30,0,1
70745,-25,4,2,0,30,0,1
71245,-28.5714285714286,4,2,0,30,0,1
71745,-25,4,2,0,30,0,1
72745,1000,4,2,0,30,1,1
74745,2000,4,2,0,30,1,1
74745,-1000,4,2,0,30,0,1
76745,1000,4,2,0,30,1,1
78745,-117.647058823529,4,2,0,30,0,1
80495,4000,4,2,0,30,1,1
80495,-33.3333333333333,4,2,0,30,0,1
81745,-25,4,2,0,30,0,1
86745,4000,4,2,0,30,1,1
86745,-1000,4,2,0,30,0,1
88745,1000,4,2,0,30,1,1
92495,-100,4,2,0,30,0,0
100767,1000,4,2,0,20,1,0
100767,-133.333333333333,4,2,0,20,0,0

[HitObjects]
331,336,745,6,0,P|256:315|179:336,1,160
181,48,6745,5,0,0:0:0:0:
181,48,8745,6,0,P|256:69|333:48,2,160
40,120,14745,5,0,0:0:0:0:
56,184,16745,1,0,0:0:0:0:
472,120,20745,5,0,0:0:0:0:
456,184,22745,1,0,0:0:0:0:
460,300,32745,6,0,B|426:263|392:300|392:300|358:337|324:300,1,160
426,240,32995,1,0,0:0:0:0:
392,300,33245,1,0,0:0:0:0:
358,360,33495,1,0,0:0:0:0:
324,300,33745,5,0,0:0:0:0:
290,240,33995,1,0,0:0:0:0:
256,300,34245,1,0,0:0:0:0:
222,360,34495,1,0,0:0:0:0:
188,300,34745,5,0,0:0:0:0:
154,240,34995,1,0,0:0:0:0:
120,300,35245,1,0,0:0:0:0:
86,360,35495,1,0,0:0:0:0:
52,300,35745,5,0,0:0:0:0:
128,267,35995,1,0,0:0:0:0:
164,192,36245,1,0,0:0:0:0:
128,117,36495,1,0,0:0:0:0:
52,84,36745,5,0,0:0:0:0:
86,144,36995,1,0,0:0:0:0:
120,84,37245,1,0,0:0:0:0:
154,24,37495,1,0,0:0:0:0:
188,84,37745,5,0,0:0:0:0:
222,144,37995,1,0,0:0:0:0:
256,84,38245,1,0,0:0:0:0:
290,24,38495,1,0,0:0:0:0:
324,84,38745,6,0,B|358:121|392:84|392:84|426:46|460:84|460:84|426:46|392:84|392:84|358:121|324:84,1,320
358,144,38995,1,0,0:0:0:0:
392,84,39245,1,0,0:0:0:0:
426,24,39495,1,0,0:0:0:0:
460,84,39745,5,0,0:0:0:0:
384,117,39995,1,0,0:0:0:0:
348,192,40245,1,0,0:0:0:0:
384,267,40495,1,0,0:0:0:0:
460,300,40745,6,0,B|426:263|392:300|392:300|358:337|324:300,1,160
426,240,40995,1,0,0:0:0:0:
392,300,41245,1,0,0:0:0:0:
358,360,41495,1,0,0:0:0:0:
324,300,41745,6,0,B|290:263|256:300|256:300|222:337|188:300,1,160
290,240,41995,1,0,0:0:0:0:
256,300,42245,1,0,0:0:0:0:
222,360,42495,1,0,0:0:0:0:
188,300,42745,5,0,0:0:0:0:
154,240,42995,1,0,0:0:0:0:
120,300,43245,1,0,0:0:0:0:
86,360,43495,1,0,0:0:0:0:
52,300,43745,5,0,0:0:0:0:
128,267,43995,1,0,0:0:0:0:
164,192,44245,1,0,0:0:0:0:
128,117,44495,1,0,0:0:0:0:
52,84,44745,5,0,0:0:0:0:
86,144,44995,1,0,0:0:0:0:
120,84,45245,1,0,0:0:0:0:
154,24,45495,1,0,0:0:0:0:
188,84,45745,5,0,0:0:0:0:
222,144,45995,1,0,0:0:0:0:
256,84,46245,1,0,0:0:0:0:
290,24,46495,1,0,0:0:0:0:
324,84,46745,6,0,B|358:121|392:84|392:84|426:47|460:84,1,160
358,144,46995,1,0,0:0:0:0:
392,84,47245,1,0,0:0:0:0:
426,24,47495,1,0,0:0:0:0:
460,84,47745,6,0,B|426:47|392:84|392:84|358:121|324:84,1,160
384,117,47995,1,0,0:0:0:0:
348,192,48245,1,0,0:0:0:0:
384,267,48495,1,0,0:0:0:0:
460,300,48745,5,0,0:0:0:0:
426,240,48995,1,0,0:0:0:0:
392,300,49245,1,0,0:0:0:0:
358,360,49495,1,0,0:0:0:0:
324,300,49745,5,0,0:0:0:0:
290,240,49995,1,0,0:0:0:0:
256,300,50245,1,0,0:0:0:0:
222,360,50495,1,0,0:0:0:0:
188,300,50745,5,0,0:0:0:0:
154,240,50995,1,0,0:0:0:0:
120,300,51245,1,0,0:0:0:0:
86,360,51495,1,0,0:0:0:0:
52,300,51745,5,0,0:0:0:0:
128,267,51995,1,0,0:0:0:0:
164,192,52245,1,0,0:0:0:0:
128,117,52495,1,0,0:0:0:0:
52,84,52745,6,0,L|324:84,1,272.000005187988
86,144,52995,1,0,0:0:0:0:
120,84,53245,1,0,0:0:0:0:
154,24,53495,1,0,0:0:0:0:
188,84,53745,5,0,0:0:0:0:
222,144,53995,1,0,0:0:0:0:
256,84,54245,1,0,0:0:0:0:
290,24,54495,1,0,0:0:0:0:
324,84,54745,5,0,0:0:0:0:
358,144,54995,1,0,0:0:0:0:
392,84,55245,1,0,0:0:0:0:
426,24,55495,1,0,0:0:0:0:
460,84,55745,5,0,0:0:0:0:
384,117,55995,1,0,0:0:0:0:
348,192,56245,1,0,0:0:0:0:
384,267,56495,1,0,0:0:0:0:
460,300,56745,5,0,0:0:0:0:
426,240,56995,1,0,0:0:0:0:
392,300,57245,1,0,0:0:0:0:
358,360,57495,1,0,0:0:0:0:
324,300,57745,5,0,0:0:0:0:
290,240,57995,1,0,0:0:0:0:
256,300,58245,1,0,0:0:0:0:
222,360,58495,1,0,0:0:0:0:
188,300,58745,5,0,0:0:0:0:
154,240,58995,1,0,0:0:0:0:
120,300,59245,1,0,0:0:0:0:
86,360,59495,1,0,0:0:0:0:
52,300,59745,5,0,0:0:0:0:
128,267,59995,1,0,0:0:0:0:
164,192,60245,1,0,0:0:0:0:
128,117,60495,1,0,0:0:0:0:
52,84,60745,5,0,0:0:0:0:
86,144,60995,1,0,0:0:0:0:
120,84,61245,1,0,0:0:0:0:
154,24,61495,1,0,0:0:0:0:
188,84,61745,5,0,0:0:0:0:
222,144,61995,1,0,0:0:0:0:
256,84,62245,2,0,L|256:64,1,20
290,24,62495,2,0,L|290:43,1,20
324,84,62745,6,0,B|358:121|392:84|392:84|426:47|460:84,1,160
358,144,62995,1,0,0:0:0:0:
392,84,63245,1,0,0:0:0:0:
426,24,63495,1,0,0:0:0:0:
460,84,63745,5,0,0:0:0:0:
384,117,63995,1,0,0:0:0:0:
348,192,64245,1,0,0:0:0:0:
384,267,64495,1,0,0:0:0:0:
460,300,64745,6,0,P|377:69|164:192,1,560
426,240,64995,1,0,0:0:0:0:
392,300,65245,1,0,0:0:0:0:
358,360,65495,1,0,0:0:0:0:
324,300,65745,6,0,P|311:148|164:192,1,350.00000333786
290,240,65995,1,0,0:0:0:0:
256,300,66245,1,0,0:0:0:0:
222,360,66495,1,0,0:0:0:0:
188,300,66745,6,0,P|233:233|164:192,1,180.000006866455
154,240,66995,1,0,0:0:0:0:
120,300,67245,1,0,0:0:0:0:
86,360,67495,1,0,0:0:0:0:
52,300,67745,5,0,0:0:0:0:
128,267,67995,1,0,0:0:0:0:
164,192,68245,1,0,0:0:0:0:
128,117,68495,1,0,0:0:0:0:
52,84,68745,6,0,P|154:138|256:84,1,240
86,144,68995,1,0,0:0:0:0:
120,84,69245,1,0,0:0:0:0:
154,24,69495,1,0,0:0:0:0:
188,84,69745,6,0,P|222:90|256:84,1,70.000000667572
222,144,69995,1,0,0:0:0:0:
256,84,70245,1,0,0:0:0:0:
290,24,70495,1,0,0:0:0:0:
324,84,70745,6,0,B|355:118|389:81|389:81|423:44|457:81,1,160
324,84,70745,2,0,P|154:192|324:300,1,480
358,144,70995,1,0,0:0:0:0:
392,84,71245,2,0,P|253:159|324:300,1,350.00000333786
426,24,71495,1,0,0:0:0:0:
460,84,71745,6,0,B|426:47|392:84|392:84|358:121|324:84,1,160
384,117,71995,1,0,0:0:0:0:
348,192,72245,1,0,0:0:0:0:
384,267,72495,1,0,0:0:0:0:
460,300,72745,5,0,0:0:0:0:
426,240,72995,1,0,0:0:0:0:
392,300,73245,1,0,0:0:0:0:
358,360,73495,1,0,0:0:0:0:
324,300,73745,5,0,0:0:0:0:
290,240,73995,1,0,0:0:0:0:
256,300,74245,1,0,0:0:0:0:
222,360,74495,1,0,0:0:0:0:
188,300,74745,6,0,L|188:299,1,2
154,240,74995,1,0,0:0:0:0:
120,300,75245,2,0,L|120:301,1,2
86,360,75495,1,0,0:0:0:0:
52,300,75745,6,0,L|52:299,1,2
128,267,75995,1,0,0:0:0:0:
164,192,76245,2,0,L|163:192,1,2
128,117,76495,1,0,0:0:0:0:
52,84,76745,6,0,B|86:121|120:84|120:84|154:47|188:84,1,160
86,144,76995,1,0,0:0:0:0:
120,84,77245,1,0,0:0:0:0:
154,24,77495,1,0,0:0:0:0:
188,84,77745,6,0,B|222:121|256:84|256:84|290:47|324:84,1,160
222,144,77995,1,0,0:0:0:0:
256,84,78245,1,0,0:0:0:0:
290,24,78495,1,0,0:0:0:0:
324,84,78745,6,0,L|460:84,1,136.000002593994
358,144,78995,1,0,0:0:0:0:
392,84,79245,1,0,0:0:0:0:
426,24,79495,1,0,0:0:0:0:
460,84,79745,5,0,0:0:0:0:
384,117,79995,1,0,0:0:0:0:
348,192,80245,1,0,0:0:0:0:
384,267,80495,2,0,P|328:237|324:300,1,150.000005722046
460,300,80745,5,0,0:0:0:0:
426,240,80995,1,0,0:0:0:0:
392,300,81245,1,0,0:0:0:0:
358,360,81495,1,0,0:0:0:0:
323,299,81745,6,0,P|290:282|256:300,1,80
290,240,81995,1,0,0:0:0:0:
256,300,82245,1,0,0:0:0:0:
222,360,82495,1,0,0:0:0:0:
188,300,82745,6,0,P|48:97|324:84,1,640
154,240,82995,1,0,0:0:0:0:
120,300,83245,1,0,0:0:0:0:
86,360,83495,1,0,0:0:0:0:
52,300,83745,6,0,P|86:98|324:84,1,480
128,267,83995,1,0,0:0:0:0:
164,192,84245,1,0,0:0:0:0:
128,117,84495,1,0,0:0:0:0:
52,84,84745,5,0,0:0:0:0:
86,144,84995,1,0,0:0:0:0:
120,84,85245,1,0,0:0:0:0:
154,24,85495,1,0,0:0:0:0:
188,84,85745,5,0,0:0:0:0:
222,144,85995,1,0,0:0:0:0:
256,84,86245,1,0,0:0:0:0:
290,24,86495,1,0,0:0:0:0:
324,84,86745,6,0,L|324:85,1,1
358,144,86995,1,0,0:0:0:0:
392,84,87245,2,0,L|391:83,1,1
426,24,87495,1,0,0:0:0:0:
460,84,87745,6,0,L|459:83,1,1
384,117,87995,1,0,0:0:0:0:
348,192,88245,2,0,L|348:191,1,1
384,267,88495,1,0,0:0:0:0:
460,300,88745,5,0,0:0:0:0:
426,240,88995,1,0,0:0:0:0:
392,300,89245,1,0,0:0:0:0:
358,360,89495,1,0,0:0:0:0:
324,300,89745,5,0,0:0:0:0:
290,240,89995,1,0,0:0:0:0:
256,300,90245,1,0,0:0:0:0:
222,360,90495,1,0,0:0:0:0:
188,300,90745,5,0,0:0:0:0:
154,240,90995,1,0,0:0:0:0:
120,300,91245,1,0,0:0:0:0:
86,360,91495,1,0,0:0:0:0:
52,300,91745,5,0,0:0:0:0:
128,267,91995,1,0,0:0:0:0:
164,192,92245,1,0,0:0:0:0:
128,117,92495,1,0,0:0:0:0:
48,136,100767,6,0,P|65:192|47:248,1,120.000004577637
464,248,106767,5,0,0:0:0:0:
464,248,108767,6,0,P|446:191|464:135,2,120.000004577637
200,112,114767,6,0,L|80:112,2,120.000004577637
312,272,120767,5,0,0:0:0:0:
312,272,122767,5,0,0:0:0:0:
