osu file format v14

[General]
AudioFilename: audio.mp3
AudioLeadIn: 0
PreviewTime: 25674
Countdown: 0
SampleSet: Normal
StackLeniency: 0.7
Mode: 0
LetterboxInBreaks: 0
WidescreenStoryboard: 0

[Editor]
DistanceSpacing: 1.05
BeatDivisor: 4
GridSize: 32
TimelineZoom: 2.4

[Metadata]
Title:ROXANNE
TitleUnicode:ROXANNE
Artist:Arizona Zervas
ArtistUnicode:Arizona Zervas
Creator:wafer
Version:Rock Sand
Source:
Tags:english hip hop rap deviouspanda ioexception agatsu jasontime jasontime12345
BeatmapID:2430106
BeatmapSetID:1165136

[Difficulty]
HPDrainRate:6
CircleSize:4.3
OverallDifficulty:8.8
ApproachRate:9
SliderMultiplier:1.75
SliderTickRate:1

[Events]
//Background and Video events
0,0,"roxane2.png",0,0
//Break Periods
//Storyboard Layer 0 (Background)
//Storyboard Layer 1 (Fail)
//Storyboard Layer 2 (Pass)
//Storyboard Layer 3 (Foreground)
//Storyboard Layer 4 (Overlay)
//Storyboard Sound Samples

[TimingPoints]
4503,342.857142857143,4,1,2,65,1,0
5531,-133.333333333333,4,1,2,65,0,0
5874,-100,4,1,2,65,0,0
6903,-250,4,1,2,65,0,0
7245,-100,4,1,2,65,0,0
9645,-250.000000000001,4,1,2,65,0,0
9988,-100,4,1,2,65,0,0
11017,-133.333333333333,4,1,2,65,0,0
11360,-100,4,1,2,65,0,0
12045,-166.666666666667,4,1,2,65,0,0
12731,-100,4,1,2,65,0,0
15131,-200,4,1,2,50,0,0
15474,-83.3333333333333,4,1,2,70,0,0
16503,-111.111111111111,4,1,2,70,0,0
16845,-83.3333333333333,4,1,2,70,0,0
20617,-142.857142857143,4,1,2,70,0,0
20960,-83.3333333333333,4,1,2,70,0,0
21988,-111.111111111111,4,1,2,70,0,0
22331,-83.3333333333333,4,1,2,70,0,0
25760,-83.3333333333333,4,1,2,50,0,0
26445,-83.3333333333333,4,1,2,70,0,0
31245,-83.3333333333333,4,1,2,50,0,0
31417,-83.3333333333333,4,1,2,70,0,0
31588,-133.333333333333,4,1,2,70,0,0
31931,-83.3333333333333,4,1,2,70,0,0
32960,-111.111111111111,4,1,2,70,0,0
33303,-83.3333333333333,4,1,2,70,0,0
37417,-111.111111111111,4,1,2,65,0,0
43031,-111.111111111111,4,1,2,5,0,0
43074,-111.111111111111,4,1,2,65,0,0
43374,-111.111111111111,4,1,2,5,0,0
43417,-111.111111111111,4,1,2,65,0,0
43717,-111.111111111111,4,1,2,5,0,0
43760,-111.111111111111,4,1,2,65,0,0
47360,-111.111111111111,4,1,2,55,0,0
48303,-111.111111111111,4,1,2,5,0,0
48388,-99.9999999999999,4,1,2,70,0,0
59360,-99.9999999999999,4,1,2,60,0,0
62103,-166.666666666667,4,1,2,60,0,0
70331,-166.666666666667,4,1,2,70,0,0
71017,-83.3333333333334,4,1,2,70,0,0
75474,-142.857142857143,4,1,2,70,0,0
75817,-83.3333333333334,4,1,2,70,0,0
80617,-83.3333333333334,4,1,2,50,0,0
81303,-76.9230769230769,4,1,2,70,0,0
86102,-76.9230769230769,4,1,2,50,0,0
86274,-76.9230769230769,4,1,2,70,0,0
86445,-133.333333333333,4,1,2,70,0,0
87474,-83.3333333333333,4,1,2,70,0,0
91760,-125,4,1,2,70,0,0
92274,-125,4,1,2,65,0,0
93645,-133.333333333333,4,1,2,65,0,0
103245,-222.222222222221,4,1,2,65,0,0
104617,-117.647058823529,4,1,2,65,0,0
111131,-166.666666666667,4,1,2,65,0,0
112845,-117.647058823529,4,1,2,65,0,0
115588,-117.647058823529,4,1,2,60,0,0
118331,-166.666666666667,4,1,2,60,0,0
124845,-166.666666666667,4,1,2,55,0,0
125188,-166.666666666667,4,1,2,50,0,0
126560,-83.3333333333334,4,1,2,75,0,0
131703,-166.666666666667,4,1,2,75,0,0
132045,-83.3333333333333,4,1,2,75,0,0
136160,-76.9230769230769,4,1,2,78,0,0
136845,-76.9230769230769,4,1,2,60,0,0
137531,-76.9230769230769,4,1,2,75,0,0
142331,-76.9230769230769,4,1,2,55,0,0
142502,-76.9230769230769,4,1,2,75,0,0
142674,-166.666666666667,4,1,2,75,0,0
143703,-83.3333333333334,4,1,2,75,0,0
145759,-83.3333333333334,4,1,2,70,0,0
145931,-83.3333333333334,4,1,2,65,0,0
146102,-83.3333333333334,4,1,2,60,0,0
146273,-83.3333333333334,4,1,2,55,0,0
148502,-83.3333333333334,4,1,2,5,0,0

[Colours]
Combo1 : 232,222,151
Combo2 : 217,196,157
Combo3 : 192,218,220
Combo4 : 210,130,132

[HitObjects]
39,77,4502,6,0,B|25:75|53:35|53:35|109:88|-46:132|38:247,1,262.5,4|0,3:3|3:3,0:0:0:0:
27,368,5188,2,0,P|16:324|12:316,1,43.75,8|0,0:2|0:0,0:0:0:0:
0,310,5360,1,0,0:0:0:0:
121,231,5531,2,0,P|143:264|186:272,1,65.6250025033952,4|0,3:3|0:0,0:0:0:0:
365,221,5874,2,0,P|324:259|285:376,1,175,2|0,0:2|3:3,0:0:0:0:
284,369,6388,1,0,0:0:0:0:
434,295,6560,2,0,P|390:306|382:310,1,43.75,8|0,0:2|0:0,0:0:0:0:
376,322,6732,1,0,0:0:0:0:
491,211,6903,2,0,L|493:164,1,35,2|0,0:2|0:0,0:0:0:0:
336,141,7245,6,0,P|413:135|506:-12,1,262.5,4|0,3:3|0:0,0:0:0:0:
270,87,7931,2,0,P|226:98|218:102,1,43.75,8|0,0:2|0:0,0:0:0:0:
212,114,8103,1,0,0:0:0:0:
73,56,8274,2,0,L|62:-2,1,43.75,0|0,3:3|2:0,0:0:0:0:
64,74,8445,2,0,L|53:16,1,43.75,8|0,0:2|0:0,0:0:0:0:
26,145,8617,1,2,0:2:0:0:
97,215,8788,1,8,0:3:0:0:
37,270,8960,1,0,3:3:0:0:
50,284,9131,1,0,0:0:0:0:
0,384,9303,2,0,P|11:340|15:332,1,43.75,8|0,0:2|2:0,0:0:0:0:
27,326,9475,1,0,3:3:0:0:
187,278,9645,2,0,P|196:296|199:324,1,35,2|8,0:2|0:2,0:0:0:0:
97,215,9988,6,0,P|118:149|310:136,1,262.5,4|0,3:3|3:3,0:0:0:0:
419,77,10674,2,0,L|423:26,1,43.75,8|0,0:2|0:0,0:0:0:0:
402,3,10846,1,0,0:0:0:0:
303,107,11017,2,0,L|308:178,1,65.6250025033952,0|0,3:3|0:0,0:0:0:0:
508,178,11360,2,0,B|409:184|455:254|340:261,1,175,4|0,0:3|3:3,0:0:0:0:
359,258,11874,1,0,0:0:0:0:
499,370,12045,2,0,P|500:329|512:288,1,78.7499975967408,8|0,0:2|0:0,0:0:0:0:
500,291,12388,2,0,P|477:322|488:359,1,78.7499975967408,2|0,0:2|0:0,0:0:0:0:
488,359,12731,6,0,B|407:348|407:348|352:281|352:281|244:269,1,262.5,4|0,3:3|3:3,0:0:0:0:
176,367,13417,2,0,L|335:352,1,131.25,8|0,0:2|2:0,0:0:0:0:
323,329,13760,2,0,L|331:371,1,43.75,0|0,3:3|2:0,0:0:0:0:
294,256,13931,2,0,L|286:298,1,43.75,8|0,0:2|2:0,0:0:0:0:
353,204,14103,5,2,0:2:0:0:
254,145,14274,1,8,0:2:0:0:
344,65,14445,1,0,0:0:0:0:
389,134,14617,1,0,0:0:0:0:
151,72,14788,1,0,0:0:0:0:
202,92,15131,6,0,P|169:97|139:109,1,65.625,2|0,0:2|0:0,0:0:0:0:
266,126,15474,5,4,3:3:0:0:
383,77,15645,1,0,0:0:0:0:
453,138,15817,1,0,0:0:0:0:
512,94,15988,1,0,3:3:0:0:
377,56,16160,2,0,P|361:110|404:154,1,104.999996795654,8|0,0:2|0:0,0:0:0:0:
377,305,16503,2,0,P|408:280|446:277,1,78.7499975967408,0|0,3:3|0:0,0:0:0:0:
277,270,16845,5,2,0:2:0:0:
160,319,17016,1,0,0:0:0:0:
21,262,17188,1,0,3:3:0:0:
89,219,17359,1,0,0:0:0:0:
166,340,17531,1,10,0:2:0:0:
3,111,17874,1,2,0:2:0:0:
306,8,18217,5,4,3:3:0:0:
185,82,18388,1,0,0:0:0:0:
200,178,18560,1,0,0:0:0:0:
351,120,18731,1,0,3:3:0:0:
196,33,18903,2,0,P|212:87|169:131,1,104.999996795654,8|0,0:2|0:0,0:0:0:0:
325,127,19245,2,0,L|393:108,1,52.4999983978272,0|0,3:3|0:0,0:0:0:0:
211,105,19417,1,8,0:2:0:0:
211,105,19588,2,0,L|251:253,1,104.999996795654,0|8,0:0|0:3,0:0:0:0:
403,247,19931,1,0,3:3:0:0:
403,247,20103,1,0,0:0:0:0:
367,146,20274,2,0,P|319:199|315:251,1,104.999996795654,8|0,0:2|3:3,0:0:0:0:
261,287,20617,2,0,P|270:256|240:196,1,91.8749971961976,2|0,0:2|0:0,0:0:0:0:
266,125,20960,5,4,3:3:0:0:
383,76,21131,1,0,0:0:0:0:
453,137,21303,1,0,0:0:0:0:
512,93,21474,1,0,3:3:0:0:
364,45,21645,2,0,P|348:99|391:143,1,104.999996795654,8|0,0:2|0:0,0:0:0:0:
199,40,21988,2,0,P|243:12|283:-2,1,78.7499975967408,0|0,3:3|0:0,0:0:0:0:
107,114,22331,5,0,0:0:0:0:
58,231,22502,1,0,0:0:0:0:
146,380,22674,1,0,3:3:0:0:
178,316,22845,1,0,0:0:0:0:
27,212,23017,1,10,0:2:0:0:
258,40,23360,2,0,P|192:46|151:72,1,104.999996795654,2|0,0:2|0:0,0:0:0:0:
355,2,23703,5,0,3:3:0:0:
480,114,23874,1,0,0:0:0:0:
362,211,24045,1,0,0:0:0:0:
341,299,24217,1,0,3:3:0:0:
512,361,24388,2,0,P|503:327|497:262,1,52.4999983978272,8|0,0:2|0:0,0:0:0:0:
512,225,24559,1,0,0:0:0:0:
297,273,24731,2,0,P|274:291|229:292,1,52.4999983978272,0|0,3:3|0:0,0:0:0:0:
415,245,24903,1,8,0:2:0:0:
415,245,25073,2,0,L|425:92,1,104.999996795654,0|8,0:0|0:2,0:0:0:0:
315,10,25417,1,0,3:3:0:0:
315,10,25760,5,2,2:0:0:0:
331,67,25931,1,2,2:0:0:0:
373,50,26103,1,2,2:0:0:0:
346,20,26274,1,2,2:0:0:0:
165,111,26445,6,0,B|108:73|52:87|71:166|-7:207,1,209.999993591309,6|0,3:2|0:0,0:0:0:0:
129,182,26960,1,0,3:3:0:0:
159,356,27131,1,8,0:2:0:0:
191,262,27303,1,0,0:0:0:0:
28,223,27474,1,0,3:3:0:0:
80,303,27645,1,0,0:0:0:0:
275,209,27817,2,0,B|229:183|229:183|95:266,1,209.999993591309,2|0,0:2|3:3,0:0:0:0:
232,274,28331,1,0,0:0:0:0:
343,188,28503,1,8,0:2:0:0:
311,282,28675,1,0,0:0:0:0:
467,273,28846,1,2,0:2:0:0:
407,229,29017,1,0,0:0:0:0:
507,364,29188,2,0,L|519:182,1,157.499995193482,0|0,3:3|0:0,0:0:0:0:
490,194,29531,2,0,L|505:327,1,104.999996795654,0|0,0:0|3:3,0:0:0:0:
366,103,29874,2,0,P|399:48|412:42,1,52.4999983978272,8|0,0:2|0:0,0:0:0:0:
437,23,30045,1,0,0:0:0:0:
394,163,30217,2,0,B|377:156|377:156|387:207,1,52.4999983978272,0|0,3:3|0:0,0:0:0:0:
357,150,30388,2,0,B|363:116|363:116|346:123,1,52.4999983978272,8|0,0:3|0:0,0:0:0:0:
306,252,30560,2,0,P|440:207|520:187,2,209.999993591309,2|0|2,0:2|3:3|0:0,0:0:0:0:
191,367,31417,1,0,3:3:0:0:
226,297,31588,2,0,P|200:250|146:235,1,98.4375037550928,2|0,0:2|2:0,0:0:0:0:
89,283,31931,5,4,3:3:0:0:
40,166,32102,1,0,0:0:0:0:
101,96,32274,1,0,0:0:0:0:
57,37,32445,1,0,3:3:0:0:
19,172,32617,2,0,P|73:188|117:145,1,104.999996795654,8|0,0:2|0:0,0:0:0:0:
252,25,32960,2,0,P|223:6|167:35,1,78.7499975967408,0|0,3:3|0:0,0:0:0:0:
214,163,33303,5,2,0:2:0:0:
331,212,33474,1,0,0:0:0:0:
470,155,33646,1,0,3:3:0:0:
402,112,33817,1,0,0:0:0:0:
325,233,33988,1,10,0:2:0:0:
491,0,34331,2,0,P|462:58|461:116,1,104.999996795654,2|0,0:2|0:0,0:0:0:0:
275,22,34674,5,4,3:3:0:0:
154,96,34845,1,0,0:0:0:0:
169,192,35017,1,0,0:0:0:0:
320,134,35188,1,0,3:3:0:0:
170,29,35360,2,0,P|154:83|197:127,1,104.999996795654,8|0,0:2|0:0,0:0:0:0:
338,109,35702,2,0,L|406:90,1,52.4999983978272,0|0,3:3|0:0,0:0:0:0:
217,120,35874,1,8,0:2:0:0:
217,120,36045,2,0,L|257:268,1,104.999996795654,2|8,0:2|0:3,0:0:0:0:
372,261,36388,1,0,3:3:0:0:
372,261,36560,1,2,0:2:0:0:
336,160,36731,2,0,P|288:213|284:265,1,104.999996795654,8|0,0:2|3:3,0:0:0:0:
131,365,37074,1,0,0:0:0:0:
217,313,37245,1,8,0:2:0:0:
26,155,37417,5,4,3:3:0:0:
81,205,37588,1,0,0:0:0:0:
158,168,37760,1,0,0:0:0:0:
176,97,37931,1,0,3:3:0:0:
49,204,38103,1,8,0:2:0:0:
49,204,38274,1,0,0:0:0:0:
182,139,38445,1,4,3:3:0:0:
182,139,38616,1,0,0:0:0:0:
55,27,38788,2,0,P|65:64|74:103,1,78.7499975967408,2|0,0:2|0:0,0:0:0:0:
248,190,39131,2,0,P|237:227|228:266,1,78.7499975967408,0|0,3:3|0:0,0:0:0:0:
211,199,39474,2,0,P|220:160|230:122,1,78.7499975967408,8|0,0:3|0:0,0:0:0:0:
263,181,39817,2,0,P|252:218|243:257,1,78.7499975967408,2|0,0:2|0:0,0:0:0:0:
486,155,40160,5,4,3:3:0:0:
431,205,40331,1,0,0:0:0:0:
354,168,40503,1,0,0:0:0:0:
336,97,40674,1,0,3:3:0:0:
463,204,40846,1,8,0:2:0:0:
463,204,41017,1,0,0:0:0:0:
330,139,41188,2,0,P|314:104|304:91,1,39.3749987983704,4|0,3:3|0:0,0:0:0:0:
355,143,41360,2,0,P|345:160|338:178,1,39.3749987983704,10|0,0:3|0:0,0:0:0:0:
457,27,41531,2,0,P|446:64|437:103,1,78.7499975967408,2|8,0:2|0:2,0:0:0:0:
264,190,41874,2,0,P|274:227|283:266,1,78.7499975967408,0|0,3:3|0:0,0:0:0:0:
301,199,42217,2,0,P|291:160|281:122,1,78.7499975967408,8|0,0:3|3:3,0:0:0:0:
249,181,42560,2,0,P|259:218|268:257,1,78.7499975967408,0|8,0:0|0:2,0:0:0:0:
120,362,42903,5,4,3:3:0:0:
177,312,43074,1,2,0:2:0:0:
75,243,43245,1,0,0:0:0:0:
120,168,43417,1,0,3:3:0:0:
13,104,43588,1,8,0:2:0:0:
13,104,43760,1,2,0:2:0:0:
64,215,43931,2,0,L|45:274,2,39.3749987983704,4|0|0,3:3|0:0|0:0,0:0:0:0:
281,184,44274,2,0,L|365:147,1,78.7499975967408,2|0,0:2|0:0,0:0:0:0:
335,174,44617,2,0,P|300:153|251:137,1,78.7499975967408,0|0,3:3|0:0,0:0:0:0:
238,131,44960,2,0,L|322:94,1,78.7499975967408,8|0,0:2|0:0,0:0:0:0:
306,125,45303,2,0,P|271:104|222:88,1,78.7499975967408,4|0,0:3|0:0,0:0:0:0:
392,362,45645,5,4,3:3:0:0:
335,312,45816,1,0,0:0:0:0:
437,243,45987,1,2,0:2:0:0:
392,168,46159,1,0,3:3:0:0:
499,104,46330,1,8,0:2:0:0:
499,104,46502,1,2,0:2:0:0:
448,215,46674,2,0,L|467:274,2,39.3749987983704,4|0|8,3:3|0:0|3:3,0:0:0:0:
262,378,47017,2,0,L|83:362,1,157.499995193482,2|0,2:0|0:0,0:0:0:0:
105,363,47703,5,0,0:0:0:0:
127,324,47874,1,0,0:0:0:0:
75,281,48045,1,0,0:0:0:0:
38,346,48217,1,0,0:0:0:0:
179,227,48388,6,0,L|283:194,1,87.5,4|0,3:3|0:0,0:0:0:0:
436,278,48731,1,2,0:2:0:0:
418,357,48903,1,0,3:3:0:0:
366,203,49074,1,8,0:2:0:0:
437,167,49245,1,0,0:0:0:0:
313,18,49417,2,0,L|301:84,1,43.75,4|0,3:3|0:0,0:0:0:0:
493,191,49760,2,0,P|439:172|294:158,1,175,0|0,0:0|3:3,0:0:0:0:
265,218,50274,1,0,0:0:0:0:
374,120,50445,6,0,P|381:93|379:68,1,43.75,8|0,0:2|0:0,0:0:0:0:
341,37,50617,1,0,0:0:0:0:
231,18,50788,2,0,P|238:45|236:70,1,43.75,2|0,0:2|0:0,0:0:0:0:
198,101,50960,1,0,0:0:0:0:
325,175,51131,5,4,3:3:0:0:
241,201,51303,1,0,0:0:0:0:
68,124,51474,1,0,0:0:0:0:
86,45,51646,1,0,3:3:0:0:
133,201,51817,2,0,P|84:214|59:247,1,87.5,8|0,0:2|0:0,0:0:0:0:
191,384,52160,2,0,L|203:318,1,43.75,6|0,0:3|0:0,0:0:0:0:
140,384,52331,1,0,3:3:0:0:
11,211,52503,2,0,P|65:230|210:244,1,175,2|0,0:2|3:3,0:0:0:0:
239,184,53017,1,2,0:2:0:0:
394,260,53188,6,0,P|401:287|399:312,1,43.75,8|0,0:2|0:0,0:0:0:0:
361,343,53360,1,0,3:3:0:0:
251,362,53531,2,0,P|258:335|256:310,1,43.75
218,279,53703,1,8,0:3:0:0:
62,340,53874,6,0,P|50:284|95:236,1,87.5,4|0,3:3|0:0,0:0:0:0:
80,60,54217,1,0,0:0:0:0:
1,78,54389,1,0,3:3:0:0:
155,130,54560,1,8,0:2:0:0:
191,59,54731,1,0,0:0:0:0:
340,183,54903,2,0,L|274:195,1,43.75,4|0,3:3|0:0,0:0:0:0:
167,3,55246,2,0,L|200:202,1,175,0|0,0:0|3:3,0:0:0:0:
140,240,55760,1,0,0:0:0:0:
306,310,55931,5,8,0:3:0:0:
267,221,56103,1,0,0:0:0:0:
379,155,56274,1,2,0:2:0:0:
480,195,56446,1,0,0:0:0:0:
260,60,56617,6,0,P|308:38|366:47,1,87.5,4|0,3:3|0:0,0:0:0:0:
221,131,56960,1,0,0:0:0:0:
138,80,57131,1,0,3:3:0:0:
225,213,57303,2,0,P|268:211|306:191,1,87.5,8|0,0:3|0:0,0:0:0:0:
461,141,57645,2,0,L|449:75,1,43.75,4|0,3:3|0:0,0:0:0:0:
512,141,57816,1,8,0:2:0:0:
378,0,57988,2,0,L|345:199,1,175,2|0,0:2|3:3,0:0:0:0:
392,250,58502,1,0,0:0:0:0:
491,80,58674,1,8,0:3:0:0:
370,150,58845,5,0,3:3:0:0:
296,116,59017,1,0,0:0:0:0:
216,196,59188,1,8,0:2:0:0:
15,95,59360,5,2,2:0:0:0:
137,105,60045,1,8,2:0:0:0:
42,63,60388,1,0,2:0:0:0:
32,153,60731,5,2,2:0:0:0:
42,275,61416,1,8,2:0:0:0:
0,180,61759,1,0,2:0:0:0:
0,323,62103,6,0,P|53:312|207:346,1,209.999993591309,2|8,2:0|2:0,0:0:0:0:
297,303,63131,1,0,2:0:0:0:
286,345,63474,6,0,P|297:292|263:138,1,209.999993591309,2|8,2:0|2:0,0:0:0:0:
306,48,64502,1,0,2:0:0:0:
497,94,64845,5,2,2:0:0:0:
375,104,65530,1,8,2:0:0:0:
470,62,65873,1,0,2:0:0:0:
480,152,66217,5,2,2:0:0:0:
470,274,66903,1,8,2:0:0:0:
512,179,67245,1,0,2:0:0:0:
512,323,67588,6,0,P|459:312|305:346,1,209.999993591309,2|8,2:0|2:0,0:0:0:0:
201,264,68616,1,2,2:0:0:0:
102,360,68960,6,0,B|146:345|119:303|181:280|235:281|335:255|358:302|339:336|354:342|309:346|271:346|258:317|278:248|208:297,1,393.749987983704,2|0,2:0|0:0,0:0:0:0:
197,342,70331,5,4,3:3:0:0:
148,238,70503,1,0,0:0:0:0:
237,111,70674,1,0,0:0:0:0:
177,7,70845,1,0,3:3:0:0:
170,172,71017,2,0,P|251:145|328:122,1,157.499995193482,8|0,0:2|0:0,0:0:0:0:
340,95,71360,2,0,P|322:79|282:77,1,52.4999983978272,0|0,3:3|0:0,0:0:0:0:
93,225,71703,5,2,0:2:0:0:
197,176,71875,1,0,0:0:0:0:
324,265,72046,1,0,3:3:0:0:
428,205,72217,1,0,0:0:0:0:
263,198,72388,2,0,P|267:223|284:243,1,52.4999983978272,10|0,0:2|0:0,0:0:0:0:
471,370,72732,2,0,P|487:352|489:312,1,52.4999983978272,2|0,0:2|0:0,0:0:0:0:
421,293,72903,1,0,0:0:0:0:
433,104,73074,5,4,3:3:0:0:
478,248,73245,1,0,0:0:0:0:
359,201,73416,1,0,0:0:0:0:
339,63,73588,1,0,3:3:0:0:
510,1,73759,2,0,P|501:35|495:100,1,52.4999983978272,8|0,0:2|0:0,0:0:0:0:
510,137,73930,1,0,0:0:0:0:
295,89,74103,2,0,L|227:70,1,52.4999983978272,0|0,3:3|0:0,0:0:0:0:
402,107,74274,2,0,L|470:88,1,52.4999983978272,8|0,0:2|0:0,0:0:0:0:
387,80,74445,2,0,L|397:233,1,104.999996795654,0|8,0:0|0:3,0:0:0:0:
313,352,74788,1,0,3:3:0:0:
359,292,74960,1,0,0:0:0:0:
154,193,75131,1,8,0:2:0:0:
203,302,75302,1,0,3:3:0:0:
147,350,75474,2,0,P|118:339|56:358,1,91.8749971961976,2|0,0:2|0:0,0:0:0:0:
33,285,75817,5,4,3:3:0:0:
137,334,75989,1,0,0:0:0:0:
264,245,76160,1,0,0:0:0:0:
368,305,76331,1,0,3:3:0:0:
203,312,76503,2,0,L|64:236,1,157.499995193482,8|0,0:2|0:0,0:0:0:0:
0,194,76846,2,0,P|16:212|18:252,1,52.4999983978272,0|0,3:3|0:0,0:0:0:0:
268,347,77188,5,0,0:0:0:0:
219,243,77360,1,0,0:0:0:0:
308,116,77531,1,0,3:3:0:0:
248,12,77702,1,0,0:0:0:0:
241,177,77874,2,0,P|266:173|286:156,1,52.4999983978272,10|0,0:2|0:0,0:0:0:0:
511,31,78217,2,0,P|493:15|453:13,1,52.4999983978272,2|0,0:2|0:0,0:0:0:0:
404,59,78388,1,0,0:0:0:0:
435,258,78560,5,0,3:3:0:0:
480,114,78731,1,0,0:0:0:0:
319,112,78902,1,0,0:0:0:0:
237,267,79074,1,0,3:3:0:0:
398,356,79245,2,0,P|389:322|383:257,1,52.4999983978272,8|0,0:2|0:0,0:0:0:0:
464,233,79416,1,0,0:0:0:0:
213,248,79588,2,0,L|145:267,1,52.4999983978272,0|0,3:3|0:0,0:0:0:0:
330,190,79759,2,0,L|398:209,1,52.4999983978272,8|0,0:2|0:0,0:0:0:0:
298,273,79931,2,0,L|308:120,1,104.999996795654,0|8,0:0|0:2,0:0:0:0:
325,0,80274,2,0,P|315:51|381:21,1,157.499995193482,0|0,3:3|0:0,0:0:0:0:
403,26,80617,5,2,2:0:0:0:
455,102,80788,1,2,2:0:0:0:
428,166,80960,1,2,2:0:0:0:
450,202,81131,1,2,2:0:0:0:
492,347,81303,6,0,P|427:294|346:268,1,170.624992189408,6|0,3:2|2:0,0:0:0:0:
333,307,81645,2,0,P|362:294|457:273,1,113.749994792938,0|0,0:0|3:3,0:0:0:0:
246,346,81988,1,8,0:2:0:0:
188,269,82160,1,0,0:0:0:0:
59,263,82331,1,0,3:3:0:0:
10,364,82503,1,0,0:0:0:0:
124,212,82674,2,0,L|104:15,1,170.624992189408,2|0,0:2|0:0,0:0:0:0:
96,37,83017,2,0,P|54:95|32:165,1,113.749994792938,0|0,3:3|0:0,0:0:0:0:
145,286,83360,1,8,0:2:0:0:
220,237,83532,1,0,0:0:0:0:
354,273,83703,1,2,0:2:0:0:
389,368,83875,1,0,0:0:0:0:
244,184,84045,2,0,B|349:157|349:225|459:212,1,170.624992189408,0|0,3:3|0:0,0:0:0:0:
454,238,84388,2,0,P|470:178|485:231,1,113.749994792938,0|0,0:0|3:3,0:0:0:0:
329,93,84731,2,0,P|296:148|283:154,1,56.8749973964692,8|0,0:2|0:0,0:0:0:0:
250,162,84902,1,0,0:0:0:0:
77,68,85074,2,0,B|60:75|60:75|70:24,1,56.8749973964692,0|0,3:3|0:0,0:0:0:0:
110,77,85245,2,0,B|103:39|103:39|122:47,1,56.8749973964692,8|0,0:3|0:0,0:0:0:0:
191,129,85417,2,0,P|110:116|-3:203,2,227.499989585877,2|0|2,0:2|3:3|0:0,0:0:0:0:
97,268,86274,1,0,3:3:0:0:
0,283,86445,2,0,P|18:327|62:349,1,98.4375037550928,2|0,0:2|2:0,0:0:0:0:
117,305,86788,5,4,3:3:0:0:
229,352,86960,1,0,0:0:0:0:
356,264,87131,1,0,0:0:0:0:
486,356,87302,1,0,3:3:0:0:
334,285,87474,2,0,P|253:258|176:235,1,157.499995193482,8|0,0:2|0:0,0:0:0:0:
191,208,87817,2,0,L|249:190,1,52.4999983978272,0|0,3:3|0:0,0:0:0:0:
512,56,88160,5,2,0:2:0:0:
408,7,88332,1,0,0:0:0:0:
269,91,88503,1,0,3:3:0:0:
183,13,88674,1,0,0:0:0:0:
390,33,88845,2,0,P|386:58|369:78,1,52.4999983978272,10|0,0:2|0:0,0:0:0:0:
168,79,89189,2,0,P|152:61|150:21,1,52.4999983978272,2|0,0:2|0:0,0:0:0:0:
187,0,89360,1,0,0:0:0:0:
64,166,89531,5,4,3:3:0:0:
23,295,89702,1,0,0:0:0:0:
152,212,89873,1,0,0:0:0:0:
170,74,90045,1,0,3:3:0:0:
0,12,90217,2,0,P|9:46|15:111,1,52.4999983978272,8|0,0:2|0:0,0:0:0:0:
0,143,90387,1,0,0:0:0:0:
227,104,90560,2,0,L|295:85,1,52.4999983978272,0|0,3:3|0:0,0:0:0:0:
132,161,90731,2,0,L|64:142,1,52.4999983978272,8|0,0:2|0:0,0:0:0:0:
166,148,90903,2,0,L|156:301,1,104.999996795654,2|8,0:2|0:3,0:0:0:0:
197,363,91245,1,0,3:3:0:0:
127,334,91417,1,2,0:2:0:0:
350,205,91588,2,0,B|341:225|341:225|332:264,1,52.4999983978272,8|0,0:2|0:0,0:0:0:0:
342,326,91760,2,0,P|366:282|467:277,1,140,0|0,3:3|0:2,0:0:0:0:
461,3,93303,5,0,0:0:0:0:
461,3,93388,1,0,0:0:0:0:
461,3,93474,1,0,0:0:0:0:
403,83,93645,6,0,L|431:166,1,65.6250025033952
388,117,93988,2,0,L|413:42,1,65.6250025033952
457,210,94331,1,8,0:2:0:0:
457,210,94503,1,0,0:0:0:0:
388,264,94674,1,0,0:0:0:0:
301,236,94845,1,0,0:0:0:0:
177,336,95017,2,0,L|260:308,1,65.6250025033952
211,351,95360,2,0,L|136:325,1,65.6250025033952
15,329,95703,1,8,0:2:0:0:
15,329,95875,1,0,0:0:0:0:
55,243,96046,1,0,0:0:0:0:
48,225,96131,1,0,0:0:0:0:
41,200,96217,1,0,0:0:0:0:
94,106,96388,2,0,P|66:90|19:85,1,65.6250025033952
120,119,96731,1,0,0:0:0:0:
188,95,96903,1,0,0:0:0:0:
254,8,97074,1,8,0:2:0:0:
254,8,97245,1,0,0:0:0:0:
304,62,97417,2,0,L|310:107,2,32.8125012516976
394,1,97760,2,0,P|418:27|461:42,1,65.6250025033952
474,26,98103,2,0,P|425:49|348:121,1,131.25000500679,0|8,0:0|0:2,0:0:0:0:
366,98,98617,1,0,0:0:0:0:
451,185,98788,1,0,0:0:0:0:
463,112,98960,1,0,0:0:0:0:
340,181,99131,2,0,L|368:98,1,65.6250025033952
325,147,99474,2,0,L|350:222,1,65.6250025033952
275,115,99817,2,0,P|234:92|208:91,1,65.6250025033952,8|0,0:2|0:0,0:0:0:0:
205,104,100160,2,0,P|164:127|138:128,1,65.6250025033952
24,54,100503,2,0,L|52:137,1,65.6250025033952
9,88,100846,2,0,L|34:13,1,65.6250025033952
128,150,101188,2,0,P|75:156|44:335,1,262.500010013581,8|0,0:2|0:0,0:0:0:0:
94,326,102045,1,0,0:0:0:0:
123,227,102217,2,0,P|131:268|136:317,1,65.6250025033952
251,359,102560,1,8,0:2:0:0:
188,320,102731,1,0,0:0:0:0:
261,236,102903,1,0,0:0:0:0:
261,236,103074,1,0,0:0:0:0:
295,319,103245,2,0,L|464:296,1,157.499995193482
451,297,104274,5,0,0:0:0:0:
395,223,104445,1,0,0:0:0:0:
237,214,104617,6,0,P|273:224|304:245,1,74.3750014185906,2|0,3:2|0:0,0:0:0:0:
101,294,104960,1,0,0:0:0:0:
172,343,105131,1,0,3:3:0:0:
100,207,105303,2,0,L|106:289,1,74.3750014185906,8|0,0:2|0:0,0:0:0:0:
179,149,105645,1,0,3:3:0:0:
146,133,105988,2,0,P|83:110|66:74,1,74.3750014185906
217,15,106331,1,0,3:3:0:0:
168,86,106502,1,0,0:0:0:0:
304,14,106674,2,0,P|227:117|277:190,1,223.125004255772,8|0,0:2|0:0,0:0:0:0:
409,155,107360,1,0,3:3:0:0:
328,122,107531,1,0,0:0:0:0:
454,130,107703,2,0,L|462:230,1,74.3750014185906,0|0,0:0|3:3,0:0:0:0:
375,328,108045,1,8,0:2:0:0:
390,315,108388,2,0,L|376:268,1,37.1875007092953,0|0,3:3|0:0,0:0:0:0:
448,241,108560,2,0,L|437:276,1,37.1875007092953,0|0,3:3|0:0,0:0:0:0:
351,344,108731,2,0,P|278:323|186:318,2,148.750002837181
355,348,109760,2,0,P|344:308|338:209,1,111.562502127886
393,145,110103,6,0,P|390:164|386:182,1,37.1875007092953,0|0,3:3|0:0,0:0:0:0:
336,238,110274,1,0,0:0:0:0:
213,92,110445,6,0,P|215:110|220:128,1,37.1875007092953,0|0,3:3|0:0,0:0:0:0:
270,184,110616,1,0,0:0:0:0:
371,28,110788,6,0,P|368:46|363:64,1,37.1875007092953,0|0,3:3|0:0,0:0:0:0:
314,120,110959,1,0,0:0:0:0:
131,11,111131,6,0,P|179:-2|223:23,1,104.999996795654,4|0,3:3|0:0,0:0:0:0:
97,129,111817,1,0,0:0:0:0:
97,129,111988,1,0,0:0:0:0:
13,106,112160,2,0,P|8:66|10:-16,1,104.999996795654
8,1,112845,5,0,3:3:0:0:
90,79,113017,1,0,0:0:0:0:
16,182,113188,2,0,P|-8:145|4:106,1,74.3750014185906,0|0,0:0|3:3,0:0:0:0:
84,214,113531,1,8,0:2:0:0:
56,279,113703,1,0,0:0:0:0:
158,360,113874,2,0,L|145:309,1,37.1875007092953,0|0,3:3|0:0,0:0:0:0:
181,262,114045,1,8,0:2:0:0:
292,220,114217,2,0,L|272:304,1,74.3750014185906
401,356,114560,2,0,P|373:330|326:318,1,74.3750014185906,0|0,3:3|0:0,0:0:0:0:
440,189,114903,2,0,P|431:232|524:262,1,148.750002837181,8|0,0:3|0:0,0:0:0:0:
420,172,115417,1,8,0:2:0:0:
497,95,115588,5,2,2:0:0:0:
375,105,116273,1,8,2:0:0:0:
470,63,116616,1,0,2:0:0:0:
480,153,116959,5,2,2:0:0:0:
470,275,117644,1,8,2:0:0:0:
512,180,117987,1,0,2:0:0:0:
512,323,118331,6,0,P|459:312|305:346,1,209.999993591309,2|8,2:0|2:0,0:0:0:0:
215,303,119359,1,0,2:0:0:0:
226,345,119702,6,0,P|215:292|249:138,1,209.999993591309,2|8,2:0|2:0,0:0:0:0:
206,48,120730,1,0,2:0:0:0:
15,94,121073,5,2,2:0:0:0:
137,104,121760,1,8,2:0:0:0:
42,62,122103,1,0,2:0:0:0:
32,152,122445,5,2,2:0:0:0:
42,274,123131,1,8,2:0:0:0:
0,179,123473,1,0,2:0:0:0:
0,323,123817,6,0,P|53:312|207:346,1,209.999993591309,2|8,2:0|2:0,0:0:0:0:
311,264,124844,1,2,2:0:0:0:
404,357,125188,2,0,B|351:349|356:284|328:263|277:306|235:355|216:361|182:332|168:281|121:278|111:313,1,314.999990386963,2|2,2:0|2:0,0:0:0:0:
121,298,126560,5,4,3:3:0:0:
47,206,126732,1,0,0:0:0:0:
160,90,126903,1,0,0:0:0:0:
74,22,127074,1,0,3:3:0:0:
29,213,127246,2,0,P|85:177|178:186,1,157.499995193482,8|0,0:2|0:0,0:0:0:0:
169,264,127589,2,0,P|151:248|111:246,1,52.4999983978272,0|0,3:3|0:0,0:0:0:0:
123,243,127932,5,2,0:2:0:0:
263,75,128104,1,0,0:0:0:0:
400,124,128275,1,0,3:3:0:0:
482,253,128446,1,0,0:0:0:0:
311,151,128617,2,0,P|315:176|332:196,1,52.4999983978272,10|0,0:2|0:0,0:0:0:0:
491,384,128961,2,0,P|507:366|509:326,1,52.4999983978272,2|0,0:2|0:0,0:0:0:0:
452,288,129132,1,0,0:0:0:0:
492,79,129303,5,4,3:3:0:0:
359,134,129474,1,0,0:0:0:0:
216,67,129645,1,0,0:0:0:0:
50,119,129817,1,0,3:3:0:0:
206,36,129988,2,0,L|191:135,1,52.4999983978272,8|0,0:2|0:0,0:0:0:0:
190,171,130159,1,0,0:0:0:0:
22,85,130331,2,0,B|11:63|11:63|3:17,1,52.4999983978272,0|0,3:3|0:0,0:0:0:0:
164,94,130503,2,0,B|175:116|175:116|183:162,1,52.4999983978272,8|0,0:3|0:0,0:0:0:0:
98,129,130674,2,0,L|91:24,1,104.999996795654,0|8,0:0|0:2,0:0:0:0:
1,200,131017,2,0,P|94:179|168:286,1,209.999993591309,0|8,3:3|0:2,0:0:0:0:
105,367,131531,1,0,3:3:0:0:
16,296,131703,2,0,P|36:268|81:253,1,78.7499975967408,2|0,0:2|0:0,0:0:0:0:
131,195,132045,5,4,3:3:0:0:
235,146,132217,1,0,0:0:0:0:
362,235,132388,1,0,0:0:0:0:
466,175,132559,1,0,3:3:0:0:
301,168,132731,2,0,L|162:244,1,157.499995193482,8|0,0:2|0:0,0:0:0:0:
98,286,133074,2,0,P|114:268|116:228,1,52.4999983978272,0|0,3:3|0:0,0:0:0:0:
268,37,133417,5,0,0:0:0:0:
219,141,133589,1,0,0:0:0:0:
308,268,133760,1,0,3:3:0:0:
248,372,133931,1,0,0:0:0:0:
241,207,134103,2,0,P|266:211|286:228,1,52.4999983978272,10|0,0:2|0:0,0:0:0:0:
511,353,134446,2,0,P|493:369|453:371,1,52.4999983978272,2|0,0:2|0:0,0:0:0:0:
404,325,134617,1,0,0:0:0:0:
435,126,134789,5,4,3:3:0:0:
480,270,134960,1,0,0:0:0:0:
319,272,135131,1,0,0:0:0:0:
237,117,135303,1,0,3:3:0:0:
398,28,135474,2,0,P|389:62|383:127,1,52.4999983978272,8|0,0:2|0:0,0:0:0:0:
464,151,135645,1,0,0:0:0:0:
213,136,135817,2,0,B|201:117|201:117|145:117,1,52.4999983978272,0|0,3:3|0:0,0:0:0:0:
330,194,135988,2,0,B|347:176|347:176|398:175,1,52.4999983978272,8|0,3:3|0:0,0:0:0:0:
303,117,136160,6,0,B|221:55|116:96|61:244|117:324|250:373|218:263|507:258|504:391,1,682.499979171754,2|0,2:0|2:0,0:0:0:0:
501,370,137532,6,0,P|407:366|355:291,1,170.624992189408,6|0,3:2|2:0,0:0:0:0:
394,246,137874,2,0,P|423:233|518:212,1,113.749994792938,2|0,0:2|3:3,0:0:0:0:
354,106,138217,1,8,0:2:0:0:
266,208,138389,1,0,0:0:0:0:
146,74,138560,1,0,3:3:0:0:
245,98,138732,1,0,0:0:0:0:
119,190,138903,2,0,L|99:387,1,170.624992189408,2|0,0:2|0:0,0:0:0:0:
57,332,139246,2,0,L|153:203,1,113.749994792938,0|0,3:3|0:0,0:0:0:0:
367,98,139588,2,0,P|312:113|294:144,1,56.8749973964692,8|0,0:2|0:0,0:0:0:0:
292,147,139760,1,0,0:0:0:0:
153,105,139931,2,0,P|164:56|264:90,1,170.624992189408,2|0,0:2|0:0,0:0:0:0:
222,167,140273,2,0,B|117:194|117:126|7:139,1,170.624992189408,4|0,3:3|2:0,0:0:0:0:
34,166,140616,2,0,P|29:128|7:24,1,113.749994792938,2|0,0:2|3:3,0:0:0:0:
183,93,140960,2,0,P|216:148|229:154,1,56.8749973964692,8|0,0:2|0:0,0:0:0:0:
262,162,141131,1,0,0:0:0:0:
435,68,141303,2,0,B|452:75|452:75|442:24,1,56.8749973964692,0|0,3:3|0:0,0:0:0:0:
402,77,141474,2,0,B|409:39|409:39|390:47,1,56.8749973964692,10|0,0:3|0:0,0:0:0:0:
321,128,141646,2,0,B|443:170|410:85|529:62,2,227.499989585877,2|4|2,0:2|3:3|0:0,0:0:0:0:
500,259,142503,1,0,3:3:0:0:
486,142,142674,2,0,P|467:152|425:192,1,78.7499975967408,2|0,0:2|2:0,0:0:0:0:
465,206,143017,5,4,3:3:0:0:
391,298,143189,1,0,0:0:0:0:
352,90,143360,1,2,0:2:0:0:
438,22,143531,1,0,3:3:0:0:
483,213,143703,2,0,P|427:177|334:186,1,157.499995193482,8|0,0:2|0:0,0:0:0:0:
317,156,144046,2,0,P|335:140|375:138,1,52.4999983978272,0|0,3:3|0:0,0:0:0:0:
363,135,144389,5,2,0:2:0:0:
249,75,144561,1,0,0:0:0:0:
112,124,144732,1,4,3:3:0:0:
30,253,144903,1,0,0:0:0:0:
201,151,145074,2,0,P|197:176|180:196,1,52.4999983978272,8|0,0:2|0:0,0:0:0:0:
21,384,145418,2,0,P|5:366|3:326,1,52.4999983978272,2|0,0:2|0:0,0:0:0:0:
60,288,145589,1,0,0:0:0:0:
0,104,145760,5,0,2:0:0:0:
64,150,145931,1,0,2:0:0:0:
121,108,146103,1,0,2:0:0:0:
150,128,146274,1,0,2:0:0:0:
228,94,146445,1,0,2:0:0:0:
248,110,146617,1,0,2:0:0:0:
328,84,146788,1,0,2:0:0:0:
326,101,146960,1,0,2:0:0:0:
367,180,147131,1,0,2:0:0:0:
503,60,147474,1,0,2:0:0:0:
