osu file format v14

[General]
AudioFilename: audio.mp3
AudioLeadIn: 0
PreviewTime: 20544
Countdown: 0
SampleSet: Soft
StackLeniency: 0.4
Mode: 0
LetterboxInBreaks: 0
WidescreenStoryboard: 0

[Editor]
DistanceSpacing: 1
BeatDivisor: 4
GridSize: 16
TimelineZoom: 2.2

[Metadata]
Title:ROXANNE
TitleUnicode:ROXANNE
Artist:Arizona Zervas
ArtistUnicode:Arizona Zervas
Creator:wafer
Version:Insane
Source:
Tags:english hip hop rap cut agatsu mocaotic deviouspanda
BeatmapID:2253016
BeatmapSetID:1076733

[Difficulty]
HPDrainRate:5
CircleSize:4.6
OverallDifficulty:8
ApproachRate:8.8
SliderMultiplier:1.6
SliderTickRate:1

[Events]
//Background and Video events
0,0,"bg.jpg",0,0
//Break Periods
//Storyboard Layer 0 (Background)
//Storyboard Layer 1 (Fail)
//Storyboard Layer 2 (Pass)
//Storyboard Layer 3 (Foreground)
//Storyboard Layer 4 (Overlay)
//Storyboard Sound Samples

[TimingPoints]
4516,342.857142857143,4,2,1,65,1,0
6916,-200,4,2,1,65,0,0
7258,-100,4,2,1,65,0,0
9658,-200,4,2,1,65,0,0
10001,-100,4,2,1,65,0,0
12401,-83.3333333333333,4,2,1,65,0,0
12744,-100,4,2,1,65,0,0
15144,-166.666666666667,4,2,1,50,0,0
15487,-90.9090909090909,4,2,1,70,0,0
16516,-125,4,2,1,70,0,0
16858,-90.9090909090909,4,2,1,70,0,0
20630,-125,4,2,1,70,0,0
20973,-90.9090909090909,4,2,1,70,0,0
22001,-125,4,2,1,70,0,0
22344,-90.9090909090909,4,2,1,70,0,0
25773,-90.9090909090909,4,2,1,50,0,0
26458,-83.3333333333333,4,2,1,70,0,0
31258,-250,4,2,1,70,0,0
31601,-125,4,2,1,70,0,0
31944,-90.9090909090909,4,2,1,70,0,0
32973,-125,4,2,1,70,0,0
33316,-90.9090909090909,4,2,1,70,0,0
37258,-111.111111111111,4,2,1,70,0,0
37430,-111.111111111111,4,2,1,65,0,0
47373,-249.999999999999,4,2,1,55,0,0
47716,-142.857142857143,4,2,1,50,0,0
48401,-100,4,2,1,70,0,0
59373,-142.857142857143,4,2,1,60,0,0
60401,-200,4,2,1,60,0,0
60744,-142.857142857143,4,2,1,60,0,0
61773,-200,4,2,1,60,0,0
62116,-142.857142857143,4,2,1,60,0,0
63144,-111.111111111111,4,2,1,60,0,0
63487,-142.857142857143,4,2,1,60,0,0
64516,-200,4,2,1,60,0,0
64858,-142.857142857143,4,2,1,60,0,0
65887,-200,4,2,1,60,0,0
66230,-142.857142857143,4,2,1,60,0,0
67258,-200,4,2,1,60,0,0
67601,-142.857142857143,4,2,1,60,0,0
68630,-111.111111111111,4,2,1,55,0,0
68973,-294.117647058824,4,2,1,50,0,0
70001,-166.666666666667,4,2,1,50,0,0
70344,-83.3333333333333,4,2,1,75,0,0
71373,-100,4,2,1,75,0,0
71716,-83.3333333333333,4,2,1,75,0,0
75487,-111.111111111111,4,2,1,75,0,0
75830,-83.3333333333333,4,2,1,75,0,0
76858,-100,4,2,1,75,0,0
77201,-83.3333333333333,4,2,1,75,0,0
79944,-83.3333333333333,4,2,1,78,0,0
80630,-83.3333333333333,4,2,1,60,0,0
81316,-76.9230769230769,4,2,1,75,0,0
86116,-250,4,2,1,75,0,0
86458,-100,4,2,1,75,0,0
86801,-83.3333333333333,4,2,1,75,0,0
87830,-100,4,2,1,75,0,0
88173,-83.3333333333333,4,2,1,75,0,0
89544,-83.3333333333333,4,2,1,55,0,0
89716,-83.3333333333333,4,2,1,50,0,0
89887,-83.3333333333333,4,2,1,45,0,0
90058,-83.3333333333333,4,2,1,40,0,0
90230,-166.666666666667,4,2,1,40,0,0
91601,-166.666666666667,4,2,1,35,0,0

[Colours]
Combo1 : 151,203,255
Combo2 : 255,183,200
Combo3 : 197,180,210

[HitObjects]
11,76,4515,6,0,B|72:55|90:78|134:128|139:112|163:155|195:154|237:132,1,240,6|0,3:2|3:0,0:0:0:0:
317,96,5201,2,0,P|312:64|299:8,1,80,8|0,0:1|0:0,0:0:0:0:
300,163,5544,1,0,3:0:0:0:
444,33,5887,6,0,B|424:78|424:78|442:187,1,160,2|0,2:0|3:0,0:0:0:0:
366,232,6401,1,0,0:0:0:0:
308,185,6573,2,0,P|303:153|290:97,1,80,8|0,0:1|0:0,0:0:0:0:
359,260,6916,2,0,P|373:236|383:256,1,60,0|0,3:0|0:0,0:0:0:0:
405,324,7258,6,0,B|432:290|426:254|381:229|342:242|332:290|344:322|310:341|239:326,1,240,6|0,3:2|3:0,0:0:0:0:
182,288,7944,2,0,P|177:320|164:376,1,80,8|0,0:1|0:0,0:0:0:0:
165,221,8287,1,0,3:0:0:0:
165,221,8458,1,0,3:0:0:0:
232,170,8630,6,0,B|169:147|169:147|148:147|148:147|76:118,1,160,2|0,2:0|3:0,0:0:0:0:
158,45,9144,1,0,0:0:0:0:
225,62,9316,2,0,P|257:57|313:44,1,80,8|0,0:1|3:0,0:0:0:0:
150,39,9658,2,0,L|104:32,1,40,0|8,3:0|0:1,0:0:0:0:
13,153,10001,6,0,B|-10:182|-1:227|30:239|68:241|99:219|106:192|109:186|113:179|136:152|198:180,1,240,6|0,3:2|3:0,0:0:0:0:
244,240,10687,2,0,P|249:272|262:328,1,80,8|0,0:1|0:0,0:0:0:0:
284,172,11030,1,0,3:0:0:0:
484,218,11373,6,0,B|426:216|395:267|395:267|368:244|336:253,1,160,2|0,2:0|3:0,0:0:0:0:
284,172,11887,1,0,0:0:0:0:
342,125,12059,2,0,P|347:93|360:37,1,80,8|0,0:1|0:0,0:0:0:0:
289,209,12401,2,0,P|284:171|261:201,1,95.9999970703126,0|0,3:0|0:0,0:0:0:0:
103,137,12744,6,0,B|161:166|222:121|222:121|276:78|346:124,1,240,4|0,3:2|3:0,0:0:0:0:
411,83,13430,2,0,P|416:51|429:-5,1,80,8|0,0:1|0:0,0:0:0:0:
451,151,13773,1,0,3:0:0:0:
469,158,13944,1,0,3:0:0:0:
400,243,14116,5,2,2:0:0:0:
448,299,14287,1,8,2:2:0:0:
407,358,14458,1,0,0:0:0:0:
407,358,14630,1,0,0:0:0:0:
354,300,14801,1,0,0:0:0:0:
354,300,15144,6,0,P|327:322|319:356,1,71.9999978027344,2|0,2:0|0:0,0:0:0:0:
321,368,15487,6,0,B|314:240|314:240|306:226|306:226|302:94,1,264.000008056641,6|0,3:2|3:0,0:0:0:0:
221,22,16173,1,8,0:1:0:0:
221,22,16345,1,0,0:0:0:0:
205,95,16516,2,0,P|160:81|112:71,1,96,2|0,3:2|0:0,0:0:0:0:
72,135,16858,6,0,P|67:98|96:147,1,176.000005371094,2|0,0:2|3:0,0:0:0:0:
26,236,17373,1,2,0:0:0:0:
31,243,17459,1,2,0:0:0:0:
36,249,17544,2,0,L|46:352,1,88.000002685547,10|0,0:1|0:0,0:0:0:0:
153,291,17887,2,0,L|163:188,1,88.000002685547,2|0,0:1|0:0,0:0:0:0:
118,352,18230,6,0,P|150:323|193:322,1,88.000002685547,6|0,3:2|2:0,0:0:0:0:
271,344,18573,1,2,2:0:0:0:
298,279,18744,1,0,3:0:0:0:
373,308,18915,1,8,0:1:0:0:
373,308,19087,1,0,2:0:0:0:
390,233,19258,1,2,3:2:0:0:
403,159,19430,1,2,3:2:0:0:
491,214,19601,2,0,L|499:301,1,88.000002685547,2|8,2:0|0:2,0:0:0:0:
372,137,19944,2,0,P|372:73|426:39,1,132.00000402832,2|0,3:2|0:0,0:0:0:0:
479,89,20287,1,8,0:1:0:0:
479,89,20458,1,0,0:0:0:0:
341,64,20630,6,0,L|268:48,1,64,2|8,2:0|0:2,0:0:0:0:
208,12,20887,1,2,0:0:0:0:
194,23,20973,6,0,B|173:93|119:138|68:135|20:88|40:43|63:28|107:24,1,264.000008056641,6|0,3:2|3:0,0:0:0:0:
156,133,21658,1,8,0:1:0:0:
156,133,21829,1,0,0:0:0:0:
106,196,22001,2,0,P|61:182|13:172,1,96,2|0,3:2|0:0,0:0:0:0:
35,254,22344,6,0,B|34:208|12:171|12:171|34:208|90:236,1,176.000005371094,2|0,0:2|3:0,0:0:0:0:
176,348,22858,1,2,0:0:0:0:
183,343,22944,1,2,0:0:0:0:
189,338,23029,2,0,L|292:328,1,88.000002685547,10|0,0:1|0:0,0:0:0:0:
166,238,23372,2,0,L|63:228,1,88.000002685547,2|0,0:1|0:0,0:0:0:0:
212,174,23716,6,0,P|241:206|242:249,1,88.000002685547,6|0,3:2|2:0,0:0:0:0:
277,330,24058,1,2,2:0:0:0:
341,291,24230,1,0,3:0:0:0:
316,226,24401,1,8,0:1:0:0:
316,226,24573,1,0,2:0:0:0:
368,174,24744,1,2,3:2:0:0:
425,133,24916,1,2,3:2:0:0:
350,70,25087,2,0,P|306:63|263:55,1,88.000002685547,2|8,2:0|0:2,0:0:0:0:
433,161,25430,2,0,P|431:110|492:61,1,132.00000402832,2|0,3:2|0:0,0:0:0:0:
499,131,25773,5,2,2:0:0:0:
433,161,25944,1,2,2:0:0:0:
422,250,26116,1,2,2:0:0:0:
470,308,26287,1,2,2:0:0:0:
366,198,26458,6,0,B|330:175|301:190|274:214|270:219|267:223|251:251|228:260|189:246,1,191.999994140625,6|2,3:2|2:0,0:0:0:0:
107,207,26973,1,0,3:0:0:0:
117,342,27144,5,8,0:1:0:0:
43,326,27316,1,2,2:0:0:0:
57,253,27487,1,2,3:2:0:0:
131,269,27658,1,0,0:0:0:0:
227,71,27830,6,0,B|198:128|209:182|209:182|190:133|140:142,1,191.999994140625,2|0,3:2|3:2,0:0:0:0:
81,88,28344,1,2,0:0:0:0:
71,85,28430,1,2,0:0:0:0:
62,81,28516,5,8,0:1:0:0:
126,68,28687,1,2,2:0:0:0:
227,71,28858,1,2,2:0:0:0:
291,58,29030,1,2,2:0:0:0:
468,163,29201,6,0,P|382:187|382:277,1,191.999994140625,2|2,3:2|0:2,0:0:0:0:
455,345,29716,1,0,3:2:0:0:
439,230,29887,1,8,0:1:0:0:
469,164,30058,1,2,2:0:0:0:
406,117,30230,2,0,L|350:105,1,47.9999985351563,0|0,3:2|0:0,0:0:0:0:
412,46,30401,2,0,L|468:34,1,47.9999985351563,0|0,3:2|0:0,0:0:0:0:
439,230,30573,6,0,B|374:240|374:240|337:277|337:277|256:297,1,191.999994140625,2|2,0:2|3:2,0:0:0:0:
174,266,31087,1,2,0:0:0:0:
164,269,31173,1,2,0:0:0:0:
155,273,31258,6,0,L|145:230,1,32,8|2,0:1|3:2,0:0:0:0:
107,95,31601,6,0,P|62:115|59:181,1,96,2|0,0:2|0:0,0:0:0:0:
64,180,31944,6,0,B|124:137|183:182|183:182|190:174|190:174|242:230|324:184,1,264.000008056641,6|0,3:2|3:0,0:0:0:0:
364,85,32630,1,8,0:1:0:0:
364,85,32802,1,0,0:0:0:0:
303,33,32973,2,0,P|255:26|206:14,1,96,2|0,3:2|0:0,0:0:0:0:
141,29,33316,6,0,P|67:60|28:-21,1,176.000005371094,2|0,0:2|3:0,0:0:0:0:
22,126,33830,1,2,0:0:0:0:
27,133,33916,1,2,0:0:0:0:
32,139,34001,2,0,B|50:178|50:178|42:242,1,88.000002685547,10|0,0:1|0:0,0:0:0:0:
154,113,34344,2,0,B|136:74|136:74|144:10,1,88.000002685547,2|0,0:1|0:0,0:0:0:0:
118,187,34687,6,0,P|86:158|43:157,1,88.000002685547,6|0,3:2|2:0,0:0:0:0:
119,280,35030,1,2,2:0:0:0:
189,282,35201,1,0,3:0:0:0:
234,221,35372,1,8,0:1:0:0:
234,221,35544,1,0,2:0:0:0:
309,238,35715,1,2,3:2:0:0:
382,257,35887,1,2,3:2:0:0:
467,297,36058,2,0,L|475:384,1,88.000002685547,2|8,2:0|0:2,0:0:0:0:
385,230,36401,2,0,L|371:82,1,132.00000402832,0|0,3:2|0:0,0:0:0:0:
409,38,36744,2,0,P|432:11|437:46,1,88.000002685547,8|0,0:1|3:2,0:0:0:0:
192,1,37258,1,8,0:2:0:0:
114,41,37430,6,0,P|153:58|178:94,1,71.9999978027344,6|0,2:0|2:0,0:0:0:0:
249,67,37773,2,0,P|249:110|227:147,1,71.9999978027344,2|0,2:0|3:2,0:0:0:0:
112,116,38116,1,8,0:1:0:0:
112,116,38287,1,0,2:0:0:0:
70,203,38458,2,0,L|-5:219,1,71.9999978027344,2|2,3:2|3:2,0:0:0:0:
199,237,38801,2,0,P|140:274|139:343,2,143.999995605469,2|2|8,2:0|3:2|0:1,0:0:0:0:
139,343,39830,1,2,2:0:0:0:
351,183,40173,6,0,L|366:274,1,71.9999978027344,2|0,2:0|2:0,0:0:0:0:
442,302,40516,2,0,L|457:211,1,71.9999978027344,2|0,2:0|3:2,0:0:0:0:
433,139,40858,1,8,0:1:0:0:
482,88,41030,1,0,2:0:0:0:
385,16,41201,1,2,3:2:0:0:
385,16,41373,1,2,3:2:0:0:
322,55,41544,2,0,P|286:43|241:26,1,71.9999978027344,2|8,2:0|0:2,0:0:0:0:
115,116,41887,2,0,P|173:78|174:9,2,143.999995605469,2|8|2,3:2|0:1|2:0,0:0:0:0:
38,106,42744,1,8,0:2:0:0:
34,99,42830,1,2,0:0:0:0:
30,92,42916,5,2,2:0:0:0:
115,116,43087,1,0,2:0:0:0:
186,106,43258,1,2,2:0:0:0:
257,97,43430,1,0,3:2:0:0:
308,147,43601,1,8,0:1:0:0:
359,197,43773,1,0,2:0:0:0:
293,227,43944,1,2,3:2:0:0:
243,174,44116,1,0,0:2:0:0:
376,127,44287,6,0,L|497:79,1,107.999996704102,2|0,2:0|0:0,0:0:0:0:
491,109,44630,2,0,B|465:147|465:147|487:258,1,143.999995605469,2|8,3:2|0:1,0:0:0:0:
484,243,45316,1,2,2:0:0:0:
438,303,45487,1,2,0:0:0:0:
442,310,45573,1,2,0:0:0:0:
446,317,45659,5,2,2:0:0:0:
361,293,45830,1,0,2:0:0:0:
326,356,46001,1,2,2:0:0:0:
259,328,46173,1,0,3:2:0:0:
279,259,46344,2,0,L|202:228,1,71.9999978027344,8|0,0:1|2:0,0:0:0:0:
152,272,46687,1,2,3:2:0:0:
152,272,46858,1,0,0:2:0:0:
66,172,47030,1,2,2:0:0:0:
66,172,47373,2,0,P|77:156|75:173,1,48,2|0,2:0|0:0,0:0:0:0:
54,194,47716,6,0,P|44:103|19:2,1,195.999994018555,2|0,2:0|0:0,0:0:0:0:
60,63,48401,6,0,B|101:40|143:73|143:73|175:100|224:80,1,160,6|2,3:2|2:0,0:0:0:0:
93,128,48916,1,0,3:2:0:0:
139,186,49087,2,0,L|153:312,1,120,8|0,0:1|0:0,0:0:0:0:
104,354,49430,2,0,L|53:346,1,40,2|0,3:2|0:0,0:0:0:0:
104,354,49773,2,0,P|146:286|220:300,1,160,2|0,2:0|3:2,0:0:0:0:
395,342,50458,5,8,0:1:0:0:
381,269,50630,1,2,2:0:0:0:
455,253,50801,1,2,2:0:0:0:
469,326,50972,1,0,2:0:0:0:
430,155,51144,6,0,L|510:135,1,80,2|2,3:2|2:0,0:0:0:0:
363,189,51487,1,2,2:0:0:0:
300,143,51658,1,0,3:2:0:0:
343,29,51830,2,0,B|403:15|391:73|457:57,1,120,8|0,0:1|0:0,0:0:0:0:
459,49,52173,2,0,L|394:58,1,40,2|0,3:2|0:0,0:0:0:0:
301,118,52344,2,0,L|236:109,1,40,0|0,3:2|0:0,0:0:0:0:
203,66,52516,2,0,P|127:57|90:123,1,160,2|0,2:0|3:2,0:0:0:0:
131,269,53201,5,8,0:1:0:0:
117,342,53373,1,2,3:2:0:0:
63,290,53544,1,2,2:0:0:0:
77,217,53716,1,8,2:2:0:0:
224,337,53887,6,0,P|303:326|383:319,1,160,2|2,3:2|2:0,0:0:0:0:
483,240,54401,1,0,3:2:0:0:
430,193,54573,2,0,P|411:137|443:89,1,120,8|0,0:1|0:0,0:0:0:0:
499,40,54916,2,0,L|501:-4,1,40,0|0,3:2|0:0,0:0:0:0:
499,40,55258,2,0,L|341:69,1,160,2|0,2:0|3:2,0:0:0:0:
117,42,55944,5,8,0:1:0:0:
131,115,56116,1,2,2:0:0:0:
57,131,56287,1,2,2:0:0:0:
43,58,56458,1,0,2:0:0:0:
178,187,56630,6,0,P|142:212|128:253,1,80,2|0,3:2|0:0,0:0:0:0:
179,341,56973,1,2,2:0:0:0:
244,307,57144,1,0,3:2:0:0:
368,363,57316,2,0,B|425:352|425:352|433:344|433:344|505:331,1,120,8|0,0:1|0:0,0:0:0:0:
491,329,57658,2,0,L|495:271,1,40,0|0,3:2|0:0,0:0:0:0:
403,208,57830,2,0,L|399:150,1,40,0|0,3:2|0:0,0:0:0:0:
327,141,58001,2,0,L|485:112,1,160,2|0,2:0|3:2,0:0:0:0:
238,40,58687,1,8,0:1:0:0:
238,40,58858,2,0,L|144:33,1,80,0|2,3:2|2:0,0:0:0:0:
79,83,59201,1,8,2:2:0:0:
222,141,59373,6,0,P|300:110|380:85,1,167.999994873047,2|0,2:0|0:0,0:0:0:0:
472,68,60058,1,8,0:1:0:0:
498,239,60401,2,0,P|481:255|485:232,1,60,2|0,2:0|0:0,0:0:0:0:
485,232,60744,6,0,P|406:262|326:287,1,167.999994873047,2|0,2:0|0:0,0:0:0:0:
235,305,61429,1,8,0:1:0:0:
72,241,61773,2,0,L|24:248,1,40,2|0,2:0|0:0,0:0:0:0:
76,159,62116,6,0,P|100:139|146:123,1,55.9999982910157,2|0,2:0|2:0,0:0:0:0:
110,55,62458,2,0,P|141:57|184:79,1,55.9999982910157,2|2,2:0|2:0,0:0:0:0:
214,121,62801,2,0,L|219:194,1,55.9999982910157,8|0,0:1|0:0,0:0:0:0:
304,240,63144,2,0,P|336:268|328:225,1,107.999996704102,2|0,2:0|0:0,0:0:0:0:
325,206,63487,6,0,P|375:186|436:155,1,111.999996582031,2|0,2:0|0:0,0:0:0:0:
453,28,64173,2,0,P|416:52|406:91,1,83.9999974365235,8|0,0:1|0:0,0:0:0:0:
427,160,64516,2,0,L|475:167,1,40,2|0,2:0|0:0,0:0:0:0:
368,326,64858,6,0,P|342:246|322:164,1,167.999994873047,2|0,2:0|0:0,0:0:0:0:
302,83,65543,1,8,0:1:0:0:
129,138,65887,2,0,P|126:114|143:131,1,60,2|0,2:0|0:0,0:0:0:0:
143,129,66230,6,0,P|117:208|97:290,1,167.999994873047,2|0,2:0|0:0,0:0:0:0:
142,371,66915,1,8,0:1:0:0:
328,331,67258,2,0,L|376:324,1,40,2|0,2:0|0:0,0:0:0:0:
476,213,67601,6,0,P|452:193|406:177,1,55.9999982910157,2|0,2:0|2:0,0:0:0:0:
442,109,67944,2,0,P|410:111|367:133,1,55.9999982910157,2|2,2:0|2:0,0:0:0:0:
338,175,68286,2,0,L|333:248,1,55.9999982910157,8|0,0:1|0:0,0:0:0:0:
268,109,68630,2,0,P|226:77|173:74,1,107.999996704102,2|0,2:0|0:0,0:0:0:0:
120,113,68973,2,0,P|66:110|23:77,1,108.800000664063,2|0,2:0|0:0,0:0:0:0:
179,289,70001,6,0,P|152:311|144:345,1,71.9999978027344,2|0,2:0|0:0,0:0:0:0:
214,348,70344,6,0,B|263:319|263:268|239:226|195:194|183:186|167:182|167:182|213:171|210:113,1,287.999991210938,6|0,3:2|3:0,0:0:0:0:
330,68,71030,2,0,P|376:18|463:28,1,143.999995605469,8|0,0:1|0:0,0:0:0:0:
437,95,71373,2,0,B|410:81|410:81|420:170,1,120,2|0,3:2|0:0,0:0:0:0:
484,235,71716,6,0,B|437:222|394:260|394:260|375:206|329:193,1,191.999994140625,2|0,0:2|3:0,0:0:0:0:
170,135,72230,1,2,0:0:0:0:
176,144,72316,1,2,0:0:0:0:
183,152,72401,2,0,P|190:205|196:285,1,95.9999970703126,10|0,0:1|0:0,0:0:0:0:
306,362,72744,2,0,P|313:309|319:228,1,95.9999970703126,2|0,0:1|0:0,0:0:0:0:
152,335,73087,5,6,3:2:0:0:
63,289,73259,1,0,2:0:0:0:
105,202,73430,1,2,2:0:0:0:
194,248,73601,1,0,3:0:0:0:
38,145,73773,1,8,0:1:0:0:
38,145,73944,1,0,2:0:0:0:
111,60,74116,1,2,3:2:0:0:
58,0,74287,1,2,3:2:0:0:
117,133,74458,2,0,B|194:100|180:187|270:142,1,143.999995605469,2|0,2:0|0:0,0:0:0:0:
303,107,74801,2,0,P|322:62|254:16,1,143.999995605469,2|0,3:2|0:0,0:0:0:0:
229,88,75144,1,8,0:1:0:0:
229,88,75316,1,0,3:2:0:0:
345,45,75487,6,0,L|418:61,1,71.9999978027344,2|8,2:0|0:2,0:0:0:0:
458,243,75744,1,2,0:0:0:0:
434,257,75830,6,0,B|454:233|467:210|456:171|415:139|375:178|335:199|339:276|371:336,1,287.999991210938,6|0,3:2|3:0,0:0:0:0:
262,319,76516,2,0,P|216:269|129:279,1,143.999995605469,8|0,0:1|0:0,0:0:0:0:
88,321,76858,2,0,B|69:345|69:345|40:260,1,120,2|0,3:2|0:0,0:0:0:0:
70,186,77201,6,0,B|117:143|112:73|112:73|100:106|74:132,1,191.999994140625,2|0,0:2|3:0,0:0:0:0:
213,16,77716,1,2,0:0:0:0:
222,22,77802,1,2,0:0:0:0:
230,29,77887,2,0,P|283:36|363:42,1,95.9999970703126,10|0,0:1|0:0,0:0:0:0:
440,152,78230,2,0,P|387:159|306:165,1,95.9999970703126,2|0,0:1|0:0,0:0:0:0:
307,370,78573,5,6,3:2:0:0:
396,324,78745,1,0,2:0:0:0:
354,237,78916,1,2,2:0:0:0:
265,283,79087,1,0,3:0:0:0:
472,351,79258,1,8,0:1:0:0:
472,351,79430,1,0,2:0:0:0:
488,208,79601,1,2,3:2:0:0:
440,152,79773,1,2,3:2:0:0:
512,0,79944,5,2,2:0:0:0:
512,0,80630,5,2,2:0:0:0:
482,66,80801,1,2,2:0:0:0:
393,77,80973,1,2,2:0:0:0:
335,29,81144,1,2,2:0:0:0:
473,140,81316,6,0,B|454:115|420:139|408:162|419:187|447:199|487:235|489:280|431:314,1,207.999990478516,6|2,3:2|2:0,0:0:0:0:
346,366,81830,1,0,3:0:0:0:
209,271,82001,1,8,0:1:0:0:
308,303,82173,1,2,2:0:0:0:
407,333,82344,1,2,3:2:0:0:
505,366,82516,1,2,2:0:0:0:
334,209,82687,6,0,B|331:200|320:189|304:189|288:199|284:210|286:219|286:219|317:335,1,155.999992858887,2|0,3:2|0:0,0:0:0:0:
234,353,83030,2,0,B|194:357|164:324|164:324|123:285|73:307,1,155.999992858887,0|0,3:2|0:0,0:0:0:0:
46,245,83373,1,8,0:1:0:0:
111,179,83544,1,2,2:0:0:0:
61,122,83716,2,0,L|45:11,1,103.999995239258,2|2,2:0|2:0,0:0:0:0:
131,194,84058,6,0,P|145:122|239:107,1,155.999992858887,2|0,3:2|0:0,0:0:0:0:
277,139,84401,2,0,P|324:123|383:98,1,103.999995239258,2|0,0:2|3:2,0:0:0:0:
486,13,84744,1,8,0:1:0:0:
461,107,84916,1,2,2:0:0:0:
508,227,85087,2,0,L|512:291,1,51.999997619629,0|0,3:2|0:0,0:0:0:0:
450,131,85258,2,0,L|446:195,1,51.999997619629,0|0,3:2|0:0,0:0:0:0:
367,366,85430,2,0,P|366:294|433:361,1,207.999990478516,2|2,0:2|3:2,0:0:0:0:
297,264,85944,1,2,0:0:0:0:
271,258,86029,1,2,0:0:0:0:
246,254,86116,6,0,L|236:211,1,32,8|2,0:1|3:2,0:0:0:0:
151,354,86458,2,0,P|111:311|52:314,1,120,2|0,0:2|0:0,0:0:0:0:
84,380,86801,6,0,B|123:298|75:214|75:214|84:192|84:192|73:142|129:88,1,287.999991210938,6|0,3:2|3:0,0:0:0:0:
194,41,87487,2,0,P|240:91|327:81,1,143.999995605469,8|0,0:1|0:0,0:0:0:0:
368,39,87830,2,0,B|387:15|387:15|406:106,1,120,2|0,3:2|0:0,0:0:0:0:
342,172,88173,6,0,B|443:173|403:81|527:87,1,191.999994140625,2|0,0:2|3:0,0:0:0:0:
488,303,88687,1,2,0:0:0:0:
482,294,88773,1,2,0:0:0:0:
475,286,88858,2,0,P|468:233|462:153,1,95.9999970703126,10|0,0:1|0:0,0:0:0:0:
352,76,89201,2,0,P|345:129|339:210,1,95.9999970703126,2|0,0:1|0:0,0:0:0:0:
281,253,89544,5,2,0:0:0:0:
324,306,89716,1,2,0:0:0:0:
286,364,89887,1,2,0:0:0:0:
286,364,90058,1,2,0:0:0:0:
232,311,90230,2,0,L|160:295,1,47.9999985351563,2|0,0:0|0:0,0:0:0:0:
132,242,90573,2,0,L|204:226,1,47.9999985351563,2|0,0:0|0:0,0:0:0:0:
139,165,90916,2,0,P|105:159|69:126,1,71.9999978027344,2|0,0:0|0:0,0:0:0:0:
72,123,91258,2,0,L|64:224,1,95.9999970703126,2|0,0:0|0:0,0:0:0:0:
