osu file format v14

[General]
AudioFilename: audio.mp3
AudioLeadIn: 0
PreviewTime: 47617
Countdown: 0
SampleSet: Normal
StackLeniency: 0.7
Mode: 0
LetterboxInBreaks: 0
WidescreenStoryboard: 1

[Editor]
Bookmarks: 15474,37417,48388,59355,70326,93640,104612,115583,126555
DistanceSpacing: 1
BeatDivisor: 4
GridSize: 32
TimelineZoom: 1.6

[Metadata]
Title:ROXANNE
TitleUnicode:ROXANNE
Artist:Arizona Zervas
ArtistUnicode:Arizona Zervas
Creator:wafer
Version:IOException's Mid
Source:
Tags:english hiphop hip-hop hip hop rap kami no kotoba goopert agatsu jasontime12345 renumi ceo of osu deadcode ioexception jasontime12345 mizunashi akari deviouspanda
BeatmapID:3987356
BeatmapSetID:1930291

[Difficulty]
HPDrainRate:5
CircleSize:4
OverallDifficulty:8.8
ApproachRate:8
SliderMultiplier:1.4
SliderTickRate:1

[Events]
//Background and Video events
0,0,"roxanne.png",0,0
//Break Periods
//Storyboard Layer 0 (Background)
//Storyboard Layer 1 (Fail)
//Storyboard Layer 2 (Pass)
//Storyboard Layer 3 (Foreground)
//Storyboard Layer 4 (Overlay)
//Storyboard Sound Samples

[TimingPoints]
4498,342.857142857143,4,1,2,65,1,0
15126,-100,4,1,2,50,0,0
15469,-100,4,1,2,70,0,0
25755,-100,4,1,2,50,0,0
26440,-100,4,1,2,70,0,0
31240,-100,4,1,2,50,0,0
31412,-100,4,1,2,70,0,0
37412,-100,4,1,2,65,0,0
43026,-100,4,1,2,5,0,0
43069,-100,4,1,2,65,0,0
43369,-100,4,1,2,5,0,0
43412,-100,4,1,2,65,0,0
43712,-100,4,1,2,5,0,0
43755,-100,4,1,2,65,0,0
47355,-100,4,1,2,55,0,0
48298,-100,4,1,2,5,0,0
48383,-100,4,1,2,70,0,0
59355,-100,4,1,2,60,0,0
60126,-100,4,1,2,5,0,0
60383,-100,4,1,2,60,0,0
61498,-100,4,1,2,5,0,0
61755,-100,4,1,2,60,0,0
65612,-100,4,1,2,5,0,0
65869,-100,4,1,2,60,0,0
66983,-100,4,1,2,5,0,0
67240,-100,4,1,2,60,0,0
70326,-100,4,1,2,70,0,0
80612,-100,4,1,2,50,0,0
81298,-100,4,1,2,70,0,0
86097,-100,4,1,2,50,0,0
86269,-100,4,1,2,70,0,0
92269,-100,4,1,2,65,0,0
115583,-100,4,1,2,60,0,0
116355,-100,4,1,2,5,0,0
116612,-100,4,1,2,60,0,0
117726,-100,4,1,2,5,0,0
117983,-100,4,1,2,60,0,0
119098,-100,4,1,2,5,0,0
119355,-100,4,1,2,60,0,0
120469,-100,4,1,2,5,0,0
120726,-100,4,1,2,60,0,0
121840,-100,4,1,2,5,0,0
122097,-100,4,1,2,60,0,0
123212,-100,4,1,2,5,0,0
123469,-100,4,1,2,60,0,0
124840,-100,4,1,2,55,0,0
125183,-100,4,1,2,50,0,0
126555,-100,4,1,2,75,0,0
136155,-100,4,1,2,78,0,0
136840,-100,4,1,2,60,0,0
137526,-100,4,1,2,75,0,0
142326,-100,4,1,2,55,0,0
142497,-100,4,1,2,75,0,0
145754,-166.666666666667,4,1,2,70,0,0
145926,-100,4,1,2,65,0,0
146097,-100,4,1,2,60,0,0
146268,-100,4,1,2,55,0,0
148497,-100,4,1,2,5,0,0

[Colours]
Combo1 : 112,250,205
Combo2 : 253,217,168
Combo3 : 146,173,248
Combo4 : 253,189,94

[HitObjects]
435,64,4497,6,0,B|360:55|383:115|269:92,1,140,4|0,3:3|0:0,0:0:0:0:
302,96,5012,2,0,L|320:183,1,70,0|8,3:3|0:2,0:0:0:0:
226,150,5526,6,0,B|151:141|174:201|60:178,1,140,4|2,3:3|0:2,0:0:0:0:
272,237,6212,6,0,B|226:297|290:307|213:394,1,140,0|8,3:3|0:2,0:0:0:0:
379,218,6898,6,0,B|408:287|449:237|486:347,1,140,2|4,0:2|3:3,0:0:0:0:
420,115,7583,5,0,0:0:0:0:
420,115,7755,1,0,0:0:0:0:
420,115,7926,2,0,P|477:94|474:12,1,140,8|0,0:2|3:3,0:0:0:0:
346,158,8440,2,0,P|329:127|332:92,1,70,8|2,0:2|0:2,0:0:0:0:
356,17,8783,1,8,0:3:0:0:
356,17,8955,2,0,L|210:42,1,140,0|8,3:3|0:2,0:0:0:0:
209,78,9469,2,0,L|63:53,1,140,0|8,3:3|0:2,0:0:0:0:
0,131,9983,6,0,P|11:192|94:192,1,140,4|0,3:3|0:0,0:0:0:0:
79,203,10498,2,0,P|113:175|160:178,1,70,0|8,3:3|0:2,0:0:0:0:
219,58,11012,6,0,P|252:94|216:198,1,140,0|4,3:3|0:3,0:0:0:0:
420,156,11698,6,0,P|405:202|297:223,1,140,0|8,3:3|0:2,0:0:0:0:
397,357,12383,6,0,P|349:367|277:284,1,140,2|4,0:2|3:3,0:0:0:0:
134,187,13069,5,0,0:0:0:0:
134,187,13240,1,0,3:3:0:0:
134,187,13412,2,0,B|98:244|98:244|136:331,1,140,8|0,0:2|3:3,0:0:0:0:
200,256,13926,2,0,L|279:265,1,70,8|2,0:2|0:2,0:0:0:0:
283,347,14269,1,8,0:2:0:0:
283,347,14440,1,0,0:0:0:0:
283,347,15126,2,0,L|213:339,1,70,2|0,0:2|0:0,0:0:0:0:
152,381,15469,6,0,P|104:368|93:269,1,140,4|0,3:3|0:0,0:0:0:0:
65,211,15983,1,0,3:3:0:0:
107,149,16155,2,0,P|104:111|77:78,1,70,8|0,0:2|0:0,0:0:0:0:
86,85,16498,2,0,L|251:65,1,140,0|2,3:3|0:2,0:0:0:0:
225,68,17012,1,0,0:0:0:0:
225,68,17183,1,0,3:3:0:0:
407,100,17526,6,0,L|401:138,1,35,10|0,0:2|0:0,0:0:0:0:
277,150,17869,6,0,L|283:188,1,35,2|0,0:2|0:0,0:0:0:0:
424,312,18212,5,4,3:3:0:0:
424,312,18383,1,0,0:0:0:0:
424,312,18555,1,0,0:0:0:0:
424,312,18726,1,0,3:3:0:0:
424,312,18898,2,0,P|407:280|364:265,1,70
512,339,19240,1,0,3:3:0:0:
512,339,19412,1,8,0:2:0:0:
486,261,19583,2,0,P|493:212|478:180,2,70,0|8|0,0:0|0:3|3:3,0:0:0:0:
340,338,20269,2,0,P|292:327|260:298,1,70,8|0,0:2|3:3,0:0:0:0:
339,220,20612,1,2,0:2:0:0:
463,375,20955,6,0,P|437:324|461:221,1,140,4|0,3:3|0:0,0:0:0:0:
484,179,21469,1,0,3:3:0:0:
496,103,21640,2,0,P|489:62|454:37,1,70,8|0,0:2|0:0,0:0:0:0:
461,7,21983,2,0,P|425:54|318:58,1,140,0|0,3:3|0:0,0:0:0:0:
348,69,22498,1,0,0:0:0:0:
348,69,22669,1,0,3:3:0:0:
183,110,23012,6,0,L|191:58,1,35,10|0,0:2|0:0,0:0:0:0:
317,198,23355,6,0,L|309:146,1,35,2|0,0:2|0:0,0:0:0:0:
184,276,23698,5,0,3:3:0:0:
184,276,23869,1,0,0:0:0:0:
184,276,24040,1,0,0:0:0:0:
184,276,24212,1,0,3:3:0:0:
184,276,24383,2,0,P|191:242|244:206,1,70
176,115,24726,1,0,3:3:0:0:
176,115,24898,1,8,0:2:0:0:
206,196,25069,2,0,L|114:208,1,70,0|8,0:0|0:2,0:0:0:0:
118,202,25412,2,0,P|86:259|105:339,1,140,0|2,3:3|2:0,0:0:0:0:
383,266,26440,6,0,P|370:204|291:161,1,140,6|0,3:2|0:0,0:0:0:0:
236,188,26955,1,0,3:3:0:0:
233,112,27126,2,0,P|252:82|301:72,1,70,8|0,0:2|0:0,0:0:0:0:
347,14,27469,1,0,3:3:0:0:
347,14,27640,2,0,L|425:-3,2,70,0|2|0,0:0|0:2|0:0,0:0:0:0:
360,59,28155,2,0,P|447:78|459:124,1,140,0|8,3:3|0:2,0:0:0:0:
398,213,28669,1,0,0:0:0:0:
398,213,28840,2,0,P|445:209|467:177,1,70,2|0,0:2|0:0,0:0:0:0:
493,228,29183,6,0,L|480:399,1,140,0|0,3:3|0:0,0:0:0:0:
408,295,29698,1,0,3:3:0:0:
408,295,29869,2,0,P|366:293|321:319,1,70,8|0,0:2|0:0,0:0:0:0:
280,250,30212,1,0,3:3:0:0:
328,345,30383,2,0,P|287:325|245:327,2,70,8|2|0,0:3|0:2|0:0,0:0:0:0:
225,330,30898,2,0,P|271:296|254:208,1,140,0|2,3:3|0:0,0:0:0:0:
232,76,31412,2,0,P|186:110|203:198,1,140,0|0,3:3|0:0,0:0:0:0:
265,219,31926,6,0,L|413:230,1,140,4|0,3:3|0:0,0:0:0:0:
484,235,32440,1,0,3:3:0:0:
503,159,32612,2,0,P|473:135|473:88,1,70,8|0,0:2|0:0,0:0:0:0:
409,30,32955,2,0,P|431:80|401:162,1,140,0|2,3:3|0:2,0:0:0:0:
405,157,33469,1,0,0:0:0:0:
405,157,33640,1,0,3:3:0:0:
229,114,33983,6,0,L|287:106,1,35,10|0,0:2|0:0,0:0:0:0:
123,171,34326,6,0,L|181:179,1,35,2|0,0:2|0:0,0:0:0:0:
364,267,34669,5,4,3:3:0:0:
364,267,34840,1,0,0:0:0:0:
364,267,35012,1,0,0:0:0:0:
364,267,35183,1,0,3:3:0:0:
364,267,35355,1,8,0:2:0:0:
364,267,35526,1,0,0:0:0:0:
364,267,35698,1,0,3:3:0:0:
364,267,35869,1,8,0:2:0:0:
427,315,36040,2,0,P|424:372|416:409,2,70,2|8|0,0:2|0:3|3:3,0:0:0:0:
345,151,36726,2,0,L|266:166,1,70,8|0,0:2|3:3,0:0:0:0:
221,219,37069,2,0,L|131:192,1,70,0|8,0:0|0:2,0:0:0:0:
83,177,37412,5,4,3:3:0:0:
24,23,37926,1,0,3:3:0:0:
24,23,38097,1,8,0:2:0:0:
179,60,38440,1,4,3:3:0:0:
93,93,39126,5,0,3:3:0:0:
113,251,39469,2,0,L|121:301,1,35
21,384,40155,5,4,3:3:0:0:
55,194,40669,1,0,3:3:0:0:
55,194,40840,1,8,0:2:0:0:
196,314,41183,1,4,3:3:0:0:
196,314,41355,1,10,0:3:0:0:
94,309,41698,5,8,0:2:0:0:
94,309,41869,1,0,3:3:0:0:
255,233,42212,2,0,L|301:240,1,35
290,271,42383,2,0,B|382:237|382:237|363:280,1,140
363,366,42898,6,0,L|320:355,2,35,4|0|0,3:3|0:0|0:0,0:0:0:0:
477,317,43240,2,0,L|433:336,2,35
458,199,43583,2,0,L|448:242,2,35
399,304,43926,6,0,L|379:134,1,140,4|2,3:3|0:2,0:0:0:0:
382,164,44440,1,0,0:0:0:0:
382,164,44612,1,0,3:3:0:0:
466,27,44955,5,8,0:2:0:0:
293,160,45298,2,0,B|278:129|278:129|288:83,1,70
355,28,45640,6,0,L|359:83,2,35,4|0|0,3:3|0:0|0:0,0:0:0:0:
239,0,45983,2,0,L|287:28,2,35,2|0|0,0:2|0:0|0:0,0:0:0:0:
168,93,46326,2,0,L|218:70,2,35,8|0|0,0:2|0:0|0:0,0:0:0:0:
293,114,46669,1,4,3:3:0:0:
293,114,46840,2,0,B|277:256|277:256|302:286|287:332,1,210,8|0,3:3|0:0,0:0:0:0:
139,287,47698,5,0,0:0:0:0:
88,225,47869,1,0,0:0:0:0:
21,305,48040,1,0,0:0:0:0:
86,344,48212,1,0,0:0:0:0:
66,225,48383,6,0,P|54:172|99:98,1,140,4|2,3:3|0:2,0:0:0:0:
87,19,48898,1,0,3:3:0:0:
87,19,49069,2,0,L|162:4,1,70,8|0,0:2|0:0,0:0:0:0:
241,82,49412,1,4,3:3:0:0:
202,148,49583,1,0,0:0:0:0:
137,114,49755,2,0,L|59:101,1,70
7,48,50098,1,0,3:3:0:0:
216,0,50440,6,0,P|202:38|212:85,1,70,8|0,0:2|0:0,0:0:0:0:
256,186,50783,2,0,P|269:153|267:119,1,70,2|0,0:2|0:0,0:0:0:0:
333,59,51126,1,4,3:3:0:0:
333,59,51298,1,0,0:0:0:0:
333,59,51469,2,0,L|416:43,2,70,0|0|8,0:0|3:3|0:2,0:0:0:0:
377,233,52155,1,6,0:3:0:0:
377,233,52326,2,0,P|417:212|374:126,1,140,0|0,3:3|0:0,0:0:0:0:
316,214,52840,2,0,B|287:293|353:288|319:381,1,140,0|8,3:3|0:2,0:0:0:0:
327,349,53355,1,0,3:3:0:0:
327,349,53526,1,0,0:0:0:0:
327,349,53698,1,8,0:3:0:0:
327,349,53869,6,0,P|248:348|173:396,1,140,4|0,3:3|0:0,0:0:0:0:
172,288,54383,1,0,3:3:0:0:
110,335,54555,2,0,P|92:294|110:251,1,70,8|0,0:2|0:0,0:0:0:0:
152,205,54898,1,4,3:3:0:0:
93,134,55069,1,0,0:0:0:0:
11,165,55240,2,0,P|29:206|11:249,1,70
65,238,55583,2,0,P|64:286|151:311,1,140,0|8,3:3|0:3,0:0:0:0:
139,317,56098,1,0,0:0:0:0:
139,317,56269,1,2,0:2:0:0:
139,317,56440,1,0,0:0:0:0:
139,317,56612,1,4,3:3:0:0:
276,241,56955,6,0,P|279:206|268:173,1,70,0|0,0:0|3:3,0:0:0:0:
323,155,57298,2,0,P|303:196|332:302,1,140,8|4,0:3|3:3,0:0:0:0:
418,171,57812,2,0,P|432:205|412:256,1,70,8|2,0:2|0:2,0:0:0:0:
512,263,58155,1,0,0:0:0:0:
512,263,58326,2,0,P|470:273|385:354,1,140,0|8,3:3|0:3,0:0:0:0:
333,279,58840,2,0,B|308:315|315:344|315:344|296:309|327:249,1,140,0|8,3:3|0:2,0:0:0:0:
478,366,59355,1,2,2:0:0:0:
313,139,60040,6,0,L|320:186,1,35,8|0,2:0|0:0,0:0:0:0:
376,94,60383,2,0,P|338:141|370:236,1,140,0|2,2:0|2:0,0:0:0:0:
89,320,61412,6,0,L|145:314,1,35,8|0,2:0|0:0,0:0:0:0:
219,361,61755,2,0,P|161:361|157:267,1,140,0|2,2:0|2:0,0:0:0:0:
183,225,62269,1,0,0:0:0:0:
183,225,62440,2,0,P|163:178|174:144,1,70
256,157,62783,2,0,P|222:194|231:304,2,140,8|0|2,2:0|2:0|2:0,0:0:0:0:
55,59,63983,1,0,0:0:0:0:
55,59,64155,2,0,P|93:50|136:64,1,70,8|0,2:0|0:0,0:0:0:0:
160,18,64498,2,0,P|86:30|17:-15,1,140,0|2,2:0|2:0,0:0:0:0:
298,83,65526,6,0,L|283:138,1,35,8|0,2:0|0:0,0:0:0:0:
398,44,65869,2,0,P|427:84|421:192,1,140,0|2,2:0|2:0,0:0:0:0:
280,353,66898,6,0,L|306:300,1,35,8|0,2:0|0:0,0:0:0:0:
208,280,67240,2,0,L|374:264,1,140,0|2,2:0|2:0,0:0:0:0:
256,192,67669,12,2,68955,2:0:0:0:
495,217,70326,6,0,P|436:198|339:221,1,140,4|0,3:3|0:0,0:0:0:0:
293,255,70840,2,0,P|253:256|220:226,1,70,0|8,3:3|0:2,0:0:0:0:
171,182,71183,1,0,0:0:0:0:
122,115,71355,2,0,P|62:128|-12:200,1,140,0|2,3:3|0:2,0:0:0:0:
1,176,71869,1,0,0:0:0:0:
1,176,72040,1,0,3:3:0:0:
116,342,72383,6,0,L|110:294,1,35,10|0,0:2|0:0,0:0:0:0:
95,247,72726,6,0,L|89:295,1,35,2|0,0:2|0:0,0:0:0:0:
270,370,73069,5,4,3:3:0:0:
343,355,73240,1,0,0:0:0:0:
387,296,73412,1,0,0:0:0:0:
382,222,73583,1,0,3:3:0:0:
342,160,73755,1,8,0:2:0:0:
270,148,73926,1,0,0:0:0:0:
206,112,74098,1,0,3:3:0:0:
181,42,74269,2,0,P|125:38|96:29,1,70,8|0,0:2|0:0,0:0:0:0:
28,59,74612,1,8,0:3:0:0:
28,59,74783,2,0,P|84:63|119:135,1,140,0|8,3:3|0:2,0:0:0:0:
142,157,75298,2,0,P|120:185|121:234,1,70,0|2,3:3|0:2,0:0:0:0:
294,384,75812,6,0,P|259:315|274:230,1,140,4|0,3:3|0:0,0:0:0:0:
308,187,76326,1,0,3:3:0:0:
359,127,76498,2,0,P|373:96|368:42,1,70,8|0,0:2|0:0,0:0:0:0:
363,47,76840,2,0,L|392:215,1,140,0|0,3:3|0:0,0:0:0:0:
386,184,77355,1,0,0:0:0:0:
386,184,77526,1,0,3:3:0:0:
508,338,77869,6,0,L|460:328,1,35,10|0,0:2|0:0,0:0:0:0:
359,384,78212,6,0,L|407:374,1,35,2|0,0:2|0:0,0:0:0:0:
512,243,78555,5,0,3:3:0:0:
439,254,78726,1,0,0:0:0:0:
367,266,78898,1,0,0:0:0:0:
295,278,79069,1,0,3:3:0:0:
223,289,79240,1,8,0:2:0:0:
150,301,79411,1,0,0:0:0:0:
78,313,79583,1,0,3:3:0:0:
6,325,79755,2,0,P|11:290|14:243,1,70,8|0,0:2|0:0,0:0:0:0:
77,209,80098,1,8,0:2:0:0:
77,209,80269,2,0,P|54:151|66:68,1,140,0|2,3:3|2:0,0:0:0:0:
54,192,81298,6,0,P|70:136|37:39,1,140,6|0,3:2|0:0,0:0:0:0:
121,7,81812,1,0,3:3:0:0:
212,41,81983,2,0,P|191:80|199:133,1,70,8|0,0:2|0:0,0:0:0:0:
229,174,82326,2,0,P|170:138|101:140,2,140,0|2|0,3:3|0:2|3:3,0:0:0:0:
427,330,83355,1,8,0:2:0:0:
427,330,83526,1,0,0:0:0:0:
427,330,83698,1,2,0:2:0:0:
427,330,83869,1,0,0:0:0:0:
427,330,84040,6,0,P|448:292|408:204,1,140,0|0,3:3|0:0,0:0:0:0:
381,128,84555,2,0,P|398:81|429:68,1,70,0|8,3:3|0:2,0:0:0:0:
330,40,84898,1,0,0:0:0:0:
330,40,85069,2,0,P|309:11|246:0,2,70,0|8|2,3:3|0:3|0:2,0:0:0:0:
293,106,85583,1,0,0:0:0:0:
293,106,85755,2,0,P|238:138|181:91,1,140,0|2,3:3|0:0,0:0:0:0:
127,176,86269,2,0,B|94:152|105:108|105:108|105:144|142:172,1,140,0|0,3:3|0:0,0:0:0:0:
210,173,86783,6,0,P|171:212|170:314,1,140,4|0,3:3|0:0,0:0:0:0:
127,383,87298,1,0,3:3:0:0:
127,383,87469,2,0,P|108:350|66:331,1,70,8|0,0:2|0:0,0:0:0:0:
0,280,87812,2,0,P|70:289|139:227,1,140,0|2,3:3|0:2,0:0:0:0:
122,174,88326,1,0,0:0:0:0:
122,174,88498,2,0,P|189:198|202:217,1,70,0|0,3:3|0:0,0:0:0:0:
266,241,88840,6,0,L|258:284,1,35,10|0,0:2|0:0,0:0:0:0:
358,178,89183,6,0,L|350:221,1,35,2|0,0:2|0:0,0:0:0:0:
258,122,89526,5,4,3:3:0:0:
323,154,89698,1,0,0:0:0:0:
398,148,89869,1,0,0:0:0:0:
457,111,90040,1,0,3:3:0:0:
497,50,90212,1,8,0:2:0:0:
423,27,90383,1,0,0:0:0:0:
351,47,90555,1,0,3:3:0:0:
313,111,90726,2,0,P|320:148|315:202,1,70,8|2,0:2|0:2,0:0:0:0:
314,262,91069,1,8,0:3:0:0:
314,262,91240,2,0,B|286:301|314:342|314:342|311:305|336:276,1,140
468,224,93640,6,0,P|472:185|480:140,1,70
401,158,93983,2,0,P|397:119|389:74,1,70
356,229,94326,1,8,0:2:0:0:
356,229,94669,1,0,0:0:0:0:
267,134,95012,6,0,P|271:173|279:218,1,70
200,200,95355,2,0,P|196:239|188:284,1,70
155,129,95698,1,8,0:2:0:0:
155,129,96041,1,0,0:0:0:0:
112,264,96383,6,0,P|116:225|124:180,1,70
45,198,96726,2,0,P|41:159|33:114,1,70
0,269,97069,1,8,0:2:0:0:
0,269,97412,1,0,0:0:0:0:
162,210,97755,6,0,P|158:171|150:126,1,70
229,144,98098,2,0,P|233:105|241:60,1,70
274,215,98441,1,8,0:2:0:0:
274,215,98784,1,0,0:0:0:0:
418,260,99126,6,0,P|464:255|518:244,1,70
346,180,99469,2,0,P|392:185|446:196,1,70
482,146,99812,1,8,0:2:0:0:
343,255,100155,1,0,0:0:0:0:
168,216,100498,6,0,P|122:211|68:200,1,70
240,136,100841,2,0,P|194:141|140:152,1,70
104,102,101184,1,8,0:2:0:0:
243,211,101527,1,0,0:0:0:0:
411,125,101869,6,0,P|457:120|511:109,1,70
339,45,102212,2,0,P|385:50|439:61,1,70
475,11,102555,1,8,0:2:0:0:
336,120,102898,2,0,L|327:201,2,70
336,120,104612,6,0,P|321:164|332:209,1,70,2|0,3:2|0:0,0:0:0:0:
414,85,104955,2,0,P|431:134|404:222,1,140,0|8,0:0|0:2,0:0:0:0:
311,331,105640,1,0,3:3:0:0:
311,331,105812,1,0,0:0:0:0:
311,331,105983,2,0,P|265:323|241:298,1,70
245,231,106326,2,0,B|168:232|197:283|105:282,2,140,0|8|0,3:3|0:2|0:0,0:0:0:0:
300,72,107355,5,0,3:3:0:0:
256,10,107526,1,0,0:0:0:0:
226,78,107698,2,0,P|219:122|196:162,1,70,0|0,0:0|3:3,0:0:0:0:
147,111,108040,2,0,P|187:155|161:235,1,140,8|0,0:2|3:3,0:0:0:0:
94,254,108555,1,0,3:3:0:0:
94,254,108726,2,0,P|61:232|61:193,1,70
69,127,109069,1,0,0:0:0:0:
121,276,110098,5,0,3:3:0:0:
178,229,110269,1,0,0:0:0:0:
249,261,110440,5,0,3:3:0:0:
303,320,110612,1,0,0:0:0:0:
356,264,110783,5,0,3:3:0:0:
419,227,110955,1,0,0:0:0:0:
487,270,111126,5,4,3:3:0:0:
487,270,111298,1,0,0:0:0:0:
487,270,112840,6,0,P|451:260|427:222,1,70,0|0,3:3|0:0,0:0:0:0:
424,152,113183,1,0,0:0:0:0:
424,152,113355,1,0,3:3:0:0:
424,152,113526,2,0,P|394:170|346:170,1,70,8|0,0:2|0:0,0:0:0:0:
314,241,113869,1,0,3:3:0:0:
314,241,114040,2,0,P|258:226|239:205,1,70,8|0,0:2|0:0,0:0:0:0:
179,172,114383,2,0,P|139:177|105:201,1,70,0|0,0:0|3:3,0:0:0:0:
222,371,114898,5,8,0:3:0:0:
222,371,115069,2,0,P|176:325|174:234,1,140,0|8,0:0|0:2,0:0:0:0:
179,172,115583,1,2,2:0:0:0:
395,315,116269,6,0,L|345:322,1,35,8|0,2:0|0:0,0:0:0:0:
368,236,116612,2,0,P|408:289|474:282,1,140,0|2,2:0|2:0,0:0:0:0:
356,72,117640,6,0,L|340:114,1,35,8|0,2:0|0:0,0:0:0:0:
315,6,117983,2,0,P|323:67|310:160,1,140,0|2,2:0|2:0,0:0:0:0:
132,205,119012,6,0,L|159:227,1,35,8|0,2:0|0:0,0:0:0:0:
134,336,119355,2,0,B|212:320|169:281|257:260,1,140,0|2,2:0|2:0,0:0:0:0:
459,66,120383,6,0,L|407:61,1,35,8|0,2:0|0:0,0:0:0:0:
410,6,120726,2,0,L|394:175,1,140,0|2,2:0|2:0,0:0:0:0:
371,384,121755,6,0,L|370:337,1,35,8|0,2:0|0:0,0:0:0:0:
474,362,122098,2,0,P|429:368|385:274,1,140,0|2,2:0|2:0,0:0:0:0:
181,179,123126,6,0,L|132:190,1,35,8|0,2:0|0:0,0:0:0:0:
10,214,123469,2,0,P|91:182|115:121,1,140,0|2,2:0|2:0,0:0:0:0:
256,192,123898,12,2,125183,2:0:0:0:
127,169,126555,5,4,3:3:0:0:
87,230,126726,1,0,0:0:0:0:
149,270,126898,1,0,0:0:0:0:
189,211,127069,1,0,3:3:0:0:
194,133,127240,2,0,P|194:96|201:63,1,70,8|0,0:2|0:0,0:0:0:0:
143,0,127583,2,0,P|260:37|308:35,1,140,0|2,3:3|0:2,0:0:0:0:
275,37,128098,1,0,0:0:0:0:
275,37,128269,1,0,3:3:0:0:
418,91,128612,6,0,L|470:85,1,35,10|0,0:2|0:0,0:0:0:0:
320,157,128955,6,0,L|372:151,1,35,2|0,0:2|0:0,0:0:0:0:
498,253,129298,5,4,3:3:0:0:
498,253,129469,1,0,0:0:0:0:
428,290,129640,1,0,0:0:0:0:
428,290,129811,1,0,3:3:0:0:
347,255,129983,1,8,0:2:0:0:
347,255,130154,1,0,0:0:0:0:
271,307,130326,1,0,3:3:0:0:
271,307,130498,2,0,P|265:343|264:393,2,70,8|0|8,0:3|0:0|0:2,0:0:0:0:
246,233,131012,2,0,P|196:217|193:128,1,140,0|8,3:3|0:2,0:0:0:0:
157,51,131526,2,0,P|107:67|104:156,1,140,0|0,3:3|0:0,0:0:0:0:
167,221,132040,5,4,3:3:0:0:
167,221,132212,1,0,0:0:0:0:
167,221,132383,1,0,0:0:0:0:
167,221,132555,1,0,3:3:0:0:
167,221,132726,2,0,P|156:258|162:307,1,70,8|0,0:2|0:0,0:0:0:0:
114,361,133069,2,0,P|52:366|-3:292,1,140,0|0,3:3|0:0,0:0:0:0:
0,313,133583,1,0,0:0:0:0:
0,313,133755,1,0,3:3:0:0:
97,170,134098,6,0,L|79:225,1,35,10|0,0:2|0:0,0:0:0:0:
25,98,134440,6,0,L|43:153,1,35,2|0,0:2|0:0,0:0:0:0:
215,30,134783,5,4,3:3:0:0:
215,30,134955,1,0,0:0:0:0:
141,76,135126,1,0,0:0:0:0:
141,76,135298,1,0,3:3:0:0:
218,121,135469,1,8,0:2:0:0:
218,121,135641,1,0,0:0:0:0:
160,185,135812,1,0,3:3:0:0:
160,185,135983,2,0,P|169:218|170:263,2,70,8|2|0,3:3|2:0|0:0,0:0:0:0:
239,139,136498,2,0,P|208:235|278:346,1,210
242,358,137183,6,0,P|243:316|245:272,1,70,0|0,2:0|0:0,0:0:0:0:
345,299,137526,6,0,P|356:245|322:142,1,140,6|2,3:2|0:2,0:0:0:0:
280,109,138040,1,0,3:3:0:0:
332,46,138212,1,8,0:2:0:0:
332,46,138383,1,0,0:0:0:0:
332,46,138555,2,0,L|415:54,2,70,0|0|2,3:3|0:0|0:2,0:0:0:0:
126,103,139240,2,0,P|174:116|227:36,1,140,0|8,3:3|0:2,0:0:0:0:
226,43,139755,1,0,0:0:0:0:
226,43,139926,2,0,L|240:123,1,70,2|0,0:2|0:0,0:0:0:0:
300,168,140269,6,0,B|296:254|254:209|248:318,1,140,4|2,3:3|0:2,0:0:0:0:
292,368,140783,1,0,3:3:0:0:
292,368,140955,2,0,L|196:383,1,70,8|0,0:2|0:0,0:0:0:0:
157,320,141298,2,0,L|61:335,2,70,0|10|2,3:3|0:3|0:2,0:0:0:0:
157,320,141812,1,0,0:0:0:0:
157,320,141983,1,4,3:3:0:0:
130,163,142326,5,2,0:0:0:0:
130,163,142498,2,0,P|134:220|220:221,1,140,0|0,3:3|0:0,0:0:0:0:
271,188,143012,6,0,B|346:199|314:253|406:258,1,140,4|2,3:3|0:2,0:0:0:0:
512,267,143526,1,0,3:3:0:0:
512,267,143698,2,0,B|437:278|469:332|377:337,1,140,8|0,0:2|3:3,0:0:0:0:
219,384,144383,2,0,P|209:350|208:286,1,70,2|0,0:2|0:0,0:0:0:0:
225,314,144726,2,0,P|161:339|74:347,2,140,4|8|2,3:3|0:2|0:2,0:0:0:0:
264,104,145755,6,0,L|261:155,7,41.9999987182618
191,198,147126,2,0,P|253:184|351:200,1,140,0|0,2:0|2:0,0:0:0:0:
