osu file format v14

[General]
AudioFilename: audio.mp3
AudioLeadIn: 0
PreviewTime: 20544
Countdown: 0
SampleSet: Normal
StackLeniency: 0.4
Mode: 0
LetterboxInBreaks: 0
WidescreenStoryboard: 1

[Editor]
DistanceSpacing: 1
BeatDivisor: 8
GridSize: 32
TimelineZoom: 2.2

[Metadata]
Title:ROXANNE
TitleUnicode:ROXANNE
Artist:Arizona Zervas
ArtistUnicode:Arizona Zervas
Creator:wafer
Version:DeviousPanda's Expert
Source:
Tags:english hip hop rap cut agatsu mocaotic deviouspanda
BeatmapID:2256206
BeatmapSetID:1076733

[Difficulty]
HPDrainRate:5.2
CircleSize:5
OverallDifficulty:8.8
ApproachRate:9.2
SliderMultiplier:1.6
SliderTickRate:1

[Events]
//Background and Video events
0,0,"bg.jpg",0,0
//Break Periods
//Storyboard Layer 0 (Background)
//Storyboard Layer 1 (Fail)
//Storyboard Layer 2 (Pass)
//Storyboard Layer 3 (Foreground)
//Storyboard Layer 4 (Overlay)
//Storyboard Sound Samples

[TimingPoints]
4516,342.857142857143,4,1,2,65,1,0
4858,-66.6666666666667,4,1,2,65,0,0
5201,-50,4,1,2,65,0,0
5887,-100,4,1,2,65,0,0
7773,-66.6666666666667,4,1,2,65,0,0
7944,-50,4,1,2,65,0,0
8287,-66.6666666666667,4,1,2,65,0,0
8630,-100,4,1,2,65,0,0
10001,-100,4,1,2,65,0,0
10344,-66.6666666666667,4,1,2,65,0,0
10687,-50,4,1,2,65,0,0
11373,-100,4,1,2,65,0,0
13258,-66.6666666666667,4,1,2,65,0,0
13430,-50,4,1,2,65,0,0
13773,-66.6666666666667,4,1,2,65,0,0
13944,-100,4,1,2,65,0,0
15144,-100,4,1,2,50,0,0
15487,-100,4,1,2,70,0,0
16173,-250,4,1,2,70,0,0
16858,-166.666666666667,4,1,2,70,0,0
20973,-100,4,1,2,70,0,0
21658,-250,4,1,2,70,0,0
22343,-166.666666666667,4,1,2,70,0,0
25773,-166.666666666667,4,1,2,50,0,0
26458,-50,4,1,2,70,0,1
28516,-100,4,1,2,70,0,1
29201,-50,4,1,2,70,0,1
30230,-100,4,1,2,70,0,1
30573,-66.6666666666667,4,1,2,70,0,1
30916,-50,4,1,2,70,0,1
31258,-50,4,1,2,50,0,1
31430,-66.6666666666667,4,1,2,70,0,1
31601,-100,4,1,2,70,0,1
31773,-133.333333333333,4,1,2,70,0,1
31944,-100,4,1,2,70,0,0
32630,-250,4,1,2,70,0,0
33316,-125,4,1,2,70,0,0
37430,-100,4,1,2,65,0,0
43044,-100,4,1,2,5,0,0
43087,-100,4,1,2,65,0,0
43387,-100,4,1,2,5,0,0
43430,-100,4,1,2,65,0,0
43730,-100,4,1,2,5,0,0
43773,-100,4,1,2,65,0,0
47373,-100,4,1,2,55,0,0
48316,-100,4,1,2,5,0,0
48401,-100,4,1,2,70,0,0
59373,-133.333333333333,4,1,2,60,0,0
68630,-133.333333333333,4,1,2,55,0,0
68973,-133.333333333333,4,1,2,50,0,0
70001,-399.999999999997,4,1,2,50,0,0
70258,-399.999999999997,4,1,2,50,0,0
70344,-66.6666666666667,4,1,2,75,0,1
79944,-500,4,1,2,78,0,0
80630,-500,4,1,2,60,0,0
81316,-50,4,1,2,75,0,1
86116,-50,4,1,2,55,0,1
86287,-66.6666666666667,4,1,2,75,0,1
86458,-100,4,1,2,75,0,1
86630,-133.333333333333,4,1,2,75,0,1
86801,-50,4,1,2,75,0,1
89544,-100,4,1,2,70,0,0
89716,-100,4,1,2,65,0,0
89887,-100,4,1,2,60,0,0
90058,-100,4,1,2,55,0,0
92287,-100,4,1,2,5,0,0

[Colours]
Combo1 : 151,203,255
Combo2 : 255,183,200
Combo3 : 197,180,210

[HitObjects]
0,2,4515,6,0,B|42:-2|57:23|56:31|56:36|96:52|126:37,1,120,6|0,0:3|2:0,0:0:0:0:
166,68,4858,2,0,P|120:76|60:133,1,120.000004577637,0|2,0:0|0:3,0:0:0:0:
169,368,5201,6,0,P|178:235|230:121,1,240,8|0,0:2|2:0,0:0:0:0:
219,137,5544,1,6,0:3:0:0:
219,137,5716,1,0,0:0:0:0:
293,134,5887,1,2,0:2:0:0:
314,200,6058,1,0,0:0:0:0:
408,249,6230,5,2,0:3:0:0:
495,252,6401,1,0,0:0:0:0:
402,239,6573,1,8,0:2:0:0:
327,300,6744,5,0,0:0:0:0:
327,300,6916,1,2,0:2:0:0:
327,300,7087,1,0,0:0:0:0:
415,327,7258,6,0,P|342:319|266:370,1,160,6|0,0:3|0:0,0:0:0:0:
270,363,7773,2,0,P|273:337|208:318,1,60.0000022888184,0|0,0:0|2:0,0:0:0:0:
249,121,7944,6,0,P|390:166|467:277,1,240,8|0,0:2|2:0,0:0:0:0:
448,232,8287,2,0,P|408:211|440:169,1,60.0000022888184,2|0,0:3|2:0,0:0:0:0:
497,76,8458,1,8,0:2:0:0:
512,103,8544,1,0,0:0:0:0:
512,119,8630,2,0,P|492:156|485:185,1,40,2|0,0:2|2:0,0:0:0:0:
494,303,8801,5,8,0:3:0:0:
458,364,8973,1,2,0:3:0:0:
388,360,9144,1,0,0:0:0:0:
396,106,9316,6,0,P|397:148|405:176,1,40,8|0,0:2|2:0,0:0:0:0:
435,200,9487,1,2,0:3:0:0:
399,259,9658,1,2,0:2:0:0:
313,193,9830,6,0,P|301:176|292:158,1,40,8|0,0:2|2:0,0:0:0:0:
79,116,10001,6,0,B|114:122|132:95|131:89|129:86|148:69|183:69,1,120,6|0,0:3|2:0,0:0:0:0:
251,77,10344,2,0,P|198:53|167:2,1,120.000004577637,2|2,0:2|0:3,0:0:0:0:
79,5,10687,6,0,P|53:121|77:237,1,240,8|0,0:2|2:0,0:0:0:0:
77,237,11030,1,6,0:3:0:0:
147,226,11201,1,0,0:0:0:0:
183,282,11373,1,2,0:2:0:0:
58,351,11544,5,0,0:0:0:0:
58,351,11716,1,2,0:3:0:0:
58,351,11887,1,0,0:0:0:0:
250,284,12058,5,8,0:2:0:0:
216,341,12230,1,0,0:0:0:0:
281,353,12401,1,2,0:2:0:0:
315,296,12573,1,0,0:0:0:0:
429,374,12744,6,0,P|408:300|403:201,1,160,2|0,0:3|0:0,0:0:0:0:
465,239,13258,2,0,P|455:263|420:283,1,60.0000022888184,2|0,0:3|2:0,0:0:0:0:
302,99,13430,6,0,P|236:222|206:366,1,240,8|0,0:2|2:0,0:0:0:0:
197,323,13773,2,0,P|185:309|218:252,1,60.0000022888184,2|0,0:3|2:0,0:0:0:0:
280,206,13944,2,0,P|283:182|270:144,1,40,8|0,0:2|2:0,0:0:0:0:
176,42,14116,5,2,0:2:0:0:
309,16,14287,1,8,0:2:0:0:
395,86,14458,1,0,0:0:0:0:
434,56,14630,1,0,0:0:0:0:
464,58,14801,1,0,0:0:0:0:
475,72,15144,5,2,0:2:0:0:
469,82,15487,2,0,B|438:71|395:89|401:97|402:104|375:145|320:131,1,160,6|0,0:3|0:0,0:0:0:0:
303,62,16001,2,0,P|318:56|336:84,1,40,2|0,0:3|0:0,2:0:0:0:
382,294,16173,6,0,P|376:312|373:330,2,32,8|0|2,0:2|0:0|0:3,0:0:0:0:
391,288,16687,1,0,0:0:0:0:
211,149,16858,6,0,P|244:144|276:154,1,47.9999985351563,2|0,0:2|0:0,0:0:0:0:
306,198,17116,1,0,0:0:0:0:
306,198,17201,2,0,P|246:221|227:235,1,71.9999978027344,2|0,0:3|2:0,0:0:0:0:
190,358,17544,5,10,0:2:0:0:
190,358,17887,1,2,0:2:0:0:
190,358,18230,5,6,0:3:0:0:
119,341,18401,1,0,0:0:0:0:
135,267,18573,1,0,0:0:0:0:
51,161,18744,5,2,0:3:0:0:
239,239,18916,5,8,0:2:0:0:
338,220,19087,1,0,0:0:0:0:
317,112,19258,1,2,0:3:0:0:
58,163,19430,5,8,0:2:0:0:
73,97,19601,1,0,0:0:0:0:
239,0,19773,5,8,0:3:0:0:
259,65,19944,1,2,0:3:0:0:
197,162,20116,5,0,0:0:0:0:
126,181,20287,1,8,0:2:0:0:
193,172,20458,1,2,0:3:0:0:
416,262,20630,5,2,0:2:0:0:
287,249,20801,1,8,0:3:0:0:
32,220,20973,6,0,B|69:209|102:240|97:256|94:268|122:301|162:291,1,160,6|0,0:3|0:0,0:0:0:0:
168,287,21487,1,2,0:3:0:0:
100,106,21658,6,0,P|100:133|103:150,2,32,8|0|2,0:2|0:0|0:3,0:0:0:0:
108,96,22173,1,0,0:0:0:0:
5,309,22344,6,0,P|46:335|69:364,1,71.9999978027344,0|0,0:0|2:0,0:0:0:0:
73,348,22687,2,0,P|103:335|133:334,1,47.9999985351563,2|0,0:3|0:0,0:0:0:0:
422,376,23030,5,10,0:2:0:0:
422,376,23373,1,2,0:2:0:0:
422,376,23716,5,2,0:3:0:0:
306,345,23887,1,0,0:0:0:0:
337,229,24058,1,0,0:0:0:0:
453,260,24230,1,2,0:3:0:0:
385,305,24401,5,8,0:2:0:0:
385,305,24573,1,0,0:0:0:0:
186,182,24744,5,2,0:3:0:0:
119,360,24916,1,8,0:2:0:0:
119,225,25087,1,0,0:0:0:0:
198,384,25258,1,8,0:2:0:0:
198,384,25430,1,2,0:3:0:0:
262,120,25773,5,2,2:0:0:0:
251,157,25944,1,2,2:0:0:0:
263,175,26116,1,2,2:0:0:0:
257,187,26287,1,2,2:0:0:0:
225,40,26458,6,0,P|247:187|257:348,1,240,6|0,0:2|2:0,0:0:0:0:
176,308,26801,2,0,P|180:263|194:197,1,80,0|0,0:0|2:0,0:0:0:0:
322,71,26973,2,0,P|333:124|340:164,1,80,2|0,0:3|2:0,0:0:0:0:
419,304,27144,5,8,0:2:0:0:
408,366,27316,1,0,0:0:0:0:
470,379,27487,1,2,0:3:0:0:
438,214,27658,5,0,0:0:0:0:
351,237,27830,1,2,0:2:0:0:
243,267,28001,1,0,0:0:0:0:
99,311,28173,5,2,0:3:0:0:
153,349,28344,1,0,0:0:0:0:
188,189,28516,2,0,P|185:228|188:245,1,40,8|0,0:2|2:0,0:0:0:0:
227,338,28687,5,0,0:0:0:0:
227,338,28858,1,2,0:2:0:0:
227,338,29030,1,0,0:0:0:0:
119,246,29201,5,2,0:3:0:0:
55,233,29373,1,0,0:0:0:0:
65,169,29544,1,0,0:0:0:0:
193,235,29716,5,2,0:3:0:0:
33,25,29887,5,8,0:2:0:0:
101,0,30058,1,0,0:0:0:0:
171,151,30230,5,2,0:3:0:0:
0,98,30401,1,8,0:3:0:0:
374,7,30573,6,0,P|324:34|299:81,1,60.0000022888184,2|0,0:2|2:0,0:0:0:0:
388,91,30744,1,8,0:2:0:0:
361,317,30916,6,0,P|350:206|394:63,1,240,2|0,0:3|2:0,0:0:0:0:
455,36,31258,6,0,P|490:55|447:116,1,80,2|0,0:0|2:0,0:0:0:0:
375,228,31430,6,0,P|415:200|388:152,1,60.0000022888184,2|0,0:3|2:0,0:0:0:0:
373,92,31601,6,0,P|364:110|353:141,1,40,2|0,0:2|2:0,0:0:0:0:
482,241,31773,6,0,P|484:264|481:297,1,30.0000011444092,8|0,0:2|2:0,0:0:0:0:
379,379,31944,6,0,B|327:395|297:351|301:343|304:328|277:273|217:291,1,200,2|0,0:3|2:0,0:0:0:0:
213,299,32458,1,2,0:3:0:0:
91,183,32630,6,0,P|98:201|103:221,2,32,8|0|2,0:2|0:0|0:3,0:0:0:0:
81,177,33144,1,0,0:0:0:0:
38,376,33316,6,0,P|88:368|126:322,1,96,2|0,0:2|2:0,0:0:0:0:
136,338,33658,2,0,P|147:295|138:264,1,64,2|0,0:3|0:0,0:0:0:0:
39,27,34001,5,10,0:2:0:0:
39,27,34344,1,2,0:2:0:0:
39,27,34687,5,6,0:3:0:0:
109,14,34858,1,0,0:0:0:0:
120,85,35030,1,0,0:0:0:0:
0,158,35201,5,2,0:3:0:0:
145,193,35373,1,8,0:2:0:0:
9,168,35544,1,0,0:0:0:0:
213,102,35716,6,0,L|206:140,1,32,2|0,0:3|0:0,0:0:0:0:
220,106,35887,2,0,L|222:146,1,32,8|0,0:2|0:0,0:0:0:0:
225,37,36058,5,2,0:2:0:0:
300,185,36230,6,0,L|305:153,1,32,8|0,0:3|0:0,0:0:0:0:
314,189,36401,2,0,L|312:157,1,32,2|0,0:3|0:0,0:0:0:0:
314,92,36573,5,2,0:2:0:0:
207,229,36744,5,8,0:2:0:0:
215,237,36916,2,0,B|252:231|273:254|272:264|271:270|288:292|331:284,1,128,2|8,0:3|0:2,0:0:0:0:
393,221,37430,5,6,0:3:0:0:
382,230,37601,1,0,0:0:0:0:
385,243,37773,1,0,0:0:0:0:
452,294,37944,5,2,0:3:0:0:
309,366,38116,5,8,0:2:0:0:
364,334,38287,1,0,0:0:0:0:
421,370,38458,2,0,P|357:355|318:353,1,80,6|0,0:3|0:0,0:0:0:0:
205,232,38801,5,2,0:2:0:0:
143,252,38973,1,0,0:0:0:0:
139,319,39144,1,2,0:3:0:0:
202,301,39316,1,0,0:0:0:0:
323,117,39487,5,8,0:3:0:0:
323,117,39830,1,2,0:2:0:0:
323,117,40173,5,6,0:3:0:0:
361,63,40344,1,0,0:0:0:0:
424,84,40516,1,0,0:0:0:0:
362,213,40687,5,2,0:3:0:0:
191,142,40858,5,8,0:2:0:0:
177,72,41030,1,0,0:0:0:0:
270,35,41201,5,6,0:3:0:0:
265,62,41287,1,0,0:0:0:0:
261,90,41373,1,10,0:3:0:0:
165,7,41544,5,2,0:2:0:0:
59,177,41716,5,8,0:2:0:0:
122,144,41888,1,2,0:3:0:0:
157,200,42059,1,0,0:0:0:0:
392,266,42230,5,8,0:3:0:0:
298,235,42402,1,2,0:3:0:0:
240,307,42573,1,0,0:0:0:0:
244,138,42744,5,8,0:2:0:0:
439,8,42916,6,0,P|409:8|380:12,1,60,6|0,0:3|2:0,0:0:0:0:
379,13,43087,1,2,0:2:0:0:
407,81,43258,6,0,P|435:91|462:106,1,60,0|0,0:0|2:0,0:0:0:0:
462,106,43430,1,2,0:3:0:0:
442,212,43601,6,0,P|427:186|408:163,1,60,8|0,0:2|2:0,0:0:0:0:
409,164,43773,1,2,0:2:0:0:
362,226,43944,6,0,P|359:305|341:383,1,160,6|2,0:3|0:2,0:0:0:0:
381,330,44458,1,0,0:0:0:0:
325,283,44630,1,2,0:3:0:0:
261,314,44801,1,0,0:0:0:0:
66,267,44973,5,8,0:2:0:0:
124,297,45144,1,0,0:0:0:0:
70,338,45316,1,4,0:3:0:0:
12,308,45487,1,0,0:0:0:0:
63,167,45658,5,6,0:3:0:0:
69,138,45830,1,0,0:0:0:0:
141,119,46001,5,2,0:2:0:0:
157,182,46173,1,2,0:3:0:0:
335,230,46344,5,8,0:2:0:0:
370,103,46516,1,2,0:2:0:0:
450,41,46687,5,6,0:3:0:0:
505,274,46858,1,10,0:3:0:0:
456,322,47030,5,2,2:0:0:0:
256,192,47373,5,0,0:0:0:0:
256,192,47458,12,0,48316,2:0:0:0:
456,322,48401,5,6,0:3:0:0:
400,283,48573,1,0,0:0:0:0:
349,325,48744,1,2,0:2:0:0:
218,199,48916,5,2,0:3:0:0:
264,377,49087,5,8,0:2:0:0:
286,264,49258,1,0,0:0:0:0:
305,150,49430,2,0,L|323:51,2,80,6|0|0,0:3|0:0|0:0,0:0:0:0:
151,267,49944,5,2,0:2:0:0:
114,45,50116,2,8,L|143:230,1,160,2|8,0:3|0:2,0:2:0:0:
6,300,50630,5,0,0:0:0:0:
66,320,50801,1,2,0:2:0:0:
65,384,50973,1,0,0:0:0:0:
338,219,51144,5,6,0:3:0:0:
229,238,51316,1,0,0:0:0:0:
198,347,51487,1,0,0:0:0:0:
304,334,51658,1,2,0:3:0:0:
148,134,51830,5,8,0:2:0:0:
148,134,52173,5,6,0:3:0:0:
79,113,52344,1,2,0:3:0:0:
135,63,52516,1,2,0:2:0:0:
289,22,52687,5,8,0:2:0:0:
353,88,52858,1,2,0:3:0:0:
299,153,53030,1,2,0:2:0:0:
124,219,53201,5,8,0:2:0:0:
239,232,53373,1,2,0:3:0:0:
130,227,53544,1,0,0:0:0:0:
25,383,53716,5,8,0:3:0:0:
239,313,53887,6,0,B|191:292|163:335|164:343|165:350|131:373|96:348,1,160,6|0,0:3|0:0,0:0:0:0:
96,341,54401,1,2,0:3:0:0:
308,288,54573,5,8,0:2:0:0:
302,353,54744,1,0,0:0:0:0:
386,214,54916,6,0,P|401:304|408:376,1,160,6|0,0:3|0:0,0:0:0:0:
512,104,55430,1,0,0:0:0:0:
483,326,55601,2,0,P|488:247|507:139,1,160,2|8,0:3|0:3,0:0:0:0:
429,33,56116,5,0,0:0:0:0:
369,58,56287,1,2,0:2:0:0:
393,123,56458,1,0,0:0:0:0:
154,181,56630,6,0,P|227:171|315:200,1,160,6|0,0:3|0:0,0:0:0:0:
311,208,57144,1,2,0:3:0:0:
221,18,57316,5,8,0:3:0:0:
206,87,57487,1,0,0:0:0:0:
321,64,57658,5,6,0:3:0:0:
72,22,57830,5,8,0:2:0:0:
96,134,58001,1,2,0:2:0:0:
24,293,58173,5,8,0:3:0:0:
26,374,58344,2,0,L|36:277,1,80,2|0,0:3|0:0,0:0:0:0:
235,194,58687,5,8,0:3:0:0:
208,328,58858,2,0,L|190:218,1,80,2|0,0:3|0:0,0:0:0:0:
467,40,59201,5,8,0:2:0:0:
490,107,59373,2,0,B|448:84|402:125|405:131|409:138|386:185|315:161|315:161|332:142|339:118,1,240.000009155274,2|8,2:0|2:0,0:0:0:0:
336,127,60401,2,0,L|343:159,1,30.0000011444092,0|0,2:0|2:0,0:0:0:0:
417,221,60744,6,0,P|370:265|491:328,1,240.000009155274,2|8,2:0|2:0,0:0:0:0:
474,344,61773,1,0,2:0:0:0:
498,215,61944,5,0,2:0:0:0:
498,215,62116,2,0,P|481:250|478:276,1,60.0000022888184,2|0,2:0|2:0,0:0:0:0:
357,360,62458,2,0,P|352:326|341:293,1,60.0000022888184,0|0,2:0|2:0,0:0:0:0:
410,92,62801,5,8,2:0:0:0:
453,147,62973,1,0,2:0:0:0:
386,160,63144,2,0,P|346:154|315:147,1,60.0000022888184,0|0,2:0|2:0,0:0:0:0:
28,242,63487,6,0,B|99:215|131:273|126:284|121:297|154:359|220:336,1,240.000009155274,2|8,2:0|2:0,0:0:0:0:
220,337,64516,2,0,P|209:333|176:332,1,30.0000011444092,0|0,2:0|2:0,0:0:0:0:
183,22,64858,6,0,P|189:98|198:265,1,240.000009155274,2|8,2:0|2:0,0:0:0:0:
197,261,65887,2,0,P|202:229|211:210,1,30.0000011444092,0|0,2:0|2:0,0:0:0:0:
358,104,66230,6,0,P|347:224|341:344,1,240.000009155274,2|8,2:0|2:0,0:0:0:0:
341,344,67258,1,0,2:0:0:0:
472,298,67601,5,2,2:0:0:0:
472,298,67773,1,0,2:0:0:0:
490,231,67944,1,0,2:0:0:0:
439,182,68116,1,0,2:0:0:0:
329,96,68287,5,8,2:0:0:0:
315,205,68458,1,0,2:0:0:0:
432,104,68630,5,2,2:0:0:0:
430,96,68801,1,0,2:0:0:0:
427,88,68973,1,2,2:0:0:0:
427,88,69658,5,0,2:0:0:0:
257,127,70001,6,0,P|243:143|237:155,1,30,2|0,2:0|0:0,0:0:0:0:
282,201,70344,6,0,B|225:243|167:191|179:182|186:171|148:106|71:148,1,240.000009155274,6|0,0:3|0:0,0:0:0:0:
76,154,70858,1,2,0:3:0:0:
136,382,71030,5,8,0:2:0:0:
170,310,71201,1,0,0:0:0:0:
104,275,71373,1,2,0:3:0:0:
236,358,71544,5,0,0:0:0:0:
331,351,71716,1,2,0:2:0:0:
245,352,71887,1,0,0:0:0:0:
424,296,72058,5,2,0:3:0:0:
287,273,72230,1,0,0:0:0:0:
494,273,72401,5,10,0:2:0:0:
494,273,72744,1,2,0:2:0:0:
410,39,73087,5,6,0:3:0:0:
444,141,73258,1,0,0:0:0:0:
339,174,73430,1,0,0:0:0:0:
512,205,73601,5,2,0:3:0:0:
300,242,73773,5,8,0:2:0:0:
152,215,73944,1,0,0:0:0:0:
120,362,74116,1,2,0:3:0:0:
70,83,74287,5,8,0:3:0:0:
85,146,74458,1,0,0:0:0:0:
349,65,74630,5,8,0:2:0:0:
358,0,74801,1,2,0:3:0:0:
238,122,75144,5,8,0:2:0:0:
238,122,75316,1,2,0:3:0:0:
238,122,75487,1,2,0:2:0:0:
416,154,75658,5,8,0:3:0:0:
362,212,75830,2,0,P|260:233|224:383,1,240.000009155274,6|0,0:3|0:0,0:0:0:0:
221,357,76344,1,2,0:3:0:0:
0,281,76516,5,8,0:2:0:0:
94,261,76687,1,0,0:0:0:0:
277,126,76858,6,0,P|181:118|35:71,1,240.000009155274,2|0,0:3|0:0,0:0:0:0:
111,79,77373,1,0,0:0:0:0:
149,151,77544,1,2,0:3:0:0:
252,54,77716,1,0,0:0:0:0:
474,212,77887,5,10,0:2:0:0:
474,212,78230,1,2,0:2:0:0:
474,212,78573,5,6,0:3:0:0:
376,194,78744,1,0,0:0:0:0:
362,295,78916,1,0,0:0:0:0:
308,101,79087,5,2,0:3:0:0:
98,258,79258,5,8,0:2:0:0:
247,229,79429,1,0,0:0:0:0:
268,384,79601,1,2,0:3:0:0:
316,36,79773,5,10,0:3:0:0:
316,36,79944,1,2,2:0:0:0:
316,36,80287,1,2,2:0:0:0:
316,36,80630,6,0,L|331:33,3,16,2|0|0|0,2:0|2:0|2:0|2:0,0:0:0:0:
162,80,81316,6,0,P|278:99|388:198,1,240,6|0,2:0|2:0,0:0:0:0:
455,195,81658,2,0,P|448:136|401:80,1,80,2|0,0:2|2:0,0:0:0:0:
151,198,81830,2,0,P|182:180|251:183,1,80,2|0,0:3|2:0,0:0:0:0:
466,330,82001,5,8,0:2:0:0:
401,304,82173,1,0,0:0:0:0:
376,366,82344,1,2,0:3:0:0:
301,193,82516,5,0,0:0:0:0:
86,384,82687,5,2,0:2:0:0:
199,355,82858,1,0,0:0:0:0:
227,250,83030,1,2,0:3:0:0:
114,279,83201,1,0,0:0:0:0:
33,137,83373,5,8,0:2:0:0:
33,137,83544,1,0,0:0:0:0:
33,137,83716,1,2,0:2:0:0:
33,137,83887,1,0,0:0:0:0:
11,202,84058,6,0,B|71:228|112:169|100:160|89:151|132:73|198:101,1,240,6|0,0:3|2:0,0:0:0:0:
258,43,84401,2,0,P|301:67|336:145,1,80,2|0,0:2|2:0,0:0:0:0:
436,106,84573,2,0,P|441:156|395:226,1,80,2|0,0:3|2:0,0:0:0:0:
292,336,84744,5,8,0:2:0:0:
281,268,84916,1,0,0:0:0:0:
351,255,85087,1,2,0:3:0:0:
471,351,85258,5,10,0:3:0:0:
177,315,85430,6,0,P|189:277|189:238,1,80,2|0,0:2|2:0,0:0:0:0:
118,264,85601,1,8,0:2:0:0:
7,62,85773,6,0,P|83:154|107:311,1,240,6|0,0:3|2:0,0:0:0:0:
40,312,86116,6,0,P|24:263|78:255,1,80,2|0,0:0|2:0,0:0:0:0:
152,122,86287,6,0,P|171:155|122:199,1,60.0000022888184,2|0,0:3|2:0,0:0:0:0:
19,152,86458,6,0,P|46:147|71:154,1,40,2|0,0:2|2:0,0:0:0:0:
188,237,86630,6,0,P|210:241|229:239,1,30.0000011444092,8|0,0:3|2:0,0:0:0:0:
443,179,86801,6,0,P|349:182|315:322,1,240,6|0,0:3|2:0,0:0:0:0:
306,305,87144,1,2,0:2:0:0:
375,280,87316,1,2,0:3:0:0:
512,384,87487,5,8,0:2:0:0:
477,307,87658,1,0,0:0:0:0:
499,378,87830,1,2,0:3:0:0:
508,226,88001,1,0,0:0:0:0:
415,80,88173,6,0,B|355:112|306:72|307:60|310:50|305:-16|210:1,1,240,2|0,0:2|2:0,0:0:0:0:
216,0,88516,1,6,0:3:0:0:
189,73,88687,1,0,0:0:0:0:
72,218,88858,5,8,0:2:0:0:
40,123,89030,1,0,0:0:0:0:
102,60,89201,1,2,0:2:0:0:
134,155,89373,1,0,0:0:0:0:
0,325,89544,5,0,2:0:0:0:
0,325,89716,1,0,2:0:0:0:
138,341,89887,5,0,2:0:0:0:
138,341,90058,1,0,2:0:0:0:
253,353,90230,5,0,2:0:0:0:
253,353,90401,1,0,2:0:0:0:
345,361,90573,5,0,2:0:0:0:
345,361,90744,1,0,2:0:0:0:
417,368,90916,5,0,2:0:0:0:
480,374,91258,5,0,2:0:0:0:
256,192,91344,12,0,92287,2:0:0:0:
